#VERSION:0.81;
#TITLE:Excalibur;
#SUBTITLE:;
#ARTIST:Marcus Maison & Will Dragen;
#TITLETRANSLIT:;
#SUBTITLETRANSLIT:;
#ARTISTTRANSLIT:;
#GENRE:;
#ORIGIN:;
#CREDIT:;
#BANNER:Excalibur.png;
#BACKGROUND:Excalibur-bg.png;
#PREVIEWVID:;
#JACKET:Excalibur-jacket.png;
#CDIMAGE:;
#DISCIMAGE:a8793.png;
#LYRICSPATH:;
#CDTITLE:;
#MUSIC:Excalibur.ogg;
#OFFSET:-3.738000;
#SAMPLESTART:44.980000;
#SAMPLELENGTH:12.000000;
#SELECTABLE:YES;
#BPMS:0.000=64.000,
28.000=128.000;
#STOPS:;
#DELAYS:;
#WARPS:;
#TIMESIGNATURES:0.000=4=4;
#TICKCOUNTS:0.000=4;
#COMBOS:0.000=1;
#SPEEDS:0.000=1.000=0.000=0;
#SCROLLS:0.000=1.000;
#FAKES:;
#LABELS:0.000=Song Start;
#BGCHANGES:;
#KEYSOUNDS:;
#ATTACKS:
;

//---------------dance-single - ----------------
#NOTEDATA:;
#CHARTNAME:;
#STEPSTYPE:dance-single;
#DESCRIPTION:;
#CHARTSTYLE:;
#DIFFICULTY:Hard;
#METER:7;
#RADARVALUES:0.413591,0.427078,0.224778,0.044956,0.193309,292.000000,25.000000,5.000000,0.000000,0.000000,0.000000,0.000000,0.000000,0.413591,0.427078,0.224778,0.044956,0.193309,292.000000,25.000000,5.000000,0.000000,0.000000,0.000000,0.000000,0.000000;
#CREDIT:;
#NOTES:
0000
0000
0000
0000
0000
0000
0000
0001
,
0010
0000
0000
0000
0000
0000
0100
1000
0010
0000
0000
0000
0000
0000
0010
0100
,
0001
0000
0000
0000
0000
0000
0000
0000
1000
0000
0000
0001
0000
0000
0100
0000
,
0001
0000
0010
0000
0100
0000
0010
0000
0000
0010
0000
0000
0100
0000
1000
0000
0001
0000
0000
0000
0000
0000
0000
0000
0000
0000
0000
0000
1000
0000
0010
0000
,
0100
0000
0001
0000
1000
0000
0100
0000
0000
0100
0000
0000
0010
0000
0001
0000
1000
0000
0000
0000
0000
0000
0000
0000
0000
0000
0000
0000
0001
0000
0000
0000
,
1000
0000
0001
0000
0100
0000
0010
0000
0000
0010
0000
0000
0100
0000
0001
0000
0010
0000
0000
0000
0000
0000
0000
0000
0000
0000
0000
0000
0100
0000
1000
0000
,
0010
0000
0100
0000
0010
0000
1000
0000
0000
0001
0000
0000
1000
0000
0100
0000
0010
0000
0000
0000
0000
0000
0000
0000
0000
0000
0000
0000
0000
0000
0000
0000
,
0100
0000
1000
0000
0010
0000
0100
0000
0000
0100
0000
0000
0100
0000
0001
0000
,
1000
0000
0000
0000
0000
0000
0001
1000
,
0100
0000
0010
0000
0100
0000
1000
0000
0000
0010
0000
0000
0100
0000
0001
0000
,
0010
0000
0000
0100
0010
0001
1000
0010
,
0100
0000
0001
0000
0010
0000
0100
0000
0000
0010
0000
0000
0100
0000
1000
0000
,
0010
0000
0000
0010
0000
0000
0100
0000
0000
0100
0000
0000
0010
0000
1000
0000
,
0001
0000
0010
0000
0100
0000
0010
0000
0000
0001
0000
0000
1000
0000
0010
0000
,
0200
0000
0000
0310
1000
0001
0011
1100
,
1001
0000
0001
0000
0100
0000
0010
0000
0000
1000
0000
0000
0100
0000
1000
0000
,
0010
0000
0000
0100
0000
0000
0001
0000
0000
0100
0000
0000
0001
0000
1000
0000
,
0100
0000
0010
0000
0100
0000
1000
0000
0000
0001
0000
0000
0100
0000
0001
0000
,
0020
0000
0000
0130
0010
0010
0001
1000
,
0100
0000
1000
0000
0001
0000
0100
0000
0000
0001
0000
0000
1000
0000
0001
0000
,
0100
0000
0000
0110
0000
0000
0010
0000
0000
0110
0000
0000
0100
0000
0010
0000
,
1000
0000
0001
0000
0010
0000
0100
0000
0000
0100
0000
0000
0010
0000
0001
0000
,
1000
0100
0010
0001
,
0010
0100
1000
0100
,
0010
0010
0001
0001
,
1000
0000
0000
0001
0100
0010
1000
1000
,
0101
0000
0000
0001
1000
0100
0001
0100
,
0000
0000
0000
0010
0001
0010
1000
0010
,
0000
0000
0000
0100
1000
0010
0001
0010
,
0000
0000
0000
0100
1000
0100
0001
0010
,
0000
0000
0000
0100
0001
0100
1000
0010
,
0000
0000
0000
0010
1000
0010
0001
0100
,
0000
0000
0000
0100
0010
1000
0001
0010
,
0000
0000
0000
0100
0010
0010
0100
0010
,
1001
0000
0001
0000
1000
0000
0100
0000
0000
1100
0000
0000
1000
0000
0010
0000
,
0110
0000
0000
0100
0000
0000
0101
0000
0000
0001
0000
0000
0010
0000
0100
0000
,
1000
0000
0100
0000
0001
0000
0101
0000
0000
0110
0000
0000
0100
0000
1000
0000
,
0020
0000
0000
0130
0010
0010
1000
0001
,
0010
0000
0100
0000
1000
0000
0010
0000
0000
0110
0000
0000
0100
0000
0001
0000
,
1001
0000
0000
0001
0000
0000
1001
0000
0000
1000
0000
0000
0100
0000
1000
0000
,
0010
0000
0100
0000
0001
0000
0011
0000
0000
1100
0000
0000
1000
0000
0001
0000
,
0100
0000
0000
0010
0100
0100
0101
0110
,
1010
0000
0010
0000
1000
0000
0001
1000
,
1001
0000
0001
0000
0100
0000
0010
1000
,
1010
0000
0010
0000
0100
0000
0010
0100
,
1001
0000
0000
0001
0100
0100
0001
0010
,
0010
0000
0100
0000
1000
0000
0100
0010
,
0011
0000
0001
0000
0100
0000
0010
1000
,
1010
0000
0010
0000
0100
0000
0010
0100
,
0002
0000
0000
2000
0000
0000
0000
0000
,
3003
0000
0000
0000
;

//---------------dance-single - ----------------
#NOTEDATA:;
#CHARTNAME:;
#STEPSTYPE:dance-single;
#DESCRIPTION:;
#CHARTSTYLE:;
#DIFFICULTY:Easy;
#METER:2;
#RADARVALUES:0.172115,0.176226,0.188813,0.134867,0.000000,98.000000,21.000000,15.000000,0.000000,0.000000,0.000000,0.000000,0.000000,0.172115,0.176226,0.188813,0.134867,0.000000,98.000000,21.000000,15.000000,0.000000,0.000000,0.000000,0.000000,0.000000;
#CREDIT:;
#NOTES:
0000
0000
0000
0000
,
0100
0000
0010
0000
,
1000
0000
0000
0000
,
0002
0000
0103
0000
,
2000
0000
3010
0000
,
0200
0000
0310
0000
,
2000
0000
3001
0000
,
0002
0000
0000
0000
,
0103
0000
0001
0000
,
2000
0000
0000
0000
,
3100
0000
1000
0001
,
0200
0000
0000
0000
,
0320
0000
0000
0000
,
2030
0000
0002
0000
,
3003
0000
1001
1001
,
0110
0000
0000
0100
,
0110
0000
0000
0010
,
1010
0000
0000
1000
,
1001
0000
0001
1000
,
1010
0000
0000
0010
,
0101
0000
0000
0001
,
1100
0000
0000
0100
,
0020
0000
0000
0000
,
0000
0000
0000
0000
,
0000
0000
0000
0000
,
0030
0000
0001
1000
,
1001
0000
0001
0100
,
0000
0000
0010
1000
,
0000
0000
0010
0100
,
0000
0000
0010
1000
,
0000
0000
0001
1000
,
0000
0000
0100
1000
,
0000
0000
1000
0010
,
0000
0000
0100
0010
,
1001
0001
1000
0010
,
2000
0000
0000
3010
,
0010
0100
0001
1000
,
0202
0000
0000
0303
,
0001
1000
0100
0010
,
0011
0000
0000
0010
,
0001
1000
0010
0100
,
0020
0000
1000
1030
,
1010
0000
0000
0010
,
0101
0000
0000
0100
,
0011
0000
0000
0010
,
0110
0000
0010
0000
,
1100
0000
0000
1000
,
0101
0000
0000
1000
,
1010
0000
0000
0010
,
0101
0000
0000
0000
;

//---------------dance-single - ----------------
#NOTEDATA:;
#CHARTNAME:;
#STEPSTYPE:dance-single;
#DESCRIPTION:;
#CHARTSTYLE:;
#DIFFICULTY:Medium;
#METER:5;
#RADARVALUES:0.319827,0.314689,0.107893,0.044956,0.062938,232.000000,12.000000,5.000000,0.000000,0.000000,0.000000,0.000000,0.000000,0.319827,0.314689,0.107893,0.044956,0.062938,232.000000,12.000000,5.000000,0.000000,0.000000,0.000000,0.000000,0.000000;
#CREDIT:;
#NOTES:
0000
0000
0000
0000
,
0101
0000
0000
0000
0000
0000
0000
0000
0001
0000
0000
1000
0000
0000
0010
0100
,
0001
0000
0000
0000
0000
0000
0000
0000
1000
0000
0000
0010
0000
0000
0100
0010
,
1000
0000
0000
0000
0000
0000
0100
0010
1000
0000
0000
0000
0000
0000
0001
0010
,
0100
0000
0000
0000
0000
0000
0010
0001
1000
0000
0000
0000
0000
0000
0001
0000
,
0100
0000
0000
0000
0000
0000
0010
1000
0010
0000
0000
0000
0000
0000
0100
0010
,
0100
0000
0000
0000
0000
0000
0000
0000
0001
0000
0000
1000
0000
0000
0010
0000
,
0100
0001
1000
0100
,
0010
0000
0010
0000
0010
0000
0010
0001
,
1000
0001
0100
0010
,
2000
0000
3010
1000
,
0001
0000
1000
0000
0100
0000
1000
0001
,
0100
0000
0001
0000
1000
0000
0010
0100
,
0001
1000
0010
0100
,
2002
0000
3003
0000
0001
0100
0010
1000
,
1001
0000
0001
0000
0010
0000
0100
1000
,
0100
0000
1000
0000
0010
0000
0100
0001
,
1000
0000
0001
0000
0100
0000
0010
1000
,
0001
0000
0000
1000
0100
0010
0001
0010
,
0100
0000
0010
0000
0001
0000
1000
0001
,
0100
0000
0001
0000
1000
0000
0010
1000
,
0010
0000
0100
0000
0001
0000
1000
0001
,
0020
0100
0100
0100
,
0100
0100
0100
0100
,
0100
0100
0100
0100
,
0030
0000
0000
0100
1000
0001
1000
0001
,
0000
0000
0000
0100
0001
0100
0001
0100
,
0000
0000
0000
0010
0100
0010
0100
0010
,
0000
0000
0000
1000
0010
1000
0010
1000
,
0000
0000
0000
0001
1000
0001
1000
0001
,
0000
0000
0000
1000
0100
1000
0100
1000
,
0000
0000
0000
0100
0010
0100
0010
0100
,
0000
0000
0000
0010
0001
0010
0001
0010
,
0000
0000
0000
0001
1000
0100
1000
0001
,
0101
0000
0001
0000
0100
0000
0010
1000
,
0001
0000
1000
0000
0100
0000
1000
0010
,
0100
0000
0000
0010
0000
0000
1000
0000
0000
0001
0000
0000
0010
0000
0100
0000
,
1000
0000
0000
0100
1000
0000
0010
0000
,
0110
0000
0100
0000
0001
0000
1000
0001
,
0100
0000
0001
0000
1000
0000
0100
1000
,
0010
0000
0000
0100
0000
0000
0010
0000
0000
1000
0000
0000
0001
0000
1000
0000
,
0010
0000
0100
0001
,
0101
0000
0001
0000
1000
0000
0001
1000
,
1001
0000
1000
0000
0010
0000
0100
0010
,
0110
0000
0010
0000
1000
0000
0001
1000
,
1001
0000
0001
1000
,
1100
0000
0100
0000
0010
0000
0001
0010
,
0011
0000
0001
0000
0100
0000
0010
1000
,
1010
0000
1000
0000
0001
0000
1000
0001
,
0020
0000
0000
0000
,
0030
0000
0000
0000
;

//---------------dance-single - ----------------
#NOTEDATA:;
#CHARTNAME:;
#STEPSTYPE:dance-single;
#DESCRIPTION:;
#CHARTSTYLE:;
#DIFFICULTY:Challenge;
#METER:9;
#RADARVALUES:0.622955,0.651855,0.620386,0.071929,0.674333,408.000000,69.000000,8.000000,0.000000,0.000000,0.000000,0.000000,0.000000,0.622955,0.651855,0.620386,0.071929,0.674333,408.000000,69.000000,8.000000,0.000000,0.000000,0.000000,0.000000,0.000000;
#CREDIT:;
#NOTES:
// measure 0
0000
0000
0000
0000
0000
0000
0000
0000
0000
0000
0000
0000
0000
0000
0101
0100
,  // measure 1
0101
0000
0000
0000
0000
0000
1000
0100
0101
0000
0000
0110
0000
0000
0010
0001
,  // measure 2
1001
0000
0000
0000
0000
0000
0000
0000
1010
0000
0000
1010
0000
0000
1100
1000
,  // measure 3
1100
0000
0100
0000
0010
0000
0001
0000
0000
1000
0000
0000
0001
0000
0010
0000
0110
0000
0000
0000
0000
0000
1001
0000
0000
0000
0000
0000
0011
0000
0010
0000
,  // measure 4
0011
0000
0001
0000
1000
0000
0010
0000
0000
0010
0000
0000
0100
0000
0010
0000
1010
0000
0000
0000
0000
0000
0101
0000
0000
0000
0000
0000
1001
0000
1000
0000
,  // measure 5
1001
0000
0001
0000
1000
0000
0100
0000
0000
0010
0000
0000
0100
0000
1000
0000
1010
0000
0000
0000
0000
0000
1010
0000
0000
0000
0000
0000
1000
0000
0010
0000
,  // measure 6
0110
0000
0100
0000
0001
0000
1000
0000
0000
0001
0000
0000
1000
0000
0001
0000
0101
0000
0000
0000
0000
0000
0011
0000
0000
0000
0000
0000
0110
0000
0100
0000
,  // measure 7
1100
0000
0100
0000
1000
0000
0001
0000
0000
0001
0000
0000
0010
0000
1000
0000
,  // measure 8
0001
0000
0000
0001
0000
0000
1000
0000
0000
1000
0000
0000
0001
0000
0010
0000
,  // measure 9
0100
0000
0010
0000
0001
0000
1000
0000
0000
0010
0000
0000
0100
0000
0001
0000
,  // measure 10
2000
0000
0000
0000
3000
0000
0001
0100
0001
0100
0001
0100
0010
0000
0010
0000
,  // measure 11
0100
0000
0001
0000
1000
0000
0100
0000
0000
0010
0000
0000
0100
0000
0010
0000
,  // measure 12
0001
0000
0000
0011
0000
0000
0010
0000
0000
0110
0000
0000
0100
0000
1000
0000
,  // measure 13
0010
0000
1000
0000
0001
0000
0010
0000
0000
0001
0000
0000
1000
0000
0001
0000
,  // measure 14
0020
0000
0000
0000
0000
0000
0130
0010
0001
0100
1000
0100
0010
0000
1000
0000
,  // measure 15
1001
0000
0001
0000
1000
0000
0010
0000
0000
1010
0000
0000
1000
0000
0100
0000
,  // measure 16
0110
0000
0000
0011
0000
0000
0110
0000
0000
1100
0000
0000
0100
0000
1000
0000
,  // measure 17
0001
0000
0100
0000
0001
0000
0010
0000
0000
0011
0000
0000
0010
0000
0100
0000
,  // measure 18
2000
0000
0000
0000
0000
0000
3100
0010
0001
1000
0010
0100
0001
0000
1000
0000
,  // measure 19
1001
0000
1000
0000
1010
0000
0010
0000
0000
0100
0000
0000
0010
0000
1000
0000
,  // measure 20
1001
0000
0000
0011
0000
0000
1001
0000
0000
1010
0000
0000
1001
0000
0001
0000
,  // measure 21
1001
0000
1000
0000
0100
0000
0110
0000
0000
0110
0000
0000
0100
0000
0010
0000
,  // measure 22
0001
1000
0001
1000
0000
0001
1000
0001
0000
0001
0100
0001
0000
0100
0010
0100
,  // measure 23
0000
0010
1000
0010
0000
1000
0100
1000
0000
0100
0010
0100
0000
0010
0001
0010
,  // measure 24
0000
0001
1000
0001
0000
0100
0001
0100
0000
0100
0010
0100
0000
0010
1000
0010
,  // measure 25
0000
0000
0000
0000
0000
0000
1000
0001
1000
1000
0001
0001
0100
0000
0010
0000
,  // measure 26
1001
0000
0000
0000
0000
0000
0001
0001
0100
0001
0010
0010
0100
0000
1000
0000
,  // measure 27
1001
0000
0000
0000
0000
0000
1000
1000
0100
0100
0010
0001
0010
0000
0010
0000
,  // measure 28
0110
0000
0000
0000
0000
0000
0100
1000
0100
0100
0010
0010
0001
0000
1000
0000
,  // measure 29
1001
0000
0000
0000
0000
0000
0001
0100
0010
0010
0100
0100
0001
0000
1000
0000
,  // measure 30
1100
0000
0000
0000
0000
0000
0100
0100
0010
0010
0001
0001
1000
0000
1000
0000
,  // measure 31
1001
0000
0000
0000
0000
0000
0001
0100
1000
0100
0100
0010
1000
0001
0010
0000
,  // measure 32
0000
0000
0000
0000
0000
0000
0100
0100
0010
1000
0001
0001
0010
0000
0100
0000
,  // measure 33
0000
0000
0000
0000
0000
0000
0010
0010
0010
0100
0100
1000
0001
0000
1000
0000
,  // measure 34
1001
0000
1000
0000
0010
0000
1000
0000
0000
0101
0000
0001
0100
0000
0100
0010
,  // measure 35
1000
0000
0000
1001
0000
0000
0001
0000
0000
0011
0000
0000
0010
0000
0100
1000
,  // measure 36
0010
0000
0100
0000
0001
0000
0100
0000
0000
0110
0000
0000
0100
0000
0010
1000
,  // measure 37
0002
0000
0000
0000
0000
0000
1003
0100
0001
0001
0100
0010
0001
0000
1000
0000
,  // measure 38
1010
0000
1000
0000
0001
0000
0010
0000
0000
0011
0000
0010
0100
1000
0100
0010
,  // measure 39
0001
0000
0000
1001
0000
0000
1000
0000
0000
0101
0000
0000
0001
0000
1000
0001
,  // measure 40
0010
0000
0100
0000
1000
0000
0100
0000
0000
1100
0000
0100
0010
0000
0010
0001
,  // measure 41
0020
0000
0000
0000
0000
0000
0031
0010
0100
0100
0010
0001
1000
0000
0001
0000
,  // measure 42
0011
0000
0001
0000
0100
0000
0010
0000
0000
0110
0000
0010
1000
0000
0100
1000
,  // measure 43
0001
0000
0000
1001
0000
0000
0100
0000
0000
0110
0000
0000
0100
0000
0100
0001
,  // measure 44
0100
0000
1000
0000
0100
0000
0001
0000
0000
0101
0000
0000
0001
0000
1000
0000
,  // measure 45
0020
0000
0000
0000
0000
0000
1030
0010
0010
0100
0001
1000
1000
0000
0001
0000
,  // measure 46
0101
0000
0001
0000
1000
0000
0100
0000
0000
1001
0000
0001
1000
0100
1000
0001
,  // measure 47
0100
0000
0000
0101
0000
0000
0010
0000
0000
1010
0000
0000
0010
0000
1000
0000
,  // measure 48
0001
0000
0100
0000
0010
0000
1000
0000
0000
1001
0000
0100
0010
0000
0100
0010
,  // measure 49
2000
0000
0000
0002
0000
0000
0000
0000
,  // measure 50
3003
0000
0000
0000
;

//---------------dance-single - ----------------
#NOTEDATA:;
#CHARTNAME:;
#STEPSTYPE:dance-single;
#DESCRIPTION:;
#CHARTSTYLE:;
#DIFFICULTY:Beginner;
#METER:1;
#RADARVALUES:0.119453,0.154197,0.062938,0.000000,0.000000,86.000000,7.000000,0.000000,0.000000,0.000000,0.000000,0.000000,0.000000,0.119453,0.154197,0.062938,0.000000,0.000000,86.000000,7.000000,0.000000,0.000000,0.000000,0.000000,0.000000,0.000000;
#CREDIT:;
#NOTES:
0000
0000
0000
0000
,
1000
0000
0010
0000
,
0100
0000
0000
0000
,
0001
0000
0010
0000
,
0001
0000
1000
0000
,
0100
0000
1000
0000
,
0001
0000
0000
0000
,
1000
0000
0000
0000
,
0001
0000
0000
0100
,
0100
0000
0000
0000
,
0010
0000
1000
0000
,
1001
0000
0000
0001
,
0010
0000
0000
0010
,
0100
0000
0000
0000
,
1000
0000
0001
1000
,
1001
0000
0000
0001
,
0010
0000
0000
0001
,
1000
0000
0001
0000
,
0100
0000
0000
0000
,
0010
0000
0000
0100
,
0010
0000
0000
1000
,
0001
0000
1000
0000
,
0010
0000
0000
0000
,
0000
0000
0000
0000
,
0000
0000
0000
0000
,
0000
0000
1000
1000
,
0000
0000
0001
0001
,
0000
0000
1000
1000
,
0000
0000
0100
0100
,
0000
0000
0100
0100
,
0000
0000
1000
1000
,
0000
0000
0001
0001
,
0000
0000
1000
1000
,
0000
0000
0010
0010
,
1001
0000
0000
0001
,
0010
0000
0000
0010
,
0100
0000
0000
0000
,
0000
0000
0000
1000
,
0001
0000
0000
0100
,
0100
0000
0000
0010
,
0010
0000
0000
0000
,
1000
0000
0001
0000
,
1001
0000
0001
0000
,
1000
1000
0001
0001
,
1000
0000
0010
0000
,
0110
0000
0100
0000
,
0110
0000
0000
0010
,
0010
0000
1000
0000
,
0001
0000
1000
0000
,
1001
0000
0000
0000
;
