#TITLE:Emotion;
#SUBTITLE:;
#ARTIST:☺;
#TITLETRANSLIT:;
#SUBTITLETRANSLIT:;
#ARTISTTRANSLIT:Smiley;
#GENRE:;
#CREDIT:;
#BANNER:Emotion.png;
#BACKGROUND:Emotion-bg.png;
#LYRICSPATH:;
#CDTITLE:;
#MUSIC:Emotion.ogg;
#OFFSET:0.006000;
#SAMPLESTART:58.177181;
#SAMPLELENGTH:13.090904;
#SELECTABLE:YES;
#BPMS:0.000000=165.000000
;
#STOPS:94.000000=0.364000
;
#BGCHANGES:;
#KEYSOUNDS:;
#ATTACKS:;

//---------------dance-single - ----------------
#NOTES:
     dance-single:
     :
     Hard:
     9:
     0.548064,0.677020,0.100299,0.133732,0.183882,459.000000,447.000000,12.000000,16.000000,0.000000,0.000000,0.548064,0.677020,0.100299,0.133732,0.183882,459.000000,447.000000,12.000000,16.000000,0.000000,0.000000:
0000
0000
0000
0000
,
0000
0000
0000
0000
,
0000
0000
0000
0000
,
0000
0000
0000
0000
,
1000
0100
1000
0001
0000
0100
0001
0100
,
0010
0100
0001
1000
0000
0000
0000
0001
,
1000
0010
1000
0001
0000
0100
0010
1000
,
0001
0010
0001
1000
0000
0010
0100
0010
,
1000
0001
0010
0000
0100
0010
0000
0100
,
1000
0001
0010
0000
0100
1000
0001
0000
,
0001
1000
0100
0000
0010
0100
0000
0010
,
0001
1000
0100
0000
0010
0001
1000
0000
,
0001
0100
1000
0000
0100
0010
0000
1000
,
0010
0001
0010
0000
0100
0001
0000
0010
,
1000
0010
0001
0000
0010
0100
0000
1000
,
0010
0001
0100
0000
0001
1000
1001
0000
,
2000
0100
0010
3001
,
0002
0100
0010
1003
,
2000
0100
0010
3001
,
0002
0100
0010
1003
,
0002
0100
0010
0103
,
2000
0100
0010
3100
,
0002
0000
0100
0000
0010
0000
0100
0003
,
1000
0000
0001
1000
0000
0001
1000
0000
0100
0000
0000
0000
1000
0000
0010
0000
,
0000
0100
0000
0000
0001
0000
0010
0000
0001
0000
1000
0000
0001
0000
1000
0010
,
0000
1000
0001
0000
1000
0100
0000
1000
0001
0000
0100
0000
0010
0000
1000
0000
,
0000
0100
0000
0000
0010
0000
0100
0000
1000
0000
0001
0000
0010
0000
0001
0100
,
0000
0001
1000
0000
0001
0010
0000
0001
0010
0000
0100
1000
0000
0000
0001
0000
,
0000
0100
0000
0000
0001
0000
1000
0000
0100
0000
1000
0000
0010
0000
0100
1000
,
0000
0100
0010
0000
0100
0001
0000
0100
0010
0000
1000
0001
0000
0000
0010
0000
,
0000
0100
0000
0000
0010
0000
0001
0000
1000
0000
0100
0000
1000
0000
0010
0100
,
0010
0100
0010
0000
1001
0000
0000
0000
0000
0000
0000
0000
0101
0000
0000
0000
,
0000
0000
0001
0010
0100
0000
0010
0000
0100
0000
1000
0000
0001
0000
0000
0000
,
1100
0000
0000
0000
1001
0000
0000
0000
0000
0000
1000
0100
0010
0000
0000
0000
,
0000
0000
0010
0100
1000
0000
0100
0000
0010
0000
0001
0000
1000
0000
0000
0000
,
0000
0000
0000
0001
0000
0001
1000
0000
,
0000
0000
0001
0010
0100
0000
1000
0000
0010
0000
0100
0000
0001
0000
0000
0000
,
1010
0000
0000
0000
0101
0000
0000
0000
0000
0000
1000
0001
0010
0000
0000
0000
,
0000
0000
0100
0010
0001
0000
0010
0000
0100
0000
1000
0000
0001
0000
0000
0000
,
0000
0000
0000
0000
0000
0000
1000
0000
0010
0000
0100
0000
0001
0000
0000
1000
,
0100
0000
0000
0100
0010
0000
0001
0000
0010
0000
0100
0000
1000
0000
0000
0001
,
0100
0000
0000
0100
0010
0000
0000
0000
0000
0000
0000
1000
0010
0000
0000
0010
,
0100
0000
0000
0100
0001
0000
0010
0000
0001
0000
1000
0000
0001
0000
0000
0000
,
0000
0000
0000
0000
0000
0000
0010
0000
0001
0000
0100
0000
0010
0000
0000
0100
,
0001
0000
0000
0001
0010
0000
0100
0000
0010
0000
0001
0000
1000
0000
0000
0010
,
1000
0000
0000
1000
0001
0000
0000
0000
0000
0000
0000
1000
0010
0000
0000
0100
,
0001
0000
0000
0001
1000
0000
0000
1000
0001
0000
0000
0001
0100
0000
0000
0000
,
0000
0000
0000
1100
,
0101
0011
1010
1001
,
0001
0100
0000
1000
0000
0100
0000
0010
,
0000
0100
0000
0010
1000
0000
0001
0000
,
0000
0010
0001
0001
1000
0020
0000
0030
,
0000
0100
0001
1000
0001
0200
0000
0300
,
0010
0100
0000
1000
0000
0100
0000
0001
,
0000
0010
0000
0001
1000
0000
0001
0000
,
0000
1000
0100
0100
1000
0002
0000
0003
,
0000
1000
0100
1000
0020
0000
0130
0000
,
0100
0001
0000
0010
0000
1000
0000
0010
,
0000
0100
0000
1000
0001
0000
0010
0000
,
0000
0100
1000
1000
0001
0200
0000
0300
,
0000
0100
0010
1000
0001
0020
0000
0030
,
0100
0010
0000
0001
0000
0100
0000
1000
,
0000
0100
0000
1000
0001
0000
0010
0000
,
0000
0001
0100
0100
0010
2000
0000
3000
,
0000
0001
0010
0001
0200
0000
0310
1000
,
0100
0001
0000
0001
0100
0010
0001
1000
,
0001
0100
0000
0000
0001
0000
1000
0010
,
0001
0010
0000
0100
0010
1000
0001
0010
,
0001
1000
0000
0100
0010
0001
1000
0100
,
1000
0010
0000
0001
0010
1000
0010
0100
,
0001
0010
0000
0000
0100
0000
1000
0001
,
0010
0001
0000
0010
0001
0010
1000
0010
,
0100
1000
0000
0001
0010
0100
1000
0100
,
1000
0001
0000
0100
0001
0100
0010
0100
,
0001
1000
0000
0000
0001
0000
1000
0010
,
1000
0001
0000
0100
0010
1000
0001
0010
,
0001
0000
0000
0010
0100
1000
0001
0010
,
0001
1000
0000
0010
1000
0010
0100
0010
,
1000
0001
0000
0000
1000
0000
0001
0100
,
0001
0010
0000
0100
0010
0001
1000
0100
,
1000
0020
0000
0000
0000
0000
0000
0000
,
0030
0000
0000
0000
;

//---------------dance-single - ----------------
#NOTES:
     dance-single:
     :
     Easy:
     3:
     0.214927,0.304659,0.008358,0.041791,0.000000,180.000000,179.000000,1.000000,5.000000,0.000000,0.000000,0.214927,0.304659,0.008358,0.041791,0.000000,180.000000,179.000000,1.000000,5.000000,0.000000,0.000000:
0000
0000
0000
0000
,
0000
0000
0000
0000
,
0000
0000
0000
0000
,
0000
0000
0000
0000
,
1000
0000
0000
0000
,
0100
0000
0000
0000
,
1000
0000
0000
0000
,
0010
0000
0000
0000
,
0100
0000
0001
0000
,
1000
0000
0001
0000
,
0010
0000
0001
0000
,
1000
0000
0010
0000
,
1000
0100
1000
0000
,
0010
0100
0010
0000
,
0001
0100
0001
0000
,
0100
0010
0100
0000
,
1002
0000
0000
0000
,
0000
0000
0000
0003
,
2000
0000
0000
0000
,
0000
0000
0000
3000
,
0020
0000
0000
0000
,
0000
0000
0000
0030
,
0200
0000
0000
0000
,
0000
0000
0300
0001
,
0000
1000
0000
0100
,
1000
0100
0010
0001
,
0000
1000
0000
0010
,
0100
0001
0100
0010
,
0000
1000
0000
0001
,
0100
0001
0010
0001
,
0000
1000
0000
0100
,
0100
0100
0000
1000
,
0000
0001
0100
0010
,
1000
0100
0000
1000
,
0000
0010
0100
0001
,
0000
0000
0001
1000
,
0000
0100
1000
0010
,
0100
0001
0000
0010
,
0000
0001
0100
0001
,
0000
0000
0001
1000
,
0010
0100
0001
0010
,
0010
0100
0000
1000
,
0100
1000
1000
0001
,
0000
0000
0100
0001
,
0010
0100
0100
0010
,
0001
1000
0000
0001
,
0010
0100
1000
0010
,
0000
0000
0000
0100
,
0010
1000
0001
1000
,
0100
0000
1000
0000
,
0010
0000
0100
0001
,
0000
0100
0001
1000
,
0000
0100
1000
0010
,
0000
0100
0000
0001
,
0000
1000
0001
0100
,
0000
0010
0100
0010
,
0000
1000
0001
1000
,
0000
0100
0000
1000
,
0010
0100
0000
0001
,
0000
0010
0000
0100
,
0010
0001
0000
1000
,
0000
0001
0000
0100
,
0010
0100
0000
0010
,
0000
1000
0000
0001
,
0000
0100
0010
1000
,
0001
0010
0100
0010
,
0100
1000
0000
1000
,
0100
0010
0100
1000
,
0001
0000
0000
1000
,
0001
0100
0001
0010
,
0100
0010
0000
0100
,
1000
0010
0100
0001
,
1000
0001
0000
1000
,
0000
0000
0000
0010
,
0000
0000
0000
0100
,
0000
0000
0000
0001
,
0000
0000
0000
1000
,
0000
0000
0000
0001
,
0000
0000
0000
0010
,
0000
0000
0000
0200
,
0000
0000
0000
0000
,
0300
0000
0000
0000
;

//---------------dance-single - ----------------
#NOTES:
     dance-single:
     :
     Medium:
     5:
     0.357017,0.473914,0.142091,0.050150,0.000000,299.000000,282.000000,17.000000,6.000000,0.000000,0.000000,0.357017,0.473914,0.142091,0.050150,0.000000,299.000000,282.000000,17.000000,6.000000,0.000000,0.000000:
0000
0000
0000
0000
,
0000
0000
0000
0000
,
0000
0000
0000
0000
,
0000
0000
0000
0000
,
0001
0000
0000
0000
,
1000
0000
0000
0000
0000
0000
0000
0010
,
0100
0000
0000
0000
,
0010
0000
0000
0000
,
1000
0010
0100
0010
,
1000
0001
0010
0010
,
0001
0100
0010
0100
,
0001
0001
1000
0010
,
0100
0001
0100
0000
0001
0000
1000
0000
,
0010
0100
0010
0000
1000
0000
0100
0000
,
0010
0001
0010
0000
0001
0000
0100
0000
,
0010
1000
0010
0000
0100
0000
1001
0000
,
0020
0000
0000
0000
,
0200
0000
0000
0330
,
0200
0000
0000
0000
,
0020
0000
0000
0330
,
0001
0000
1000
0000
0000
0001
1000
0000
,
0010
0000
0100
0000
0000
0001
0100
0000
,
0010
0000
1000
0000
0000
0100
1000
0000
,
0010
1000
0001
0100
,
0001
0010
0001
1000
,
1000
1000
1000
0001
,
0010
0001
0100
0010
,
0010
0010
0010
0100
,
0010
1000
0100
1000
,
1000
1000
1000
0100
,
1000
0010
0100
0002
,
0000
1003
0001
0100
,
0000
0001
0100
1010
,
0101
1100
0000
1000
,
0000
0011
0110
1100
,
0000
0000
0000
1000
0000
0001
0100
0000
,
0000
0010
0100
0110
,
1010
0101
0000
0001
,
0000
1100
0110
1001
,
0000
0000
0001
1000
,
0100
0000
0001
0100
1000
0010
0100
0000
,
0001
1000
0000
0001
,
1000
0000
1000
0010
0001
0010
0100
0000
,
0000
0000
0000
0010
0100
0001
1000
0000
,
0001
0000
1000
0100
0010
0001
0010
0000
,
0001
0100
0000
0001
,
0010
0100
1000
0010
,
0000
0000
0000
0110
,
1001
0110
1001
0001
,
1000
0100
1000
0010
,
0100
0001
0010
0100
,
0000
0010
0100
0100
,
0000
0010
0001
1000
,
0100
1000
0010
0100
,
0001
1000
0100
1000
,
0000
0100
0010
0001
,
0000
0010
0100
1000
,
0100
0000
0001
0000
0100
0000
1000
0010
,
0100
0001
0000
0000
0000
0000
0001
0000
,
0010
0000
1000
0000
0010
0000
0100
0010
,
0001
1000
0000
0000
0000
0000
0001
0000
,
0100
0000
0010
0000
1000
0000
0001
1000
,
0010
1000
0000
0000
0000
0000
0100
0000
,
0010
0000
1000
0000
0001
0000
1000
0001
,
0010
0100
0000
0000
0010
0000
0100
0000
,
1000
0100
0000
0010
0001
0000
0100
0010
,
1000
0001
0000
0000
0000
0000
1000
0000
,
0010
1000
0000
1000
0001
0100
0010
1000
,
0001
0010
0000
0000
0000
0000
0001
0000
,
1000
0100
0000
1000
0010
0100
0010
0100
,
0001
1000
0000
0000
0000
0000
0001
0000
,
0100
0001
0000
0001
0100
0010
1000
0001
,
0010
0100
0000
0010
0001
0010
0100
0000
,
0000
0010
0000
0000
0001
0000
1000
0000
,
0000
0100
0000
0000
1000
0000
0010
0000
,
0000
0100
0000
0000
0001
0000
1000
0001
,
0100
0000
0000
0010
0100
0001
1000
0000
,
0000
0010
0000
0000
0100
0000
0001
0000
,
0000
0010
0000
0000
0100
0000
0010
0000
,
0000
0001
0000
0000
1000
0000
0001
1000
,
0100
0020
0000
0000
0000
0000
0000
0000
,
0030
0000
0000
0000
;

//---------------dance-single - ----------------
#NOTES:
     dance-single:
     :
     Beginner:
     1:
     0.142091,0.233300,0.033433,0.000000,0.000000,119.000000,115.000000,4.000000,0.000000,0.000000,0.000000,0.142091,0.233300,0.033433,0.000000,0.000000,119.000000,115.000000,4.000000,0.000000,0.000000,0.000000:
0000
0000
0000
0000
,
0000
0000
0000
0000
,
0000
0000
0000
0000
,
0000
0000
0000
0000
,
1000
0000
0000
0000
,
0001
0000
0000
0000
,
1000
0000
0000
0000
,
0010
0000
0000
0000
,
0100
0000
0000
0000
,
0010
0000
0000
0000
,
1000
0000
0000
0000
,
1000
0000
0000
0000
,
0001
0000
0000
0000
,
0100
0000
0000
0000
,
0001
0000
0000
0000
,
1000
0000
0001
1001
,
1000
0000
0000
0000
,
0010
0000
0000
0000
,
1000
0000
0000
0000
,
0100
0000
0000
0000
,
1000
0000
0000
0000
,
0001
0000
0000
0000
,
0100
0000
0000
0000
,
0010
0000
0100
0010
,
0000
0000
0000
0100
,
0000
0100
0000
0001
,
0000
0000
0000
1000
,
0000
1000
0000
0001
,
0000
0000
0000
0100
,
0000
0100
0000
0010
,
0000
0000
0000
1000
,
0000
0001
0000
1001
,
0000
0001
0000
1000
,
1000
1000
0000
0010
,
0000
0100
0100
0100
,
0000
0000
0000
0010
,
0000
0100
0000
0001
,
0001
0001
0000
1000
,
0000
0010
0010
0010
,
0000
0000
0100
0010
,
0000
1000
0000
0001
,
0001
0001
0000
1000
,
0000
0010
0010
0010
,
0000
0000
0000
0100
,
0000
0010
0000
0100
,
0100
0100
0000
0001
,
0000
1000
0000
0010
,
0000
0000
0000
1001
,
0000
0000
0000
0010
,
0000
0000
0000
0100
,
0000
0000
0000
0001
,
0000
0000
0000
1000
,
0000
0001
0000
0100
,
0000
0000
0000
0010
,
0000
0000
0000
1000
,
0000
1000
0000
0100
,
0000
1000
1000
0001
,
0000
0000
0000
0100
,
0000
0000
0000
0010
,
0000
0000
0000
0100
,
0000
0010
0000
0100
,
0000
0000
0000
0001
,
0000
0000
0000
1000
,
0000
0000
0000
0001
,
0000
0000
0000
1000
,
0000
0010
0000
0100
,
0000
0000
0000
0010
,
0000
0100
0000
0010
,
0000
0000
0100
0100
,
0000
0001
0000
1000
,
0000
0000
0000
0010
,
0000
1000
0000
0001
,
0000
0000
1000
1001
,
0000
0000
0000
0001
,
0000
0000
0000
0100
,
0000
0000
0000
0010
,
0000
0000
0000
1000
,
0000
0000
0000
0100
,
0000
0000
0000
0010
,
0000
0000
0000
0001
;

//---------------dance-single - ----------------
#NOTES:
     dance-single:
     :
     Challenge:
     11:
     0.851349,0.981679,0.468063,0.718811,0.614333,713.000000,657.000000,56.000000,86.000000,0.000000,0.000000,0.851349,0.981679,0.468063,0.718811,0.614333,713.000000,657.000000,56.000000,86.000000,0.000000,0.000000:
// measure 0
0000
0000
0000
0000
,  // measure 1
0000
0000
0000
0000
,  // measure 2
0000
0000
0000
0000
,  // measure 3
0000
0000
0000
0000
,  // measure 4
0002
0203
2300
3200
0000
0320
0230
0302
,  // measure 5
0023
2030
3020
0230
0000
0000
2300
0000
,  // measure 6
3200
2300
3020
0032
0000
0023
2030
3002
,  // measure 7
0023
0230
0302
2003
0000
3001
1000
0001
,  // measure 8
0100
0001
0010
0000
0100
0000
1000
0000
0010
0000
0100
0000
0001
0000
1000
0100
,  // measure 9
0010
0000
0001
0100
0010
0000
0100
0000
0001
0000
1000
0010
0000
0100
0001
0000
,  // measure 10
0010
0100
1000
0000
0010
0000
0100
0000
0001
0010
0001
0000
1000
0100
1000
0000
,  // measure 11
0010
0100
0001
0000
1000
0000
0001
0100
0001
0000
1000
0010
1000
0000
0001
0000
,  // measure 12
0010
0100
1000
0000
0001
0000
0100
0010
1000
0000
1000
0001
0000
0001
0100
0000
,  // measure 13
0010
1000
0100
0000
0010
0000
0100
1000
0010
0000
0100
0001
0000
0001
0010
0000
,  // measure 14
0100
1000
0010
0000
0100
0000
0001
0010
0100
0000
1000
0100
0000
0010
0001
0000
,  // measure 15
0100
0010
1000
0001
0010
0001
1000
0100
0010
0001
0100
0001
0010
0000
0000
0000
,  // measure 16
2100
0000
3010
0000
0100
0001
0010
0100
,  // measure 17
0120
0000
0031
0000
0100
0010
1000
0100
,  // measure 18
0210
0000
1300
0000
0010
0001
0100
0010
,  // measure 19
1020
0000
0130
0000
0010
1000
0100
0010
,  // measure 20
0012
0000
0103
0000
0010
1000
0100
0010
,  // measure 21
0021
0000
0130
0000
0100
0010
0001
1000
,  // measure 22
2001
0000
3010
0000
0100
1000
0010
0100
,  // measure 23
0001
0000
1000
1000
0000
0010
0010
0000
0100
0000
0000
0000
0010
0000
1000
0000
,  // measure 24
0000
0010
0000
0010
0100
0010
1000
0000
0001
0000
0010
0000
0001
0000
0010
0001
,  // measure 25
0000
0001
0100
0000
0100
0010
0000
0010
1000
0000
1000
0001
0100
0000
0010
0000
,  // measure 26
0000
1000
0000
0100
0010
0001
1000
0010
0100
0000
0100
0010
1000
0000
0001
0100
,  // measure 27
0000
0001
1000
0000
0001
0010
0000
0010
0100
0000
0100
0010
0001
0000
1000
0000
,  // measure 28
0010
1000
0000
1000
0010
0100
0001
0010
0100
0000
1000
0001
1000
0000
0001
0100
,  // measure 29
0000
0010
1000
0000
1000
0100
0000
0010
0001
0000
0010
0100
1000
0000
0010
0000
,  // measure 30
0000
1000
0000
0010
0100
0001
0010
0100
1000
0000
0001
0100
0010
0000
1000
0001
,  // measure 31
1000
0001
1000
0000
1001
0000
0001
0100
0001
0000
1000
0000
1100
0000
0000
0000
,  // measure 32
0100
0000
0000
0000
0000
0000
0010
0000
0001
0000
1000
0000
0001
0000
0000
0000
0000
0000
0100
0000
0000
0000
0000
0000
0001
0000
0000
0000
0000
0000
1000
0000
0000
0100
0000
0000
0020
0000
0000
0000
0000
0000
0000
0000
0000
0031
0000
0000
,  // measure 33
0200
0000
0000
0310
2000
0000
0000
0000
3100
0000
0010
0001
1000
0000
0000
0000
,  // measure 34
0010
0000
0000
0000
0000
0000
0100
0000
0001
0000
1000
0000
0010
0000
0000
0000
0000
0000
1000
0000
0000
0000
0000
0000
0010
0000
0000
0000
0000
0000
0001
0000
0000
0000
0000
0000
0010
0000
0000
0000
0000
0000
0100
0000
0000
0001
0000
0000
,  // measure 35
0000
0100
0010
0000
0010
1000
0001
0000
1000
0001
0100
0000
0101
0000
0000
0000
,  // measure 36
0100
0000
0000
0000
0000
0000
0010
0000
1000
0000
0100
0000
0010
0000
0000
0000
0000
0000
0100
0000
0000
0000
0000
0000
1000
0000
0000
0000
0000
0000
0001
0000
0000
0100
0000
0000
0020
0000
0000
0000
0000
0000
0000
0000
0000
1030
0000
0000
,  // measure 37
0200
0000
0000
0310
0002
0000
0000
0000
1003
0000
0001
1000
0100
0000
0000
0000
,  // measure 38
0010
0000
0001
0100
0001
0000
0010
0000
0001
0000
1000
0000
0100
0000
0010
0001
,  // measure 39
0000
0001
0100
0000
0100
0010
0100
0000
0100
0000
0010
0000
1000
0000
0001
0100
,  // measure 40
0010
0000
0100
0001
1000
0000
0100
0010
0001
0100
0010
1000
0100
0000
0010
0001
,  // measure 41
0100
0000
0010
1000
0001
0000
0000
0000
1000
0000
0000
0000
0001
0000
0100
0010
,  // measure 42
1000
0000
0001
0010
0001
0100
0010
1000
0100
1000
0001
0010
0001
0000
0100
0001
,  // measure 43
0000
0001
1000
0000
1000
0010
1000
0010
0100
0001
0100
0010
1000
0000
1000
0010
,  // measure 44
0100
0000
0100
0010
1000
0100
0010
0001
0100
0010
1000
0001
0010
0000
0100
1000
,  // measure 45
0100
0000
0010
0100
0010
0000
0000
0000
0001
0000
1000
0001
0100
0000
0001
1000
,  // measure 46
0100
0000
1000
0001
0010
0000
0001
1000
0010
0000
1000
0001
0010
0000
0100
1000
,  // measure 47
0000
1000
0010
0000
0100
0000
0001
0000
0100
0000
0001
0000
0101
0000
0000
0000
,  // measure 48
0011
0000
1100
0000
1010
0000
1001
0001
,  // measure 49
0100
0110
0000
0110
0010
0100
0101
0001
,  // measure 50
0010
0110
0000
0100
1000
0000
1001
1000
,  // measure 51
0100
0110
0000
0010
0100
1000
1100
1000
,  // measure 52
0010
0000
0100
0001
0100
0000
0100
0000
0010
0000
0100
0000
0110
0000
0100
0000
,  // measure 53
0001
0011
0000
0001
0010
0100
1100
0100
,  // measure 54
0010
0011
0000
0001
1000
0000
0101
0100
,  // measure 55
0001
0011
0000
0100
1000
0010
2010
0000
,  // measure 56
3000
0000
0001
0100
0010
0000
1000
0000
0001
0000
0000
0000
0101
0000
0001
0000
,  // measure 57
0100
0110
0000
0110
0010
0100
1001
1000
,  // measure 58
0100
0110
0000
0100
1000
0000
1100
0100
,  // measure 59
0010
0011
0000
0010
0100
1000
1001
0001
,  // measure 60
0100
0000
0001
0100
0010
0000
1000
0000
0001
0000
0100
0000
0101
0000
0001
0000
,  // measure 61
1000
1100
0000
0100
0010
0001
0011
0010
,  // measure 62
0100
0110
0000
0010
0001
0000
1100
0100
,  // measure 63
0010
0011
0000
0010
0100
1000
1010
0010
,  // measure 64
0100
0000
0001
1000
0001
0000
0010
0000
0200
0000
0000
0000
1300
0000
0100
0010
,  // measure 65
0001
0000
1001
0000
0000
0000
0001
0100
0010
0000
1000
0000
0010
0000
0100
0001
,  // measure 66
0010
0000
1100
0000
0000
0000
1000
0000
0001
0000
0100
0000
0110
0000
0100
0001
,  // measure 67
0010
0000
0110
0000
0000
0000
0100
0010
0001
0000
1000
0000
1100
0000
0100
1000
,  // measure 68
0010
0000
0101
0000
0000
0000
0001
1000
0001
0000
1000
0001
1000
0000
0001
0010
,  // measure 69
0100
0000
0110
0000
0000
0000
0100
1000
0010
0000
0100
0000
0101
0000
0001
0010
,  // measure 70
0100
0000
1100
0000
0000
0000
1000
0001
1000
0000
0001
1000
0001
0000
0100
0010
,  // measure 71
1000
0000
1100
0000
0000
0000
0100
0001
0100
0000
0010
0000
1010
0000
1000
0001
,  // measure 72
0010
0000
0110
0000
0100
0010
0001
0100
0010
1000
0001
1000
0200
0000
0302
0000
,  // measure 73
0203
2300
0000
3200
0320
0032
0023
2030
,  // measure 74
3002
0023
0000
0000
0230
0000
2300
3200
,  // measure 75
0302
0023
0000
2030
3020
0032
0023
2030
,  // measure 76
3020
0000
0000
0230
2300
3200
0302
0203
,  // measure 77
2300
3020
0000
0032
0023
2030
3020
0230
,  // measure 78
0302
0203
0000
0000
2300
0000
3200
0302
,  // measure 79
0023
0230
0000
0320
0230
2300
3200
0302
,  // measure 80
0203
0020
0000
0000
0000
0000
0000
0000
,  // measure 81
0330
0000
0000
0000
;
