#VERSION:0.83;
#TITLE:Elisha;
#SUBTITLE:;
#ARTIST:DJ YOSHITAKA;
#TITLETRANSLIT:;
#SUBTITLETRANSLIT:;
#ARTISTTRANSLIT:;
#GENRE:;
#ORIGIN:;
#CREDIT:;
#BANNER:Elisha.png;
#BACKGROUND:Elisha-bg.png;
#PREVIEWVID:;
#JACKET:Elisha-jacket.png;
#CDIMAGE:;
#DISCIMAGE:;
#LYRICSPATH:;
#CDTITLE:cdtitle.png;
#MUSIC:Elisha.mp3;
#OFFSET:-0.275000;
#SAMPLESTART:78.099998;
#SAMPLELENGTH:15.000000;
#SELECTABLE:YES;
#BPMS:0.000=185.000;
#STOPS:;
#DELAYS:;
#WARPS:;
#TIMESIGNATURES:0.000=4=4;
#TICKCOUNTS:0.000=4;
#COMBOS:0.000=1;
#SPEEDS:0.000=1.000=0.000=0;
#SCROLLS:0.000=1.000;
#FAKES:;
#LABELS:0.000=Song Start;
#BGCHANGES:-4.000=Elisha.avi=1.000=1=0=0=StretchNoLoop==CrossFade==,
99999=-nosongbg-=1.000=0=0=0 // don't automatically add -songbackground-
;
#KEYSOUNDS:;
#ATTACKS:
;

//---------------dance-single - ----------------
#NOTEDATA:;
#CHARTNAME:;
#STEPSTYPE:dance-single;
#DESCRIPTION:;
#CHARTSTYLE:;
#DIFFICULTY:Hard;
#METER:8;
#RADARVALUES:0.441700,0.668432,0.185676,0.298695,0.104947,383.000000,360.000000,23.000000,37.000000,0.000000,0.000000,2.000000,0.000000,0.000000,0.441700,0.668432,0.185676,0.298695,0.104947,383.000000,360.000000,23.000000,37.000000,0.000000,0.000000,2.000000,0.000000,0.000000;
#CREDIT:;
#NOTES:
0000
0000
0000
0000
,
0000
0000
1010
0101
,
0000
0000
0000
0000
,
0001
0000
0010
0000
0100
1000
0001
1000
0200
0000
0300
0000
0020
0000
0000
0000
,
0031
0000
0000
0000
,
0000
0000
0000
0000
0000
0000
0000
0000
1000
0001
1000
0000
0200
0000
0000
0000
,
0300
0000
0000
0000
,
0011
0000
0010
0100
1000
0001
1000
0001
,
1000
0020
0000
0130
0020
0000
1030
0020
,
0000
1030
0020
0000
0130
0000
1001
0000
,
1000
0002
0000
0013
0002
0000
0103
0002
,
1000
0000
0003
0000
1010
0000
0000
0000
1000
0010
0100
0000
0020
0000
0000
0000
,
1030
0200
0000
0310
0200
0000
1300
0200
,
0010
0300
0200
0000
1300
0001
1000
0001
,
1000
0000
0001
1001
0000
1010
0000
1000
,
1100
0000
1000
0000
0020
0000
0000
0000
0130
0001
0100
0001
0010
0000
0000
0000
,
0200
0000
0000
0000
,
0000
0000
0000
0000
0000
1300
0100
0010
,
0002
0000
0000
0000
,
0000
0000
0000
0000
0000
0013
0100
1000
,
0020
0000
0000
0000
,
0000
0000
0000
0000
0000
0130
0010
1000
,
0200
0000
0000
0000
,
0320
0000
0000
0000
,
0032
0000
0000
0000
,
0000
0000
0000
0000
0000
1003
0100
1000
,
0020
0000
0000
0000
,
0000
0000
0000
0000
0000
0130
0010
1000
,
0200
0000
0000
0000
,
0000
0000
0000
0000
0000
0310
0001
0100
,
0020
0000
0000
0000
,
0200
0000
0000
0330
,
0001
0000
1000
0000
0010
0000
0000
0000
0100
0000
0000
0001
0000
0000
0100
0000
,
0000
0000
0010
0000
1000
0000
0000
0000
0001
0000
0000
1000
0000
0000
0001
0000
,
0000
0000
1000
0000
0010
0000
0000
0000
0100
0000
0000
0001
0000
0000
0100
0000
,
0000
0001
1000
0000
0000
0010
0100
0000
,
0001
0000
1000
0000
1000
0000
0000
0000
0010
0000
0000
0100
0000
0000
0001
0000
,
0000
0000
0100
0000
0100
0000
0000
0000
0010
0000
0000
1000
0000
0000
0001
0000
,
0000
0000
0010
0000
0010
0000
0000
0000
0100
0000
0000
1000
0000
0000
0010
0000
,
0000
0000
0100
0000
0100
0000
0000
0000
0010
0000
0000
1000
0000
0000
0001
0000
,
1000
0100
0000
1000
0010
0000
0100
0000
,
0010
0000
1000
0001
0000
0100
0000
0001
,
0000
0100
0000
0010
1000
0000
0001
0000
,
0010
0000
0100
1000
0000
1000
0000
0100
,
0000
1000
0000
0010
0100
0000
0001
0000
,
1000
0000
0010
0100
0000
0010
0000
1000
,
0000
0001
0000
0010
0001
0000
1000
0000
,
0010
0000
0100
0010
1000
0000
0000
0000
,
2002
0000
0000
0000
,
0000
0000
0000
0000
,
3003
0000
0001
0000
0001
0000
0000
0000
1000
0000
0000
1000
0000
0000
1000
0000
,
0000
0000
0010
0000
0010
0000
0000
0000
0100
0000
0000
0100
0000
0000
0100
0000
,
0001
0100
0010
1000
0001
0100
0010
1000
,
0001
0010
0100
1000
0001
0010
0100
1000
,
0001
0001
0100
0010
1000
0001
0010
1000
,
0010
0001
0100
0010
1000
0001
0100
0000
,
4004
0000
0000
0000
,
0000
0000
0000
0000
,
0000
0000
0000
0000
,
0000
0000
3003
0110
,
1001
1000
0100
0001
0100
0000
0010
0000
,
0001
0000
0100
1000
0000
0100
0000
0010
,
0000
1000
0000
0010
0001
0000
0010
0000
,
0100
0000
0001
0010
0000
0001
0000
1000
,
0000
0010
0000
0100
0001
0000
0010
0000
,
0001
0000
1000
0100
0000
0001
0000
0100
,
0000
0010
0000
0100
1000
0000
0010
0000
,
0001
0000
0010
0100
0000
0001
0000
1000
,
0100
1000
0001
0100
0010
0000
1000
0000
,
0001
0000
0010
0100
0000
1100
0000
1001
,
0000
0001
0010
0001
1000
0000
1010
0000
,
0101
0000
0001
1000
0000
1100
0000
1001
,
0000
0001
0010
0001
1000
0000
1010
0000
,
1100
0000
0100
0010
0000
0011
0000
0101
,
0000
0001
0000
1000
0010
0000
0100
0000
,
1002
0000
0013
0100
2000
0000
0000
0000
,
3010
0000
1000
0000
0100
0000
1000
0000
0001
0000
0000
0001
0000
0000
0001
0000
,
0010
0000
0000
0010
0000
0000
0010
0000
0100
0000
0000
0100
0000
0000
0100
0000
,
1000
0000
0000
1000
0000
0000
1000
0000
0010
0000
0000
0010
0000
0000
0010
0000
,
0100
0000
0000
0100
0000
0000
0001
0000
0000
0001
0000
0000
1000
0000
0100
0000
,
0010
0000
0000
0100
0000
0000
1000
0000
0000
0001
0000
0000
1000
0000
0010
0000
,
0100
0000
0000
0001
0000
0000
0010
0000
0000
0001
0000
0000
1000
0000
0010
0000
,
0100
0100
0001
1000
0010
0010
1000
0001
,
0100
0001
0020
0000
0230
0000
1300
0100
,
0020
0000
0000
0000
,
0000
0000
0000
0000
0000
0130
1000
0001
,
0200
0000
0000
0000
,
0000
0000
0000
0000
0000
0310
1000
0001
,
2000
0000
0000
0000
,
0000
0000
0000
0000
0000
3010
0100
0001
,
0020
0000
0000
0000
,
0200
0000
0000
0000
,
0330
0000
0000
0000
;

//---------------dance-single - ----------------
#NOTEDATA:;
#CHARTNAME:;
#STEPSTYPE:dance-single;
#DESCRIPTION:;
#CHARTSTYLE:;
#DIFFICULTY:Medium;
#METER:6;
#RADARVALUES:0.359818,0.519892,0.113020,0.444007,0.008073,312.000000,298.000000,14.000000,55.000000,0.000000,0.000000,0.000000,0.000000,0.000000,0.359818,0.519892,0.113020,0.444007,0.008073,312.000000,298.000000,14.000000,55.000000,0.000000,0.000000,0.000000,0.000000,0.000000;
#CREDIT:;
#NOTES:
0000
0000
0000
0000
,
0000
0000
1001
1001
,
0000
0000
0000
0000
,
0000
0000
0200
0002
,
0303
0000
0000
0000
,
0000
0000
0000
0000
1000
0001
1000
0000
,
0000
0000
0000
0000
,
1001
0000
0000
0000
1000
0001
1000
0001
,
1000
0001
0000
0000
0001
0000
0000
0001
,
0000
0001
0101
1010
,
0000
1000
0000
0000
1000
0000
0000
1000
,
0020
0000
0130
0000
0010
1000
0100
0000
,
0010
0001
0000
0000
0001
0000
0000
0001
,
0000
0000
0001
0000
0010
0100
0010
0100
,
0010
0000
0100
1000
0000
0001
0000
1000
,
0000
0001
1000
0000
0010
1000
0001
0000
,
0020
0000
0000
0000
,
0000
0000
0000
0000
0000
0130
1000
0100
,
2000
0000
0000
0000
,
0000
0000
0000
0000
0000
3001
0100
0001
,
0200
0000
0000
0000
,
0000
0000
0000
0000
0000
0310
1000
0010
,
2000
0000
0000
0000
,
0002
0000
0000
3003
,
0020
0000
0000
0000
,
0000
0000
0000
0000
0000
0130
1000
0100
,
2000
0000
0000
0000
,
0000
0000
0000
0000
0000
3001
0100
0001
,
0200
0000
0000
0000
,
0000
0000
0000
0000
0000
0310
1000
0010
,
2000
0000
0000
0000
,
0002
0000
0000
3003
,
1001
1000
0010
1000
,
0100
0010
0100
0100
,
0010
0001
0100
0010
,
1000
0001
0010
0010
,
0001
1000
0100
1000
,
0001
0010
0001
0001
,
0010
0001
0100
0010
,
0100
0010
1000
1000
,
0001
0010
1000
0010
,
0001
0100
1000
1000
,
0100
0001
0100
1000
,
0010
0001
0010
0010
,
0100
0001
1000
1000
,
0010
0100
0001
0001
,
0100
0001
0010
0010
,
0001
0100
0020
0000
,
0200
0000
0000
0000
,
0000
0000
0000
0000
0000
0000
0000
0330
,
0000
0000
0100
0000
0010
0000
0000
0000
1000
0000
0000
1000
0000
0000
1000
0000
,
0000
0000
0010
0000
0100
0000
0000
0000
0001
0000
0000
0001
0000
0000
0001
0000
,
1002
0103
2001
3100
,
1002
0013
2001
3010
,
1000
0100
0020
0000
0031
1000
0200
0000
,
1300
0000
0010
0100
0000
0001
1000
0000
,
2002
0003
0002
0003
0002
0003
0002
0003
,
0002
0003
0002
0003
0002
0003
0002
0003
,
0002
0003
0002
0003
0002
0000
0000
0000
,
0000
0000
3003
0100
,
1001
0001
1000
0100
,
1000
0000
0010
1000
0000
0010
0000
0100
,
0000
0010
0100
0001
,
1000
0000
0100
1000
0000
0001
0000
1000
,
0000
0001
0100
0001
,
0010
0000
0100
1000
0000
0100
0000
1000
,
0000
0010
0000
0100
0001
0000
1000
0000
,
0010
0000
0100
0001
0000
1000
0000
0001
,
1000
0100
1000
0010
,
0100
0000
0001
0100
0000
0010
0000
1000
,
0010
0100
0001
1000
,
0100
0000
0010
0100
0000
1000
0000
0010
,
0100
0001
1000
0100
,
1000
0000
0001
1000
0000
0010
0000
0100
,
0001
0100
0010
1000
,
0101
1010
2000
0000
,
3002
0103
0002
1003
,
0002
1003
2000
3100
,
2000
3010
2000
3001
,
0200
0000
0320
0000
2030
0000
3001
0010
,
0200
0000
2300
0000
3010
0000
0100
0001
,
2000
3002
0203
0310
,
1000
0000
0010
0100
0000
0001
0000
0010
,
0100
1000
0200
0000
2300
0000
3010
0100
,
0002
0000
0000
0000
,
0000
0000
0000
0000
0000
1003
0100
0010
,
0200
0000
0000
0000
,
0000
0000
0000
0000
0000
0310
0001
0010
,
0200
0000
0000
0000
,
0000
0000
0000
0000
0000
0310
0100
1000
,
0002
0000
0000
0000
,
2000
0000
0000
0000
,
3003
0000
0000
0000
;

//---------------dance-single - ----------------
#NOTEDATA:;
#CHARTNAME:;
#STEPSTYPE:dance-single;
#DESCRIPTION:;
#CHARTSTYLE:;
#DIFFICULTY:Easy;
#METER:5;
#RADARVALUES:0.271017,0.445621,0.072656,0.266404,0.000000,235.000000,226.000000,9.000000,33.000000,0.000000,0.000000,0.000000,0.000000,0.000000,0.271017,0.445621,0.072656,0.266404,0.000000,235.000000,226.000000,9.000000,33.000000,0.000000,0.000000,0.000000,0.000000,0.000000;
#CREDIT:;
#NOTES:
0000
0000
0000
0000
,
0000
0000
1001
1001
,
0000
0000
0000
0000
,
0000
0000
0110
0110
,
0000
0000
0000
0000
,
0000
0000
0000
0000
0001
1000
0001
0000
,
0000
0000
0000
0000
,
1000
0010
0000
0000
,
0000
0100
0000
0000
0010
0000
0000
0100
,
0000
0010
0000
0000
,
0000
1000
0000
0000
0001
0000
0000
1000
,
0000
0001
0000
0000
,
0000
1000
0000
0000
0100
0000
0000
0010
,
0000
0001
0000
0000
,
0010
0000
0001
0000
,
0100
0010
1000
0001
,
0200
0000
0000
0000
,
0000
0000
0000
0000
,
0302
0000
0000
0000
,
0000
0000
0000
0000
,
0023
0000
0000
0000
,
0000
0000
0000
0000
,
0230
0000
0000
0000
,
1000
0000
0000
0000
,
2300
0000
0000
0000
,
0000
0000
0000
0000
,
3020
0000
0000
0000
,
0000
0000
0000
0000
,
0230
0000
0000
0000
,
0000
0000
0000
0000
,
0302
0000
0000
0000
,
1000
0000
0000
0000
,
1003
0100
1000
0010
,
0100
0001
0100
0001
,
0100
0010
1000
0010
,
0100
0001
1000
1000
,
0001
0010
0100
0010
,
0001
0100
0010
0010
,
0100
0001
1000
0100
,
0001
0100
1000
0010
,
0100
0001
0100
0100
,
0100
0010
1000
0001
,
1000
0100
0010
0010
,
0010
0100
1000
0001
,
0100
0010
1000
1000
,
1000
0010
0100
0001
,
1000
0100
0010
0010
,
0100
0010
0001
0000
,
2002
0000
0000
0000
,
0000
0000
0000
0000
,
0000
0000
0000
0000
,
0000
0000
0000
0000
0000
3003
0000
0000
,
0001
0100
0000
0001
0000
0100
0000
0010
,
0000
1000
0000
0010
0000
0100
0000
0010
,
1000
0001
0010
0100
,
1000
0000
0000
0100
0000
0000
0010
0000
,
2002
0000
0000
0000
,
0000
0000
0000
0000
,
0000
0000
0000
0000
,
0000
0000
3003
0010
,
0001
0010
0100
1000
,
0100
0100
1000
1000
,
0100
1000
0010
0100
,
0001
0001
0100
0100
,
0010
1000
0001
0001
,
1000
0100
1000
0010
,
0100
0010
1000
1000
,
0010
0100
0001
1000
,
0100
1000
0010
0100
,
0001
0001
1000
1000
,
0001
0010
0100
0100
,
0010
0001
1000
1000
,
0001
1000
0100
1000
,
0010
0100
0010
0010
,
0100
0010
1000
0001
,
2001
3100
1002
0103
,
2001
3001
0020
0130
,
2000
3010
0200
0301
,
0200
0310
2000
3010
,
0200
0000
0310
0000
0200
0000
0310
1000
,
0002
0000
2003
0000
3200
0000
0310
0001
,
0200
0000
0320
0000
2030
0000
3100
0010
,
0001
0000
1000
0001
0000
0100
0000
0010
,
0100
0001
1000
0000
0010
0000
0100
0010
,
0200
0000
0000
0000
,
0000
0000
0000
0000
,
0302
0000
0000
0000
,
0000
0000
0000
0000
,
2003
0000
0000
0000
,
0000
0000
0000
0000
,
3020
0000
0000
0000
,
0200
0000
0000
0000
,
0330
0000
0000
0000
;

//---------------dance-single - ----------------
#NOTEDATA:;
#CHARTNAME:;
#STEPSTYPE:dance-single;
#DESCRIPTION:;
#CHARTSTYLE:;
#DIFFICULTY:Beginner;
#METER:2;
#RADARVALUES:0.130319,0.407376,0.056510,0.129166,0.000000,113.000000,106.000000,7.000000,16.000000,0.000000,0.000000,0.000000,0.000000,0.000000,0.130319,0.407376,0.056510,0.129166,0.000000,113.000000,106.000000,7.000000,16.000000,0.000000,0.000000,0.000000,0.000000,0.000000;
#CREDIT:;
#NOTES:
0000
0000
0000
0000
,
0000
0000
0000
0000
,
0000
0000
0000
0000
,
0000
0000
0000
0000
,
0000
0000
0000
0000
,
0000
0000
0000
0000
,
0000
0000
0000
0000
,
0000
0000
0000
0000
,
1000
0000
0000
1000
,
0000
0000
0010
0010
,
0100
0000
0000
0000
,
0100
0000
0010
0000
,
0001
0000
0000
0000
,
0001
0000
0000
0000
,
1000
0000
0000
0000
,
0010
0000
0100
0000
,
0020
0000
0000
0000
,
0000
0000
0000
0030
,
2000
0000
0000
0000
,
0000
0000
0000
3000
,
0002
0000
0000
0000
,
0000
0000
0000
0003
,
1000
0000
0000
0000
,
0001
0000
0000
0000
,
0200
0000
0000
0000
,
0000
0000
0000
0300
,
0020
0000
0000
0000
,
0000
0000
0000
0030
,
2000
0000
0000
0000
,
0000
0000
0000
3000
,
0002
0000
0000
0000
,
0000
0000
0000
0003
,
1000
0000
0000
0000
,
0010
0000
0000
0000
,
0100
0000
0000
0000
,
0001
0000
0000
0000
,
1000
0000
0000
0000
,
0001
0000
0000
0000
,
0010
0000
0000
0000
,
0001
0000
0000
0000
,
1000
0000
0000
0000
,
0010
0000
0000
0000
,
1000
0000
0000
0000
,
0100
0000
0000
0000
,
1000
0000
0000
0000
,
0001
0000
0000
0000
,
0100
0000
0000
0000
,
0010
0000
1000
0000
,
0002
0000
0000
0000
,
0000
0000
0000
0000
,
0000
0000
0000
0000
,
0000
0000
0000
0003
,
1000
0000
1000
0000
,
0010
0000
0010
0000
,
0100
0000
0001
0000
,
1000
0000
0001
1000
,
2002
0000
0000
0000
,
0000
0000
0000
0000
,
0000
0000
0000
0000
,
0000
0000
0000
3003
,
0010
0000
0100
0000
,
0010
0000
0100
0000
,
1000
0000
0001
0000
,
1000
0000
0001
0000
,
0100
0000
0010
0000
,
0100
0000
0010
0000
,
1000
0000
0001
0000
,
1000
0000
0001
0000
,
1000
0000
1000
0000
,
0100
0000
1000
0000
,
0001
0000
0100
0000
,
0001
0000
0001
0000
,
0010
0000
0001
0000
,
0010
0000
0010
0000
,
0001
0000
1000
1000
,
1001
1001
0000
0000
,
0020
0000
0000
0030
,
0100
0000
0010
0000
,
1000
0000
0001
0000
,
1000
0000
0001
0000
,
1000
1000
1000
0000
,
0001
0001
0001
0000
,
1001
0000
0110
0000
,
1001
0110
0100
0010
,
2000
0000
0000
0000
,
0000
0000
0000
3000
,
0200
0000
0000
0000
,
0000
0000
0000
0300
,
2000
0000
0000
0000
,
0000
0000
0000
3000
,
0002
0000
0000
0003
,
2000
0000
0000
3000
;

//---------------dance-single - ----------------
#NOTEDATA:;
#CHARTNAME:;
#STEPSTYPE:dance-single;
#DESCRIPTION:;
#CHARTSTYLE:;
#DIFFICULTY:Challenge;
#METER:9;
#RADARVALUES:0.648135,1.002648,0.298695,0.597391,0.322914,562.000000,525.000000,37.000000,74.000000,0.000000,0.000000,13.000000,0.000000,0.000000,0.648135,1.002648,0.298695,0.597391,0.322914,562.000000,525.000000,37.000000,74.000000,0.000000,0.000000,13.000000,0.000000,0.000000;
#CREDIT:;
#NOTES:
// measure 0
0000
0000
0000
0000
,  // measure 1
0000
0000
0000
0000
0000
0000
0000
0000
2002
0000
3003
0000
0220
0000
0000
0330
,  // measure 2
0010
0200
0000
0301
0200
0000
0310
0200
,  // measure 3
0310
0000
0010
0000
1000
0001
1000
0001
0020
0000
0000
0000
0032
0000
0000
0000
,  // measure 4
0013
0200
0000
0310
0200
0000
1300
0200
,  // measure 5
0000
0000
0310
0000
0200
0000
0000
0000
1300
0100
0010
0000
0021
0000
0000
0000
,  // measure 6
0031
0200
0000
0310
0200
0000
0301
0200
,  // measure 7
0310
0000
1000
0000
0001
0000
1000
0000
0010
0100
0010
0000
1000
0001
1000
0000
,  // measure 8
0001
0200
0310
1000
0200
1300
0001
0200
,  // measure 9
0301
0010
0200
1300
2020
3030
0202
0303
,  // measure 10
0001
0200
0310
1000
0200
0310
0001
0200
,  // measure 11
0320
0000
0000
0000
1030
0000
0000
0000
0100
0001
0010
0000
2002
0000
3003
0000
,  // measure 12
0001
0200
0310
1000
0200
0310
0001
0200
,  // measure 13
0301
1000
0200
0000
0310
0010
0001
0001
,  // measure 14
1001
0000
1000
1100
0000
0101
0000
0001
,  // measure 15
0010
0000
0100
0010
0001
0000
0000
0000
4000
0004
0000
0000
0000
3003
0000
0000
,  // measure 16
0202
0000
0000
0000
,  // measure 17
0000
0000
0000
0000
0003
0301
0100
1000
,  // measure 18
0200
0000
0000
0000
,  // measure 19
0000
0000
0000
0000
0000
1300
0100
0010
,  // measure 20
0002
0000
0000
0010
0000
0000
0010
0000
,  // measure 21
0000
0000
0000
0000
0000
0000
0000
0000
0000
0003
0010
0000
0001
0000
0100
0000
,  // measure 22
0020
0000
0000
0100
0000
0000
0000
0000
,  // measure 23
0230
0000
0000
0010
0000
0000
0000
0000
,  // measure 24
0320
0000
0000
0100
0000
0000
0000
0000
,  // measure 25
0000
0000
0000
0000
0000
1030
0010
0100
,  // measure 26
0002
0000
0000
0000
,  // measure 27
0000
0000
0000
0000
0000
0013
0100
1000
,  // measure 28
0200
0000
0000
1000
0000
0000
1000
0000
,  // measure 29
0000
0000
0000
0000
0000
0310
0001
1000
,  // measure 30
0020
0000
0000
0100
0000
0000
0000
0000
,  // measure 31
0200
0000
0000
0330
,  // measure 32
0001
0000
0100
0000
0001
0000
0010
0000
0100
0000
0000
1000
0000
0000
0100
0000
,  // measure 33
0000
0000
1000
0000
0010
0000
0100
0000
0001
0000
0000
1000
0000
0000
0001
0000
,  // measure 34
0000
0000
0100
0000
0010
0000
1000
0000
0100
0000
0000
0010
0000
0000
0100
0000
,  // measure 35
0000
1000
0010
0000
0000
0100
0010
0000
,  // measure 36
0000
0000
0100
0000
0010
0000
1000
0000
0001
0000
0000
0010
0000
0000
0001
0000
,  // measure 37
0000
0000
0010
0000
0100
0000
1000
0000
0010
0000
0000
0100
0000
0000
0001
0000
,  // measure 38
0000
0000
1000
0000
0100
0000
1000
0000
0010
0000
0000
0100
0000
0000
0001
0000
,  // measure 39
0000
0000
1000
0000
0100
0000
0010
0000
0100
0000
0000
1000
0000
0000
0100
0000
,  // measure 40
0000
0000
1000
0000
0010
0000
0001
0000
0010
0000
0000
0100
0000
0000
0001
0000
,  // measure 41
0000
0000
0100
0000
0010
0000
1000
0000
0100
0000
0000
0100
0000
0000
1000
0000
,  // measure 42
0000
0000
0100
0000
1000
0000
0010
0000
0100
0000
0000
0001
0000
0000
0100
0000
,  // measure 43
0000
0001
0100
0010
0000
0010
1000
0000
,  // measure 44
0000
0000
0100
0000
0010
0000
0001
0000
1000
0000
0000
0010
0000
0000
1000
0000
,  // measure 45
0000
0000
0001
0000
0010
0000
0100
0000
0010
0000
0000
0001
0000
0000
1000
0000
,  // measure 46
0000
0000
0100
0000
0010
0000
0001
0000
1000
0000
0000
0010
0000
0000
0100
0000
,  // measure 47
0000
0010
1000
0010
0200
0000
0000
0000
,  // measure 48
0320
0000
1000
0000
1000
0000
0000
0000
0100
0000
0000
0100
0000
0000
0100
0000
,  // measure 49
0000
0000
1000
0000
1000
0000
0000
0000
0100
0000
0000
0100
0000
0000
0100
0000
,  // measure 50
0000
0000
1000
0000
1000
0000
0000
0000
0100
0000
0000
0100
0000
0000
0100
0000
,  // measure 51
0000
0000
1000
0000
1000
0000
0000
0000
0100
0000
0000
0100
0000
0000
0100
0000
,  // measure 52
0130
0001
0010
0001
1000
0100
1000
0010
,  // measure 53
0100
0001
0010
0001
1000
0100
0010
0001
,  // measure 54
1000
0010
0100
0000
0010
1000
0001
0010
0100
0010
0001
0000
0101
0000
0100
0010
,  // measure 55
1000
0000
0100
0010
0001
0000
0010
0001
0100
0000
0010
0000
0100
0010
1000
0000
,  // measure 56
0004
1000
4003
0001
3004
1000
4003
0001
,  // measure 57
3004
1000
4003
0001
3004
1000
4003
0001
,  // measure 58
3004
0000
0000
0000
0000
0000
1000
0000
0000
0000
0000
0000
4003
0000
0000
0000
0000
0000
3001
0000
0000
0000
1000
0000
0000
0000
0001
0000
0000
0000
1000
0000
0000
0000
0001
0000
1000
0000
0000
0001
0000
0000
1000
0000
0000
0001
0000
0000
,  // measure 59
1000
0000
0000
0001
0000
0000
1000
0000
0000
0001
0000
0000
1000
0000
0001
0000
1000
0000
0001
0000
1000
0000
0001
0000
2000
0000
0002
0000
0000
0000
0000
0000
0000
0000
0000
0000
3003
0000
0000
0000
0000
0000
0000
0000
0000
0000
0000
0000
,  // measure 60
0001
0100
0010
1000
0100
0001
0100
0010
,  // measure 61
0001
0000
0100
0101
0000
0011
0000
1001
,  // measure 62
1000
0100
1000
0010
0100
0001
0010
0001
,  // measure 63
1000
0000
1000
1100
0000
0110
0000
1100
,  // measure 64
0100
0010
0001
0100
0010
1000
0001
0010
,  // measure 65
0001
0000
1000
1010
0000
0101
0000
1001
,  // measure 66
0001
0010
0000
0010
0100
0000
0110
0000
,  // measure 67
1100
0000
1000
1100
0000
0011
0000
1001
,  // measure 68
1000
0010
0001
0010
0100
0001
0010
0001
,  // measure 69
1000
0000
0001
0011
0000
1001
0000
0011
,  // measure 70
0001
0100
0001
1000
0100
0001
0100
0010
,  // measure 71
0001
0000
0010
0110
0000
1100
0000
0110
,  // measure 72
0100
0010
0001
0100
1000
0100
0010
1000
,  // measure 73
0001
0000
1000
1100
0000
0011
0000
1001
,  // measure 74
0001
0010
0000
0010
1000
0000
0010
0100
,  // measure 75
1200
0000
0000
0000
0310
0000
0000
0000
0001
0100
0010
0000
1001
0000
0000
0000
,  // measure 76
1000
0000
0001
0100
0000
0010
1000
0000
0100
0000
0010
0002
0000
0013
0200
0000
,  // measure 77
1300
0000
0010
0200
0000
0301
0020
0000
0130
0000
1000
0020
0000
0130
0002
0000
,  // measure 78
1003
0000
0001
0200
0000
0301
0020
0000
0130
0000
1000
0020
0000
0130
0002
0000
,  // measure 79
0023
0000
0031
0020
0000
0130
2000
0000
3001
2000
0000
3100
1000
0010
0100
0001
,  // measure 80
1000
0000
1000
0010
0000
0010
0100
0000
0100
0001
0000
0001
1000
0100
0010
0100
,  // measure 81
1000
0000
0100
0010
0000
0001
0100
0000
0010
1000
0000
0001
0100
0010
1000
0100
,  // measure 82
0020
0000
0230
0000
1300
0020
0001
0030
0110
0000
0100
0000
0100
0000
0100
0010
,  // measure 83
0100
0001
1000
0200
0010
0000
0000
0000
4300
0000
0000
0000
3001
0000
0010
0000
,  // measure 84
0002
0000
0000
0000
,  // measure 85
0000
0000
0000
0000
0000
0103
0010
1000
,  // measure 86
0200
0000
0000
0000
,  // measure 87
0000
0000
0000
0000
0000
0310
0100
1000
,  // measure 88
0020
0000
0000
0000
,  // measure 89
0000
0000
0000
0000
0000
0130
0010
1000
,  // measure 90
0002
0000
0000
0000
,  // measure 91
2000
0000
0000
0000
,  // measure 92
3003
0000
0000
0000
;
