#TITLE:EON BREAK;
#SUBTITLE:;
#ARTIST:VIRTUAL SELF;
#TITLETRANSLIT:;
#SUBTITLETRANSLIT:;
#ARTISTTRANSLIT:;
#GENRE:;
#CREDIT:;
#BANNER:EON BREAK.png;
#BACKGROUND:EON BREAK-bg.png;
#LYRICSPATH:;
#CDTITLE:CDtitle.png;
#MUSIC:EON BREAK.mp3;
#OFFSET:-0.061000;
#SAMPLESTART:52.734154;
#SAMPLELENGTH:11.333324;
#SELECTABLE:YES;
#BPMS:0.000000=90.000000
,32.000000=180.000000
,94.000000=178.000000
,96.000000=180.000000
,124.000000=90.000000
,126.000000=180.000000
,186.000000=185.000000
,190.000000=178.000000
,312.500000=178.020004
;
#STOPS:277.750000=1.348000,
312.000000=0.169000,
312.500000=0.149000
;
#BGCHANGES:;
#KEYSOUNDS:;
#ATTACKS:;

//---------------dance-single - ----------------
#NOTES:
     dance-single:
     :
     Hard:
     9:
     0.538544,0.765409,0.234282,0.134890,0.145539,531.000000,498.000000,33.000000,19.000000,0.000000,0.000000,0.538544,0.765409,0.234282,0.134890,0.145539,531.000000,498.000000,33.000000,19.000000,0.000000,0.000000:
// measure 0
0000
0000
0000
0000
,  // measure 1
0000
0000
0000
0000
,  // measure 2
0000
0000
0000
0000
,  // measure 3
0000
0000
0000
0000
,  // measure 4
2000
3001
0100
0002
,  // measure 5
0023
0031
1000
0200
,  // measure 6
2300
3010
0100
0002
,  // measure 7
0023
0000
0000
0000
0031
0000
0000
0000
1000
0001
0000
0010
0100
0000
1000
0000
,  // measure 8
0001
0001
0001
0001
,  // measure 9
1000
0000
1000
0000
1000
0000
1000
0010
,  // measure 10
0100
0100
0100
0100
,  // measure 11
0010
1000
0010
0100
0001
1000
0100
0010
,  // measure 12
0001
0000
0001
0000
0001
0000
0001
1000
,  // measure 13
0010
0000
0010
0000
0010
0000
0010
1000
,  // measure 14
0100
0100
0100
0100
,  // measure 15
0100
0000
0100
0000
0100
1000
0100
0010
,  // measure 16
0001
0001
0001
0001
,  // measure 17
1000
0000
1000
0000
1000
0000
1000
0001
,  // measure 18
0100
0100
0100
0100
,  // measure 19
0100
1000
0100
0001
0100
1000
0100
0001
,  // measure 20
0010
0000
0010
0000
0010
0000
0010
0001
,  // measure 21
0100
0000
0100
0000
0100
0010
1000
0100
,  // measure 22
0010
0010
0010
0010
,  // measure 23
0110
0000
0000
0000
1001
0000
0000
0000
0110
0000
0000
1000
0001
0000
0000
0000
,  // measure 24
1010
0000
0000
0100
0000
0000
0100
0010
,  // measure 25
1000
1000
0000
0001
0010
1000
0010
0001
,  // measure 26
1001
0000
0000
0000
0000
0000
0010
0000
0000
0000
0000
0000
0100
0000
1000
0010
,  // measure 27
1000
0000
0000
0001
0100
0000
0000
0010
1000
0001
1000
0000
0001
0000
0001
0000
,  // measure 28
0011
0000
0000
0100
0000
0000
0010
0001
,  // measure 29
1000
0010
0001
0010
1000
0010
0100
0010
,  // measure 30
1000
0000
0001
0000
1000
0000
0001
0000
1000
0001
1000
0001
1000
0000
0000
0000
,  // measure 31
0220
0000
0330
0000
1000
0100
0010
0001
1000
0000
0000
0000
0010
0000
0000
0000
,  // measure 32
0101
0001
0010
0100
,  // measure 33
1100
0000
0001
1000
0100
0000
1000
0000
,  // measure 34
1010
0000
1000
0000
0001
0010
1000
0010
,  // measure 35
0001
0010
1000
0010
0100
0000
0010
0000
,  // measure 36
0011
0000
0001
1000
0010
0000
0100
0000
,  // measure 37
0101
0000
0001
1000
0100
0000
0010
0000
,  // measure 38
0110
0010
0100
0010
,  // measure 39
0110
0000
0000
0010
0001
0000
1000
0000
2010
0000
0000
0000
0000
0000
3100
0000
,  // measure 40
0000
0000
0010
0000
0100
0000
0000
1000
,  // measure 41
0000
0010
0120
0100
,  // measure 42
0130
0000
0100
0000
0010
1000
0010
0001
,  // measure 43
0010
1000
0001
1000
0020
0000
0000
1030
,  // measure 44
0000
0000
0010
0000
0100
0000
0000
0001
,  // measure 45
0000
1000
1001
0110
,  // measure 46
1001
0110
1001
0000
,  // measure 47
0000
0000
0000
0000
1000
0000
0001
0100
,  // measure 48
0000
0001
1000
0100
1000
0000
0010
1000
,  // measure 49
0000
0010
1000
0001
0100
0000
0001
0010
,  // measure 50
0000
0100
0010
0001
1000
0000
0001
0100
,  // measure 51
0000
0001
1000
0100
0010
0000
0001
0010
,  // measure 52
0000
0010
0001
1000
0100
0000
1000
0010
,  // measure 53
0100
0010
0100
0010
1000
0000
0010
0100
,  // measure 54
0000
0010
1000
0100
1000
0010
0001
0010
,  // measure 55
0000
1000
0010
0100
0002
0000
0100
0000
,  // measure 56
0010
0103
2000
0100
,  // measure 57
0010
3100
0002
0100
,  // measure 58
0010
0103
2000
0100
,  // measure 59
0010
0000
3200
0000
1300
0100
1000
0000
,  // measure 60
0001
0000
0100
0000
0010
1000
0001
0000
,  // measure 61
0010
0100
1000
0000
0100
0010
0100
0000
,  // measure 62
0010
0001
0101
1010
,  // measure 63
1100
0000
0011
0000
1001
1000
0001
0000
,  // measure 64
1000
0010
1000
0000
0010
0100
0001
0010
,  // measure 65
1000
0010
0100
0010
0001
0010
0001
0000
,  // measure 66
1000
0000
0100
0000
1000
0000
0100
0000
0000
0000
0000
0000
0100
0000
0000
1000
0000
0000
0010
0000
0000
0100
0000
0000
,  // measure 67
0001
0010
1000
0010
0001
0100
0010
1000
,  // measure 68
0001
0000
0100
0000
0010
0000
1000
0000
0001
0010
0001
0010
0001
0010
0001
0010
,  // measure 69
0100
1000
0100
1000
0100
1000
0100
1000
0001
0000
0000
0000
0100
0000
0000
0000
,  // measure 70
1000
0000
0000
0000
0010
0000
0000
0000
0001
1000
0001
0000
1000
0000
0001
1000
,  // measure 71
0001
0000
1000
0000
0001
1000
0001
0000
1000
0000
0001
1000
0001
0000
1000
0000
,  // measure 72
0001
1000
0001
0000
1000
0000
0001
0000
1000
0001
1000
0000
0001
0000
1000
0001
,  // measure 73
1000
0000
0001
0000
1000
0001
1000
0000
0001
0000
1000
0001
1000
0000
0001
0000
,  // measure 74
1000
0001
1000
0000
0110
0000
0000
0000
0000
0000
1000
0001
1000
0000
0001
0000
,  // measure 75
1000
0001
1000
0000
0001
0000
1000
0001
1000
0000
0001
1000
0001
0000
1000
0000
,  // measure 76
0001
1000
0001
1000
0001
0000
1000
0000
0001
1000
0001
0000
1000
0000
0001
1000
,  // measure 77
0001
0000
1000
0000
0001
1000
0001
0000
1000
0000
0100
0000
0001
0000
0100
0000
,  // measure 78
1100
1001
0001
0100
0010
1000
0001
0000
,  // measure 79
0010
0001
1000
0100
1000
0000
0100
1000
,  // measure 80
0010
0100
0001
0010
0001
1000
0100
0000
,  // measure 81
0010
0001
0100
0010
1000
0000
1001
0001
,  // measure 82
1001
1000
1001
0001
0100
0001
0010
0000
,  // measure 83
0100
0010
0001
1000
0010
0000
0100
0010
,  // measure 84
1000
0001
0010
0100
0010
0001
0100
0000
,  // measure 85
0100
0010
1000
0100
0010
0001
2002
0000
,  // measure 86
3000
0003
0000
0000
;

//---------------dance-single - ----------------
#NOTES:
     dance-single:
     :
     Easy:
     5:
     0.254566,0.398013,0.120691,0.014199,0.000000,251.000000,234.000000,17.000000,2.000000,0.000000,0.000000,0.254566,0.398013,0.120691,0.014199,0.000000,251.000000,234.000000,17.000000,2.000000,0.000000,0.000000:
0000
0000
0000
0000
,
0000
0000
0000
0000
,
0000
0000
0000
0000
,
0000
0000
0000
0000
,
1000
0000
0000
0001
,
0100
0000
0000
0100
,
0010
0000
0000
1000
,
0001
0000
0000
0000
,
1000
0000
1000
0000
,
0001
0000
0001
1000
,
0001
0000
0001
0000
,
0100
0000
0000
0100
0000
0000
0100
0000
,
0010
0000
0010
0000
,
1000
0000
1000
0000
,
0001
0000
0001
0000
,
0001
0000
1000
0001
,
0100
0000
0100
0000
,
0010
0000
0010
0000
,
1000
0000
1000
0000
,
0001
0000
0000
0001
0000
0000
0001
0000
,
1000
0000
0100
0000
,
1000
0000
0010
0100
,
0001
1000
0001
1000
,
1001
1001
0110
0110
,
0010
0000
0000
0100
0000
0000
0010
0000
,
1010
0000
0000
0000
,
1000
0000
0000
0001
0000
0000
0010
0000
,
0011
0000
0000
0000
,
0001
0000
0000
0100
0000
0000
0010
0000
,
1001
0000
0000
0000
,
1000
0010
0100
0001
,
1001
0000
0001
0100
,
0001
0100
0010
0100
,
0010
0000
0100
0010
1000
0000
0010
0000
,
1000
0000
0010
0000
1000
0000
0000
1000
,
0000
1000
0001
0100
,
0001
0000
0100
0001
0010
0000
0100
0000
,
0010
0000
0100
1000
0010
0000
0100
0000
,
0010
0100
0010
0100
,
0010
0000
1001
0000
0101
0000
0000
0001
,
0000
0000
0010
0000
1100
0000
0000
0100
,
0000
1000
1010
0000
,
0000
0000
0001
0100
,
0010
0000
1000
0000
1001
0000
0000
0001
,
0000
0000
0010
0000
0011
0000
0000
0010
,
0000
0100
1100
0100
,
0100
0100
0100
0000
,
0000
0000
1000
0000
,
0000
0000
0001
0000
,
0000
0000
0100
0000
,
0000
0000
0010
0000
,
0000
0000
1000
0000
,
0000
0000
0010
0000
,
0000
0000
0100
0000
,
0000
0000
0001
0000
,
0000
0000
1000
0000
,
1000
0000
0001
0000
,
0001
0000
0100
0000
,
0100
0000
0010
0000
,
0010
0200
0310
0000
,
1000
0000
0010
0000
,
0100
0000
0001
0000
,
1000
0000
0001
0010
,
0100
0010
0001
0000
,
1000
0000
0010
0000
,
1000
0000
0100
0000
,
1000
1000
0001
0000
,
0100
0000
0010
0100
,
0001
1000
0010
0100
,
0001
1000
0001
0010
,
0100
0010
0001
0010
,
0010
0001
1000
0010
,
0010
1000
0001
0100
,
0100
0001
1000
0100
,
0100
1000
0010
0100
,
0100
0010
1000
0001
,
0001
0010
0001
1000
,
1000
0001
0100
0010
,
0110
1001
0001
0000
0010
0000
0001
0000
,
1000
0100
1000
0010
,
0010
0100
0010
1000
,
0001
0000
0010
0000
0100
0000
0010
0001
,
0010
0001
0010
0000
0001
0000
1000
0000
,
0001
0100
0100
0001
,
1000
0010
0100
0001
,
1000
0100
0010
0002
,
0000
0003
0000
0000
;

//---------------dance-single - ----------------
#NOTES:
     dance-single:
     :
     Medium:
     7:
     0.422924,0.489862,0.333674,0.078094,0.021298,417.000000,370.000000,47.000000,11.000000,0.000000,0.000000,0.422924,0.489862,0.333674,0.078094,0.021298,417.000000,370.000000,47.000000,11.000000,0.000000,0.000000:
0000
0000
0000
0000
,
0000
0000
0000
0000
,
0000
0000
0000
0000
,
0000
0000
0000
0000
,
1001
0001
0010
0011
,
1100
0100
1000
1100
,
1010
0010
1000
1010
,
0101
0000
0000
0000
0001
0000
0000
0000
1000
0001
0000
1000
0001
0000
1000
0000
,
1001
0010
0010
0010
,
0100
0000
0100
0000
0100
0000
0010
1000
,
0001
0001
0001
0001
,
2000
0000
0000
3020
0000
0000
0130
0010
,
1000
0000
0001
0000
1000
0000
0001
0100
,
0010
0000
0100
0000
0010
0000
0100
0010
,
1000
1000
1000
1000
,
1000
0000
1000
0000
1000
0100
0010
0001
,
0010
0010
0010
0010
,
0001
0000
0001
0000
0001
0000
0001
1000
,
0010
0010
0010
0010
,
0200
0000
0000
0302
0000
0000
0013
0100
,
1000
0000
0100
0000
1000
0000
0100
0010
,
0100
0000
0010
0000
0001
0010
0100
1000
,
0100
0100
0100
0100
,
0110
1001
0110
1001
,
1010
0000
0000
1000
0000
0000
1000
0100
,
0110
0000
0000
0000
,
1001
0000
0000
0001
0000
0000
0010
0100
,
1100
0000
0000
1000
0100
0000
0000
0100
0010
0000
0000
0010
0001
0000
0000
0000
,
1001
0000
0000
1000
0000
0000
0001
0100
,
0110
0000
0000
0000
,
0001
0100
0010
1000
,
2002
3003
0000
0000
1010
0000
1000
0000
,
1100
0100
0010
0001
,
0011
0000
0001
0010
0100
0000
1000
0000
,
1100
0000
1000
0000
0200
0000
0000
2300
,
0000
0000
3010
0100
0001
0000
1000
0000
,
1010
0000
1000
0001
0100
0000
0001
0000
,
0011
0000
0010
0100
1000
0000
0100
0000
,
1100
1000
0001
0100
,
0110
0000
0000
1000
0001
0000
1000
0000
0100
0000
0000
0000
0000
0000
1100
0000
,
0000
0000
1000
0000
0010
0000
0000
0101
,
0000
0001
0011
0000
,
0000
0000
0000
0000
0001
0010
0100
1000
,
0001
0010
0100
1000
1001
0000
0000
1000
,
0000
0000
0010
0000
0110
0000
0000
0001
,
0000
1000
1001
0110
,
1001
0110
1001
0000
,
0000
0000
0000
0000
0001
0000
0000
0100
,
0000
0000
0010
0000
0010
0000
0000
1000
,
0000
0010
0100
0001
1000
0000
0000
0100
,
0000
0000
1000
0000
0001
0000
0000
0001
,
0000
1000
0100
1000
0001
0000
0000
1000
,
0000
0000
0010
0000
0100
0000
0000
0001
,
0100
0010
1000
0100
0010
0000
0000
0100
,
0000
0000
1000
0000
0100
1000
0010
0100
,
0000
0010
0100
0001
1000
0000
0001
0000
,
0100
0001
1000
0100
,
1000
0001
1000
0010
,
1000
0001
0010
0100
,
1000
2100
3010
0100
,
0001
1000
0010
1000
,
0100
1000
0010
0100
,
0001
0010
0110
0011
,
0110
1100
1001
0001
,
0100
0001
0100
0000
0010
0000
1000
0000
,
0010
0100
0001
0000
1000
0000
0001
0000
,
1000
0100
1000
0000
0100
0000
1000
0000
,
0010
0100
0001
0000
1000
0000
0001
0000
,
0100
0000
0010
0000
1000
0001
0100
0001
,
1000
0100
0010
0001
0010
0000
0100
0000
,
1000
0001
1010
0101
,
0001
0100
0000
0010
0000
1000
0010
0000
,
0010
0100
0000
0010
0000
1000
0010
0000
,
0010
0100
0000
0010
0000
0010
0100
0000
,
0010
1000
0000
1000
0000
0001
0010
0000
,
0010
0100
0000
0010
0000
0100
0010
0000
,
0010
0001
0000
0010
0000
0010
0001
0000
,
0001
0010
0000
0010
0100
0010
0001
0010
,
0110
1001
0001
0000
1000
0000
0010
1000
,
0000
0001
0100
0001
1000
0000
1000
0010
,
0000
0100
0000
0001
0100
0000
0010
1000
,
0000
1000
0100
1000
0010
0000
0100
0100
,
0001
0001
1000
0100
1000
0000
0010
1000
,
0000
0001
0000
0100
0001
0000
0010
0001
,
0000
0010
0001
0100
0010
0000
1000
0010
,
0000
0100
0001
1000
0001
2000
0002
0000
,
0000
0003
0000
0000
3000
0000
0000
0000
0000
0000
0000
0000
0000
0000
0000
0000
;

//---------------dance-single - ----------------
#NOTES:
     dance-single:
     :
     Beginner:
     2:
     0.122719,0.214315,0.014199,0.000000,0.000000,121.000000,119.000000,2.000000,0.000000,0.000000,0.000000,0.122719,0.214315,0.014199,0.000000,0.000000,121.000000,119.000000,2.000000,0.000000,0.000000,0.000000:
0000
0000
0000
0000
,
0000
0000
0000
0000
,
0000
0000
0000
0000
,
0000
0000
0000
0000
,
1000
0000
0000
0001
,
0001
0000
0000
1000
,
1000
0000
0000
0010
,
0010
0000
0000
0000
,
0100
0000
0000
0000
,
0010
0000
0000
1000
,
1000
0000
0000
0000
,
0001
0000
0000
1000
,
1000
0000
0000
0001
,
0001
0000
0000
0100
,
0100
0000
0000
0000
,
0000
0000
0010
0000
,
1000
0000
0000
0000
,
0001
0000
0000
0100
,
0100
0000
0000
0000
,
0010
0000
0000
0000
,
1000
0000
0000
0001
,
0001
0000
1000
1000
,
1000
0000
0000
0000
,
0001
0001
1000
1000
,
0010
0000
0000
0000
,
0100
0000
0000
0000
,
0010
0000
0000
0000
,
1000
0000
0000
0000
,
0001
0000
0000
0000
,
0010
0000
0000
0000
,
0001
0000
1000
0000
,
0110
0000
0010
0000
,
0100
0000
0000
0000
,
0010
0000
0000
0000
,
1000
0000
0001
0000
,
1000
0000
0001
0000
,
0100
0000
0000
0000
,
0010
0000
0000
0000
,
1000
0000
0000
0000
,
0001
0000
1000
0000
,
0000
0001
1000
0000
,
0000
1000
0010
0000
,
0000
0000
0100
0000
,
0000
0000
0010
0000
,
0000
1000
0010
0000
,
0000
0100
0001
0001
,
0001
0001
0001
0000
,
0000
0000
1000
0000
,
0000
0000
0000
0000
,
0000
0010
0000
0000
,
0000
0000
0000
0000
,
0000
0100
0000
0000
,
0000
0000
0000
0000
,
0001
0000
1000
0000
,
0000
0000
0000
0000
,
0000
0010
1000
0000
,
0000
0000
0001
0000
,
0000
0000
0100
0000
,
0000
0000
0010
0000
,
0000
0100
0010
0000
,
0000
0000
1000
0000
,
0000
0000
0001
0000
,
0000
0000
1000
0000
,
0001
0000
1000
0000
,
0000
0000
0010
0000
,
0000
0000
0100
0000
,
0000
0000
0001
0000
,
0000
0000
1000
0000
,
0000
0000
0010
0000
,
0000
0000
0000
0000
,
0000
0000
0100
0000
,
0000
0000
0100
0000
,
0000
0000
0010
0000
,
0000
0000
0010
0000
,
0000
1001
0000
0001
,
0000
0000
1000
0000
,
0000
0000
0001
0000
,
0000
0000
1000
0000
,
0000
0010
0000
0000
,
0100
0100
0000
0010
,
0000
1000
0000
0000
,
0001
0001
0000
1000
,
1000
1000
0000
0000
,
0001
0001
0000
1000
,
0000
0001
0000
1000
,
0001
0001
0000
1000
,
0000
0010
0000
0000
;

//---------------dance-single - ----------------
#NOTES:
     dance-single:
     :
     Challenge:
     12:
     0.735300,1.042465,0.312376,0.113591,0.589254,725.000000,681.000000,44.000000,16.000000,0.000000,0.000000,0.735300,1.042465,0.312376,0.113591,0.589254,725.000000,681.000000,44.000000,16.000000,0.000000,0.000000:
// measure 0
0000
0000
0000
0000
,  // measure 1
0000
0000
0000
0000
,  // measure 2
0000
0000
0000
0000
,  // measure 3
0000
0000
0000
0000
,  // measure 4
1001
1000
0100
1000
0010
0100
0000
0100
0010
1000
0100
0010
0002
0000
0000
0000
,  // measure 5
0103
0001
0010
0100
0010
0001
0000
0100
0010
0100
0001
0010
0200
0000
0000
0000
,  // measure 6
1300
0010
0001
0010
1000
0010
0000
1000
0010
0001
0010
1000
0200
0000
0000
0000
,  // measure 7
0301
1000
0100
0001
0100
1000
0000
1000
0100
0010
0000
0010
0001
0000
0011
0000
,  // measure 8
1010
0010
0010
0010
,  // measure 9
1000
0000
1000
0000
1000
0000
1000
0001
,  // measure 10
0010
0010
0010
0010
,  // measure 11
0010
0001
0100
0010
1000
0001
0010
0001
0100
0010
1000
0001
0010
0000
0100
0000
,  // measure 12
1000
0000
1000
0000
1000
0000
1000
0100
,  // measure 13
0010
0000
0010
0000
0010
0000
0010
0001
,  // measure 14
0100
0100
0100
0100
,  // measure 15
0100
0000
0100
0000
0010
0100
0001
1000
,  // measure 16
0001
0001
0001
0001
,  // measure 17
1000
0000
1000
0000
1000
0000
1000
0001
,  // measure 18
0100
0100
0100
0100
,  // measure 19
0010
1000
0100
0010
0001
1000
0001
1000
0100
0010
0001
1000
0010
0000
0100
0000
,  // measure 20
0001
0000
0001
0000
0001
0000
0001
1000
,  // measure 21
0010
0000
0010
0000
0010
1000
0001
0100
,  // measure 22
0010
0010
0010
0010
,  // measure 23
1001
0000
0000
0000
0110
0000
0000
0000
1001
0000
0000
0010
0010
0000
0000
0000
,  // measure 24
2001
0000
0000
0010
0000
0000
0001
3001
,  // measure 25
1001
2000
3000
0001
0010
1000
0010
0001
,  // measure 26
1002
0000
0000
0000
0000
0000
0010
0000
0000
0000
0000
0000
1000
0000
1000
0013
,  // measure 27
0100
0000
0010
1000
0100
0000
0010
0001
0100
0010
0100
0000
0010
0000
1000
0000
,  // measure 28
0120
0000
0000
1000
0000
0000
0100
0100
,  // measure 29
0230
0000
0301
0010
0200
0000
0310
0001
,  // measure 30
1000
0000
1000
0000
0001
0000
0001
0000
0100
0010
0100
0010
0100
0010
0100
0010
,  // measure 31
0100
0000
1001
0000
0001
0010
0100
1000
0001
0000
0000
0000
0100
0000
0000
0000
,  // measure 32
1010
1000
0100
0010
,  // measure 33
0110
0000
0100
1000
0010
0000
0100
0000
,  // measure 34
0101
0000
0000
0000
0001
0000
0000
0000
1000
0001
1000
0100
0010
0001
1000
0001
,  // measure 35
1000
0100
0010
0001
0010
0000
0100
0000
1000
0000
0000
0000
0010
0000
0000
0000
,  // measure 36
1010
0000
0010
0100
0001
0000
1000
0000
,  // measure 37
0101
0000
0001
1000
0010
0000
0100
0000
,  // measure 38
0110
0100
0010
0100
,  // measure 39
0110
0000
0000
1000
0001
0000
0010
0000
0011
0000
0001
0000
0100
0000
0110
0000
,  // measure 40
0010
1000
1010
0010
0110
0010
0100
0101
,  // measure 41
0001
0010
0110
0100
1100
0000
0100
0000
,  // measure 42
0100
0000
0000
0000
0100
0000
0000
0000
1000
0100
0010
0001
0010
0100
0010
0001
,  // measure 43
1000
0100
0010
0001
0010
0000
0100
0000
1100
0000
0100
0000
0010
0000
0011
0000
,  // measure 44
0001
0010
0110
0100
1100
0100
1000
1010
,  // measure 45
0010
0000
0100
0000
0001
0000
1000
0000
0010
0100
0010
0100
0010
0100
0010
0100
,  // measure 46
0010
0100
0010
0100
0010
0100
0010
0100
0010
0000
0000
0000
0000
0000
0000
0000
,  // measure 47
1000
1000
1000
1000
1001
0000
0001
0010
,  // measure 48
0000
0010
0001
0100
0010
0000
0100
0010
,  // measure 49
0000
0010
0010
1000
0100
0000
0010
0001
,  // measure 50
0000
0010
0100
1000
0010
0000
0100
0010
,  // measure 51
0000
0010
0010
1000
0001
0000
1000
0010
,  // measure 52
0000
0100
0001
0010
0100
0000
0010
0001
,  // measure 53
1000
1000
0001
1000
0010
0000
0100
0001
,  // measure 54
0000
0000
0001
0000
0010
0000
0100
0000
0010
0000
0001
0000
1000
0001
1000
0000
,  // measure 55
0000
0001
0001
0010
0100
0010
0001
0100
,  // measure 56
1000
0100
0010
1000
0001
0010
1000
0010
,  // measure 57
0100
0010
0001
1000
0001
0100
1000
0100
,  // measure 58
0001
0010
0100
0010
0001
1000
0010
0100
,  // measure 59
0001
1000
1200
0000
0310
0001
0100
0000
,  // measure 60
0001
0000
0000
0000
1000
0001
0000
0001
0100
0000
0010
1000
0010
0000
1000
0000
,  // measure 61
0001
0000
0000
0000
1000
0000
0000
0001
0010
0000
0000
0000
0010
0001
0100
0000
,  // measure 62
0010
0100
0010
1000
0001
1000
0001
1000
0020
0000
0000
0000
2030
0000
0000
0000
,  // measure 63
3200
0000
0000
0000
0320
0000
0000
0000
0031
0000
0001
0100
0001
0100
0010
1000
,  // measure 64
0010
1000
0010
1000
0001
1000
0001
1000
0001
0100
0010
0000
0100
0010
1000
0000
,  // measure 65
0100
0000
0010
0001
1000
0000
0010
0000
1000
0000
0001
1000
0100
0000
0010
0000
,  // measure 66
0001
0000
0000
0000
0010
0000
0000
0000
0100
0000
0000
0000
1000
0000
0000
0000
0000
0000
0000
0000
0000
0000
0000
0000
0001
0000
0000
0100
0000
0000
0010
0000
0000
1000
0000
0000
0001
0000
0000
0010
0000
0000
0100
0000
0000
0010
0000
0000
,  // measure 67
0001
1000
0001
1000
0001
0000
0000
0000
1000
0010
0100
0001
0010
0100
0010
0001
,  // measure 68
0100
0010
1000
0001
0010
0100
0010
0001
0100
0010
1000
0010
0100
0001
0010
0100
,  // measure 69
0010
0001
0100
0010
1000
0100
0010
0001
0011
0000
0000
0000
1100
0000
0000
0000
,  // measure 70
1010
0000
0000
0000
0101
0000
0000
0000
0001
1000
0010
0000
0100
0000
0010
1000
,  // measure 71
0001
0000
0100
0000
0001
1000
0010
0000
0100
0000
0001
1000
0010
0000
0100
0000
,  // measure 72
0010
1000
0001
0000
0100
0000
0001
0000
1000
0001
0100
0000
0010
0000
1000
0001
,  // measure 73
0100
0000
0010
0000
0100
0001
1000
0000
0010
0000
0100
0001
1000
0000
0100
0000
,  // measure 74
0010
0001
1000
0000
0110
0000
0000
0000
0000
0000
1000
0001
0100
0000
0001
0000
,  // measure 75
1000
0001
0010
0000
0001
0000
1000
0001
0100
0000
0001
1000
0010
0000
1000
0000
,  // measure 76
0001
0100
0001
0010
0001
0000
1000
0000
0010
1000
0001
0000
1000
0000
0001
0100
,  // measure 77
0001
0000
0010
0000
0001
1000
0100
0000
1000
0000
0100
0000
0001
0000
0100
0000
,  // measure 78
1100
0000
1001
0000
0001
0100
0010
1000
0001
0010
0100
1000
0001
0000
0000
0000
,  // measure 79
1000
0001
0100
0001
0010
0100
1000
0001
1000
0000
0000
0000
0001
1000
0001
0000
,  // measure 80
1000
0010
1000
0000
0100
0010
0001
0100
0010
1000
0001
0010
0100
0000
0000
0000
,  // measure 81
0010
0001
0100
0010
1000
0001
1000
0100
0010
0000
0000
0000
1001
0000
1001
0000
,  // measure 82
1001
0000
1001
0000
0001
0100
0010
1000
0001
0100
0010
1000
0001
0000
0000
0000
,  // measure 83
1000
0010
0100
0001
1000
0100
0010
0100
0001
0000
0000
0000
1000
0010
0100
0000
,  // measure 84
0010
1000
0001
0000
1000
0001
0100
0001
0010
0100
0010
0001
1000
0000
0000
0000
,  // measure 85
0001
0100
0010
1000
0010
0000
0010
0000
0010
0000
0010
0000
0010
0000
0000
0000
,  // measure 86
0100
2002
0000
3003
0000
0000
0000
0000
;
