#TITLE:ELECTRIC POWER;
#SUBTITLE:;
#ARTIST:NIKO;
#TITLETRANSLIT:;
#SUBTITLETRANSLIT:;
#ARTISTTRANSLIT:;
#GENRE:;
#CREDIT:;
#BANNER:ELECTRIC POWER.png;
#BACKGROUND:ELECTRIC POWER-bg.png;
#LYRICSPATH:;
#CDTITLE:;
#MUSIC:Electric Power.ogg;
#OFFSET:-6.217002;
#SAMPLESTART:61.880001;
#SAMPLELENGTH:12.000000;
#SELECTABLE:YES;
#BPMS:0.000000=155.139999
;
#STOPS:15.000000=0.194000
;
#BGCHANGES:;
#KEYSOUNDS:;
#ATTACKS:;

//---------------dance-single - ----------------
#NOTES:
     dance-single:
     :
     Hard:
     8:
     0.546616,0.538800,0.558899,0.292347,0.042992,346.000000,65.000000,34.000000,0.000000,0.000000,0.000000,0.546616,0.538800,0.558899,0.292347,0.042992,346.000000,65.000000,34.000000,0.000000,0.000000,0.000000:
0001
0100
0000
1010
0000
1000
1100
0000
,
0000
0000
0000
0000
,
1000
0010
0000
0101
0000
0001
0011
0000
,
0100
1000
0001
1000
,
0020
0030
0000
0000
,
0200
0300
0000
0000
,
0002
0003
0000
0000
,
2000
3000
0002
0003
,
2000
3100
0010
0001
,
2000
3001
0100
0010
,
0200
0310
0001
0100
,
0002
1003
0200
0310
,
0200
0000
0000
0000
1300
0000
0000
0100
0000
0000
1000
0000
0010
0000
0100
0000
,
0002
0000
0000
0000
0013
0000
0000
0100
0000
0000
0010
0000
0001
0000
1000
0000
,
0020
0000
0000
0000
0130
0000
0000
0001
0000
0000
1000
0000
0100
0000
1000
0000
,
0020
0000
0130
0001
2000
0000
3100
0010
,
0002
0000
0000
0000
0013
0000
0000
0100
0000
0000
0010
0000
0001
0000
1000
0000
,
0020
0000
0000
0000
0130
0000
0000
0001
0000
0000
0100
0000
0010
0000
1000
0000
,
0010
0100
0001
0010
1000
0010
0100
1000
,
0200
0301
0100
1000
0020
0130
0001
1000
,
0100
0000
1000
0010
0000
0100
0000
0101
,
0000
1100
0000
0101
0000
1100
0000
0000
,
1000
0000
0100
1000
0000
0010
0000
0100
,
0000
1000
0100
0001
0010
0100
0000
0000
,
0010
0000
0001
0100
0000
0010
0000
0110
,
0000
1001
0000
0101
0000
1010
0000
0000
,
1000
0000
0010
0001
0000
0010
0000
0100
,
0000
0010
1000
0001
0010
0100
0000
0000
,
0010
0001
0100
0010
1000
0000
0101
0000
,
0001
0010
0100
0010
0001
0000
0100
1000
,
1100
0000
0000
0100
0010
0001
0000
0001
,
0101
0000
0000
0100
0010
1000
0000
0000
,
0100
0010
1000
0001
0010
0000
1100
0000
,
0100
1000
0010
0100
0001
0000
0110
0000
,
1001
0000
0000
2020
0000
0000
3030
0000
,
1001
0000
0000
0202
0000
0000
0303
0001
,
1001
0000
0110
0000
1001
1001
0000
0000
,
0001
0100
1000
0000
1000
0100
0001
0010
,
0011
0000
0101
0000
1010
1010
0000
0000
,
1000
0100
0001
0000
0001
0100
1000
0100
,
1100
0000
0110
0000
1001
1001
0000
0000
,
1000
0010
0100
0000
0010
0100
0001
1000
,
1001
0000
1010
0000
0101
0101
0000
1001
,
0000
0110
0000
1001
0000
0110
0000
0001
,
0101
0000
1100
0000
0101
0101
0000
0000
,
0100
0010
1000
0000
0100
0010
0001
0100
,
1100
0000
0101
0000
1001
1001
0000
0000
,
0001
0010
0100
0000
0100
1000
0010
0100
,
0101
0000
1010
0000
0101
0101
0000
0000
,
0001
0010
1000
0000
0010
0100
1000
0100
,
1100
0000
0011
0000
1001
1001
0000
1001
,
0000
0110
0000
1001
0000
0110
0000
0000
,
0002
0000
0000
0000
1003
0000
0000
0100
0000
0000
1000
0000
0010
0000
0100
0000
,
0002
0000
0000
0000
0013
0000
0000
0100
0000
0000
0010
0000
0001
0000
1000
0000
,
0020
0000
0000
0000
0130
0000
0000
1000
0000
0000
0100
0000
0010
0000
1000
0000
,
0020
0000
0130
0001
2000
0000
3100
1000
,
0020
0000
0000
0000
0130
0000
0000
0010
0000
0000
1000
0000
0010
0000
0100
0000
,
0002
0000
0000
0000
1003
0000
0000
0100
0000
0000
1000
0000
0010
0000
0100
0000
,
0001
0010
0100
0010
0001
1000
0010
0100
,
0002
1003
0100
0001
0200
1300
0010
0100
,
0002
0000
0000
2000
0000
0000
3003
1000
,
0001
0000
0001
0000
1000
0001
0000
0000
,
0001
1000
0001
0000
0001
0010
0001
0010
,
0100
0000
0100
0000
0010
0100
0000
0000
,
0100
0010
0001
0000
0001
0010
0100
1000
,
0001
0000
0001
0000
1000
0001
0000
0000
,
1000
0001
0010
0000
0100
1000
0001
0010
,
0100
0000
0100
0000
0010
0100
0000
0100
,
0000
1000
0000
0001
0000
0100
0000
0010
,
0110
0000
1001
0000
1001
0110
0000
0000
;

//---------------dance-single - ----------------
#NOTES:
     dance-single:
     :
     Easy:
     3:
     0.245670,0.298796,0.137575,0.249355,0.000000,155.000000,16.000000,29.000000,0.000000,0.000000,0.000000,0.245670,0.298796,0.137575,0.249355,0.000000,155.000000,16.000000,29.000000,0.000000,0.000000,0.000000:
1001
0000
0000
0000
,
0000
0000
0000
0000
,
0110
0000
0000
0000
,
0000
0000
0000
0000
,
0002
0003
0000
0000
,
2000
3000
0000
0000
,
0002
0003
0000
0000
,
2000
3000
2000
3000
,
0020
0030
0000
0000
,
0200
0300
0000
0000
,
0010
0000
1000
0000
,
1001
0000
0110
0000
,
1002
0000
0000
0003
0000
0000
0000
0000
,
2000
0000
0000
3000
0000
0000
0000
0000
,
0020
0000
0000
0030
0000
0000
0000
0000
,
0200
0300
0020
0030
,
0200
0000
0000
0300
0000
0000
0000
0000
,
0002
0000
0000
0003
0000
0000
0000
0000
,
2000
0000
0000
3000
0000
0000
0000
0000
,
1001
0000
1001
0000
,
0001
0000
0100
0000
,
0010
1000
0010
0000
,
1000
0000
0001
0000
,
0100
0100
0001
0000
,
1000
0000
0010
0000
,
0100
0001
0010
0000
,
0100
0000
0010
0000
,
0100
1000
0010
0000
,
0100
0100
0100
0000
,
0001
0001
0001
0000
,
1001
0000
0110
0000
,
1001
0000
0110
0000
,
0100
0100
0100
0000
,
0010
0010
0010
0000
,
2002
0000
0000
3003
,
0220
0000
0000
0330
,
0100
0010
1000
0000
,
0001
0000
0001
0000
,
1000
0001
0100
0000
,
0001
0000
0010
0000
,
0100
0010
0001
0000
,
1000
0000
0010
0000
,
0100
0010
1000
0000
,
0001
1000
0010
1000
,
0001
0010
1000
0000
,
0010
0000
0001
0000
,
1000
0100
0001
0000
,
0100
0000
0010
0000
,
0001
0100
1000
0000
,
0100
0000
0010
0000
,
0001
0010
1000
0000
,
0000
0000
0000
0000
,
0002
0103
0001
0010
,
0200
0310
0001
1000
,
0020
0130
0010
1000
,
0002
0003
2000
3000
,
0020
0130
0010
1000
,
0200
0310
0001
1000
,
0010
1000
0010
0100
,
0002
0013
0002
0103
,
0002
0000
0000
0003
,
0100
0100
0001
0000
,
1000
0000
0010
0000
,
0100
0001
1000
0000
,
0100
0000
0010
0000
,
0001
0001
0010
0000
,
0001
0000
1000
0000
,
0010
0100
0001
0000
,
1000
0000
0010
0000
,
1001
0110
1001
0000
;

//---------------dance-single - ----------------
#NOTES:
     dance-single:
     :
     Medium:
     6:
     0.433608,0.419067,0.257954,0.240757,0.021496,295.000000,30.000000,28.000000,0.000000,0.000000,0.000000,0.433608,0.419067,0.257954,0.240757,0.021496,295.000000,30.000000,28.000000,0.000000,0.000000,0.000000:
0001
1000
0000
0010
0000
1000
0001
0000
,
0000
0000
0000
0000
,
0001
1000
0000
0010
0000
1000
0001
0000
,
0100
0010
0100
0010
,
0200
0300
0000
0000
,
0020
0030
0000
0000
,
2000
3000
0000
0000
,
0002
0003
2000
3000
,
0202
0303
0000
0000
,
0220
0330
0000
0000
,
2020
3030
1000
0000
,
0001
0100
0010
1000
,
0002
0000
0103
0000
0010
0000
1000
0001
,
0020
0000
0130
0000
0010
0000
0001
1000
,
0002
0000
0103
0000
0001
0000
1000
0100
,
0020
0000
0130
1000
0020
0000
0130
0001
,
2000
0000
3001
0000
0100
0000
0001
0100
,
0020
0000
0130
0000
0010
0000
1000
0001
,
0200
0301
1000
0100
,
1000
0100
0010
0001
0010
0100
0010
0001
,
1000
0001
0100
0001
,
0010
0100
0010
0001
,
1000
0010
0100
0001
,
1000
0010
1000
0010
1000
0010
0000
0000
,
0100
0001
0010
0001
,
1000
0100
1000
0001
,
0100
0001
1000
0001
,
0100
0001
0100
0001
0100
0001
0000
0000
,
0100
0010
0110
0110
,
0010
1000
1001
1001
,
0101
0000
1010
0000
,
1001
0000
1100
0000
,
0100
0010
0011
0011
,
0001
0100
1010
1010
,
1001
0000
0000
1001
0000
0000
0000
0000
,
0110
0000
0000
0110
0000
0000
0000
0010
,
1000
0000
0100
0000
0010
0001
0000
0000
,
1000
0000
1000
0000
0001
0000
0001
0100
,
0010
0000
1000
0000
0100
0010
0000
0000
,
0100
0000
1000
0000
0001
0000
0100
1000
,
0100
0000
0010
0000
1000
0001
0000
0000
,
1000
0000
0001
0000
0100
0000
0001
0010
,
0100
0000
0010
0000
0001
1000
0000
1010
,
0000
0101
0000
1010
0000
0101
0000
0001
,
1000
0000
0010
0000
1000
0100
0000
0000
,
1000
0010
0001
0000
0001
0010
0100
0010
,
1000
0000
0001
0000
0010
0100
0000
0000
,
0010
0001
1000
0000
0001
0100
0010
1000
,
0100
0000
1000
0000
0010
1000
0000
0000
,
0010
0100
0001
0000
1000
0001
0010
0100
,
0010
0000
0001
0000
1000
0010
0000
1001
,
0000
0110
0000
1001
0000
0110
0000
0000
,
0200
0000
0000
0000
0301
0000
0000
1000
0000
0000
0100
0000
1000
0000
0000
0000
,
0020
0000
0000
0000
0130
0000
0000
0001
0000
0000
1000
0000
0001
0000
0000
0000
,
0200
0000
0000
0000
0301
0000
0000
0010
0000
0000
0100
0000
0010
0000
0000
0000
,
0002
0000
0013
0100
2000
0000
3100
0010
,
0002
0000
0000
0000
1003
0000
0000
0001
0000
0000
0100
0000
0001
0000
0010
0000
,
0200
0000
0000
0000
0310
0000
0000
0001
0000
0000
1000
0000
0001
0000
0000
0000
,
0100
0001
0010
0100
,
1000
0100
0010
0001
1000
0100
0010
0001
,
2000
0000
0000
0020
0000
0000
3030
0100
,
0010
0000
0010
0000
0010
0100
0000
0000
,
0010
0000
1000
0000
0001
0000
0010
0100
,
1000
0000
1000
0000
1000
0100
0000
0000
,
0100
0000
1000
0000
0010
0000
0100
0001
,
0100
0000
0100
0000
0100
0001
0000
0000
,
1000
0000
0001
0000
0100
0000
0010
1000
,
0010
0000
0010
0000
0010
1000
0000
0010
,
0000
0100
0000
0001
0000
1000
0000
0001
,
0100
0000
1010
0000
1001
1001
0000
0000
;

//---------------dance-single - ----------------
#NOTES:
     dance-single:
     :
     Challenge:
     12:
     0.937231,1.000000,0.550301,0.171969,1.000000,679.000000,64.000000,20.000000,0.000000,0.000000,0.000000,0.937231,1.000000,0.550301,0.171969,1.000000,679.000000,64.000000,20.000000,0.000000,0.000000,0.000000:
// measure 0
1000
0000
0101
0000
0000
0000
0011
0000
0000
0000
0100
0000
1001
0000
0001
0100
,  // measure 1
0010
1000
0100
0001
0000
0001
0010
0001
,  // measure 2
0100
0000
1010
0000
0000
0000
0101
0000
0000
0000
0010
0000
1001
0000
0000
1000
,  // measure 3
0100
0000
0000
0100
0010
0000
0000
0010
0001
0000
0000
0001
1000
0000
0000
0000
,  // measure 4
0001
0100
0001
0100
0001
0100
0001
0000
0000
0000
0000
0000
0000
0000
0000
0000
0000
0000
0000
0000
0000
0000
0000
0000
,  // measure 5
1000
0010
1000
0010
1000
0010
1000
0000
0000
0000
0000
0000
0000
0000
0000
0000
0000
0000
0000
0000
0000
0000
0000
0000
,  // measure 6
0001
1000
0001
1000
0001
1000
0001
0000
0000
0000
0000
0000
0000
0000
0000
0000
0000
0000
0000
0000
0000
0000
0000
0000
,  // measure 7
1000
0010
1000
0010
1000
0010
1000
0000
0000
0000
0000
0000
0001
0010
0001
0010
0001
0010
0001
0000
0000
0000
0000
0000
,  // measure 8
1000
0001
1000
0001
1000
0001
1000
0000
0000
0100
0000
0000
0010
0000
0000
0001
0000
0000
0100
0000
0000
0010
0000
0000
,  // measure 9
1000
0010
1000
0010
1000
0010
1000
0000
0000
0100
0000
0000
0010
0000
0000
0100
0000
0000
1000
0000
0000
0001
0000
0000
,  // measure 10
1000
0000
1000
0001
0100
0010
1000
0001
0000
0001
0010
0100
1000
0100
1000
0100
,  // measure 11
0010
0000
0001
0100
1000
0100
0010
1000
0001
0000
0010
0100
1000
0000
0000
0000
,  // measure 12
0001
0000
0100
0000
0001
0000
0100
0000
0001
0000
0100
0000
0001
0000
0000
0100
0000
0000
0001
0000
0000
0010
0000
0000
0000
0000
0000
0100
0000
0000
0010
0000
0000
0001
0000
0000
1000
0000
0000
0010
0000
0000
0100
0000
0000
0000
0000
0000
,  // measure 13
0010
0000
0100
0000
0010
0000
0100
0000
0010
0000
0100
0000
0010
0000
0000
1000
0000
0000
0001
0000
0000
0010
0000
0000
0000
0000
0000
0100
0000
0000
0010
0000
0000
0001
0000
0000
1000
0000
0000
0010
0000
0000
1000
0000
0000
0000
0000
0000
,  // measure 14
0001
0000
0100
0000
0001
0000
0100
0000
0001
0000
0100
0000
0001
0000
0000
0100
0000
0000
0001
0000
0000
0010
0000
0000
0000
0000
0000
0100
0000
0000
1000
0000
0000
0100
0000
0000
0010
0000
0000
0100
0000
0000
1000
0000
0000
0000
0000
0000
,  // measure 15
0001
0000
0100
0000
0001
0000
0100
0000
0001
0000
0100
0000
0001
0000
0000
0100
0000
0000
0010
0000
0000
0000
0000
0000
0100
0000
0010
0000
0100
0000
0010
0000
0100
0000
0010
0000
0100
0000
0000
0010
0000
0000
1000
0000
0000
0000
0000
0000
,  // measure 16
0100
0000
0010
0000
0100
0000
0010
0000
0100
0000
0010
0000
0100
0000
0000
0010
0000
0000
1000
0000
0000
0001
0000
0000
0000
0000
0000
0010
0000
0000
0100
0000
0000
1000
0000
0000
0001
0000
0000
0100
0000
0000
0010
0000
0000
0000
0000
0000
,  // measure 17
0100
0000
0010
0000
0100
0000
0010
0000
0100
0000
0010
0000
0100
0000
0000
0001
0000
0000
1000
0000
0000
0100
0000
0000
0000
0000
0000
0010
0000
0000
0100
0000
0000
1000
0000
0000
0001
0000
0000
0100
0000
0000
0001
0000
0000
0000
0000
0000
,  // measure 18
1000
0000
0010
0000
1000
0000
0010
0000
1000
0000
0010
0000
1000
0000
0000
0010
0000
0000
1000
0000
0000
0100
0000
0000
0000
0000
0000
0010
0000
0000
0001
0000
0000
0010
0000
0000
0100
0000
0000
0010
0000
0000
0001
0000
0000
0000
0000
0000
,  // measure 19
1000
0000
0001
0000
0100
0000
0010
0000
1000
0000
0001
0000
0010
0000
0000
0100
0000
0000
1000
0000
0000
0001
0000
0000
0100
0000
0010
0000
1000
0000
0001
0000
0010
0000
0100
0000
1000
0000
0000
0100
0000
0000
0010
0000
0000
0000
0000
0000
,  // measure 20
0001
0010
0001
0100
0010
1000
0100
0010
,  // measure 21
0100
1000
0010
0100
0001
0010
0100
0000
,  // measure 22
0010
0001
0100
0010
1000
0100
0010
0001
,  // measure 23
0011
0010
0110
0100
0210
2300
0000
3000
,  // measure 24
0001
0100
0010
1000
0100
0001
0100
1000
,  // measure 25
0010
0100
0001
1000
0001
0010
0100
0000
,  // measure 26
0010
0001
0100
0010
1000
0010
0100
0001
,  // measure 27
0101
0100
0110
0010
0110
1001
0000
0000
,  // measure 28
0001
1000
0010
0100
0102
0000
0013
0000
,  // measure 29
0001
0100
0010
1000
1020
0000
0130
0010
,  // measure 30
1001
0000
0000
0000
0000
0000
0001
0100
0001
0000
0100
0000
0000
0000
0010
1000
,  // measure 31
0010
0000
0000
0000
0000
0000
0100
0010
1000
0000
0001
0000
0000
0000
0000
0000
,  // measure 32
0001
0100
1000
0100
0120
0000
1030
0000
,  // measure 33
0010
0100
0001
0010
0210
0000
1300
0000
,  // measure 34
2100
0000
0000
0020
0000
0000
3030
0000
,  // measure 35
0102
0000
0000
0020
0000
0000
0033
0010
,  // measure 36
0110
0000
1001
0000
0101
1010
0000
0000
,  // measure 37
0001
0100
0001
0100
0001
0000
0100
0000
0010
1000
0010
1000
0010
0000
1000
0000
,  // measure 38
1001
0000
1100
0000
1010
0101
0000
0000
,  // measure 39
1000
0001
1000
0001
1000
0000
0001
0000
0100
0010
0100
0010
0100
0000
0010
0000
,  // measure 40
1010
0000
0101
0000
0011
1100
0000
0000
,  // measure 41
0100
0010
0100
0010
0100
0000
0010
0000
0001
1000
0001
1000
0001
0000
0100
0000
,  // measure 42
0101
0000
1010
0000
1100
0011
0000
0002
,  // measure 43
0000
0203
0000
2300
0000
3020
0000
0031
,  // measure 44
1001
0000
1010
0000
0101
0110
0000
0000
,  // measure 45
0100
0001
0010
0100
1000
0000
0100
0000
1000
0010
0100
0001
1000
0000
0001
0000
,  // measure 46
1001
0000
0110
0000
1001
1001
0000
0000
,  // measure 47
1000
0010
0100
0001
0100
0000
0010
0000
0100
0010
1000
0001
0010
0000
0100
0000
,  // measure 48
1100
0000
1001
0000
0011
0110
0000
0000
,  // measure 49
0100
0010
0001
0100
0010
0000
1000
0000
0010
0100
0010
1000
0001
0000
1000
0000
,  // measure 50
1100
0000
0110
0000
0011
1010
0000
0002
,  // measure 51
0000
0203
0000
0320
0000
2030
0000
3000
,  // measure 52
0001
0000
0100
0000
0001
0000
0100
0000
0001
0000
0100
0000
0001
0000
0000
0100
0000
0000
0001
0000
0000
0010
0000
0000
0000
0000
0000
0100
0000
0000
0010
0000
0000
0001
0000
0000
1000
0000
0000
0010
0000
0000
0100
0000
0000
0000
0000
0000
,  // measure 53
0010
0000
0100
0000
0010
0000
0100
0000
0010
0000
0100
0000
0010
0000
0000
1000
0000
0000
0001
0000
0000
0010
0000
0000
0000
0000
0000
0100
0000
0000
0010
0000
0000
0001
0000
0000
1000
0000
0000
0010
0000
0000
1000
0000
0000
0000
0000
0000
,  // measure 54
0001
0000
0100
0000
0001
0000
0100
0000
0001
0000
0100
0000
0001
0000
0000
0100
0000
0000
0001
0000
0000
0010
0000
0000
0000
0000
0000
0100
0000
0000
1000
0000
0000
0100
0000
0000
0010
0000
0000
0100
0000
0000
1000
0000
0000
0000
0000
0000
,  // measure 55
0001
0000
0100
0000
0001
0000
0100
0000
0001
0000
0100
0000
0001
0000
0000
0100
0000
0000
0010
0000
0000
0000
0000
0000
0100
0000
0010
0000
0100
0000
0010
0000
0100
0000
0010
0000
0100
0000
0000
0010
0000
0000
1000
0000
0000
0000
0000
0000
,  // measure 56
0100
0000
0010
0000
0100
0000
0010
0000
0100
0000
0010
0000
0100
0000
0000
0010
0000
0000
1000
0000
0000
0001
0000
0000
0000
0000
0000
0010
0000
0000
0100
0000
0000
1000
0000
0000
0001
0000
0000
0100
0000
0000
0010
0000
0000
0000
0000
0000
,  // measure 57
0100
0000
0010
0000
0100
0000
0010
0000
0100
0000
0010
0000
0100
0000
0000
0001
0000
0000
1000
0000
0000
0100
0000
0000
0000
0000
0000
0010
0000
0000
0100
0000
0000
1000
0000
0000
0001
0000
0000
0100
0000
0000
0001
0000
0000
0000
0000
0000
,  // measure 58
1000
0000
0010
0000
1000
0000
0010
0000
1000
0000
0010
0000
1000
0000
0000
0010
0000
0000
1000
0000
0000
0100
0000
0000
0000
0000
0000
0010
0000
0000
0001
0000
0000
0010
0000
0000
0100
0000
0000
0010
0000
0000
0001
0000
0000
0000
0000
0000
,  // measure 59
1000
0000
0001
0000
0100
0000
0010
0000
1000
0000
0001
0000
0010
0000
0000
0100
0000
0000
1000
0000
0000
0001
0000
0000
0100
0000
0010
0000
1000
0000
0001
0000
0010
0000
0100
0000
1000
0000
0000
0100
0000
0000
0010
0000
0000
0000
0000
0000
,  // measure 60
0002
0000
0000
0000
0000
0000
0020
0000
0000
0000
0000
0000
0033
0000
0001
1000
,  // measure 61
0100
0000
0100
0010
0001
0000
0001
0010
0100
0000
1100
0000
0000
0000
0000
0000
,  // measure 62
1000
0010
0100
0001
0010
0000
0100
0000
1000
0010
0100
0001
1000
0000
0100
0010
,  // measure 63
0001
0000
0001
0100
0010
0000
0010
1000
0001
0000
1001
0000
0000
0000
0000
0000
,  // measure 64
0001
0100
0010
1000
0100
0000
0010
0000
0001
0010
0100
1000
0001
0000
1000
0010
,  // measure 65
0100
0000
0001
0010
0100
0000
1000
0010
0100
0000
0101
0000
0000
0000
0000
0000
,  // measure 66
0001
1000
0010
1000
0010
0000
0100
0000
0010
1000
0010
0100
0001
0000
0010
0100
,  // measure 67
1000
0000
0100
0010
0001
0000
1000
0010
0100
0000
0101
0000
0000
0000
1001
0000
,  // measure 68
0000
0000
1010
0000
0000
0000
1100
0000
0000
0000
0011
0000
0000
0000
0010
0100
,  // measure 69
1100
0000
1000
0010
0110
0000
0100
0001
0101
0000
1001
0000
0000
0000
0000
0000
;

//---------------dance-single - ----------------
#NOTES:
     dance-single:
     :
     Beginner:
     1:
     0.152315,0.179278,0.068788,0.000000,0.000000,116.000000,8.000000,0.000000,0.000000,0.000000,0.000000,0.152315,0.179278,0.068788,0.000000,0.000000,116.000000,8.000000,0.000000,0.000000,0.000000,0.000000:
0000
0000
0000
0000
,
0000
0000
0000
0000
,
0000
0000
0000
0000
,
0000
0000
0000
0000
,
1000
0000
0000
0000
,
0001
0000
0000
0000
,
1000
0000
0000
0000
,
0001
0000
1000
0000
,
0010
0000
0000
0000
,
0100
0000
0000
0000
,
0010
0000
0000
0000
,
1000
0000
0001
0000
,
1001
0000
0000
0000
,
0110
0000
0000
0000
,
1001
0000
0000
0000
,
0110
0000
1001
0000
,
0110
0000
0000
0000
,
1001
0000
0000
0000
,
1000
0000
0000
0000
,
0001
0000
1000
0000
,
0010
0000
0000
0000
,
0100
0000
0000
0000
,
0001
0000
0000
0000
,
1000
1000
1000
0000
,
0001
0000
0000
0000
,
1000
0000
0000
0000
,
0100
0000
0000
0000
,
1000
1000
1000
0000
,
0010
0000
0100
0000
,
0010
0000
0100
0000
,
0001
0000
1000
0000
,
0001
0000
1000
0000
,
0010
0000
0000
0000
,
0100
0000
0000
0000
,
0001
0000
0000
0000
,
1000
0000
0000
0000
,
0010
0010
0010
0000
,
0100
0000
0100
0000
,
0001
0001
0001
0000
,
1000
0000
1000
0000
,
0100
0100
0100
0000
,
0010
0000
0010
0000
,
0001
0001
0001
0000
,
1000
0000
0001
0000
,
0100
0100
0100
0000
,
0010
0000
0010
0000
,
1000
1000
1000
0000
,
0001
0000
0001
0000
,
1000
1000
1000
0000
,
0100
0000
0100
0000
,
0010
0010
0010
0000
,
0000
0000
0000
0000
,
0001
0000
0000
0000
,
1000
0000
0000
0000
,
0001
0000
0000
0000
,
1000
0000
0010
0000
,
0100
0000
0000
0000
,
0001
0000
0000
0000
,
1000
0000
0000
0000
,
0001
0000
1000
0000
,
0010
0000
0000
0000
,
0100
0100
0100
0000
,
0010
0000
0010
0000
,
1000
1000
1000
0000
,
0001
0000
0001
0000
,
0010
0010
0010
0000
,
0100
0000
0100
0000
,
1000
1000
1000
0000
,
0001
0000
1000
0000
,
0010
0100
1001
0000
;
