#VERSION:0.83;
#TITLE:ECHIDNA;
#SUBTITLE:;
#ARTIST:HuΣeR;
#TITLETRANSLIT:;
#SUBTITLETRANSLIT:;
#ARTISTTRANSLIT:;
#GENRE:;
#ORIGIN:;
#CREDIT:;
#BANNER:ECHIDNA.png;
#BACKGROUND:ECHIDNA-bg.png;
#PREVIEWVID:;
#JACKET:ECHIDNA-jacket.png;
#CDIMAGE:;
#DISCIMAGE:;
#LYRICSPATH:;
#CDTITLE:;
#MUSIC:ECHIDNA.mp3;
#OFFSET:-0.996001;
#SAMPLESTART:55.218575;
#SAMPLELENGTH:13.150673;
#SELECTABLE:YES;
#BPMS:0.000=146.000;
#STOPS:;
#DELAYS:;
#WARPS:;
#TIMESIGNATURES:0.000=4=4;
#TICKCOUNTS:0.000=4;
#COMBOS:0.000=1;
#SPEEDS:0.000=1.000=0.000=0;
#SCROLLS:0.000=1.000;
#FAKES:;
#LABELS:0.000=Song Start;
#BGCHANGES:;
#KEYSOUNDS:;
#ATTACKS:
;

//---------------dance-single - ----------------
#NOTEDATA:;
#CHARTNAME:;
#STEPSTYPE:dance-single;
#DESCRIPTION:;
#CHARTSTYLE:;
#DIFFICULTY:Hard;
#METER:7;
#RADARVALUES:0.395150,0.510840,0.103927,0.551612,0.215848,346.000000,333.000000,13.000000,69.000000,0.000000,0.000000,0.000000,0.000000,0.000000,0.395150,0.510840,0.103927,0.551612,0.215848,346.000000,333.000000,13.000000,69.000000,0.000000,0.000000,0.000000,0.000000,0.000000;
#CREDIT:;
#NOTES:
0000
0000
0000
0000
,
2020
0000
0000
3030
,
0022
0000
0000
0033
,
0202
0000
0000
0303
,
2002
0000
0000
3003
,
0120
0000
1000
0000
,
0000
0000
0100
0000
0000
0100
0000
0000
0100
0000
0000
0000
0000
0000
1030
0000
,
0002
0000
0000
0000
,
1000
0000
0000
0000
0103
0010
1000
0001
,
1000
0100
1000
0001
,
0010
0000
0001
0000
0100
0000
0010
1000
,
0001
0010
0001
1000
,
0100
1000
0010
0100
,
0001
0100
0001
0000
1000
0010
1000
0000
,
0100
1000
0100
0000
0010
0001
0010
0000
,
0001
0010
1000
0010
0001
0010
0100
0001
,
0100
1000
0100
0001
0200
0000
2300
0000
,
3002
0000
0000
0000
0000
0000
0000
0000
0000
0000
0000
0000
0000
0000
0000
0000
0000
0000
0000
0000
0000
0000
0000
0000
0000
0000
0000
0000
0000
0000
0000
0000
0000
0000
0000
0000
0000
0000
0000
0000
2000
0000
0000
0000
0000
0000
0000
0000
0000
0000
0000
0003
0020
0000
0000
0000
0000
0000
0000
0000
0000
0000
3000
0000
,
0200
0000
0000
0000
0000
0030
0002
0000
0000
0000
0000
0300
2000
0000
0000
0000
0000
0003
0002
0000
0000
0000
0000
0000
0000
0000
0000
0000
0000
0000
0000
3000
,
1003
0000
0000
0001
0100
0000
0000
0000
1000
0000
0000
0001
0100
0000
0000
0000
,
1000
0000
0000
0001
0100
0000
0000
0000
1000
0000
0001
0000
0000
1000
0000
0000
,
0020
0000
0000
0000
0000
0000
0000
0000
0000
0000
0000
0000
0000
0000
0000
0000
0000
0000
0000
0000
0200
0000
0000
0000
0000
0030
0002
0000
0300
0000
0000
0000
,
0020
0000
0000
0000
0000
0003
0200
0000
0000
0000
0000
0030
2000
0000
0000
0000
0000
0300
0002
0000
0000
0000
0000
0000
0000
0000
0000
0000
0000
0000
3003
0000
,
0100
0000
0000
0001
1000
0000
0000
0000
0100
0000
0000
1000
0001
0000
0000
0000
,
0100
0000
0000
0001
1000
0000
0000
0000
0100
0000
1000
0000
0001
0000
0010
0000
,
0001
0100
0001
1000
,
0001
0010
0100
1000
,
0100
1000
0010
1000
,
0001
0000
0000
0000
1000
0000
0000
0000
0010
0000
0000
1000
0000
0001
0000
0000
,
0100
0001
0010
0000
0100
0010
0001
0000
,
0100
1000
0010
0000
0100
0010
1000
0000
,
0001
1000
0001
1000
0001
0100
0001
0010
,
0001
0100
0010
1000
0100
0001
0100
1000
,
2010
0100
0010
3100
,
0012
0100
0010
0103
,
0210
0001
1000
0301
,
0021
1000
0001
1000
,
0130
2000
0000
3001
0100
0010
0100
0000
,
0010
1000
0100
1000
0001
0010
0001
0100
,
0002
1003
0100
2000
3001
0100
0002
1003
,
0100
2000
3001
0100
0020
0230
0302
2003
,
3200
0000
0000
0000
,
0000
0000
0320
0000
,
0031
1000
0010
0000
0100
0001
1000
0000
0100
0000
1000
0000
,
0001
0000
0100
0000
0010
0000
2000
0000
0000
0000
3001
1000
,
0020
0000
0000
0030
0010
0100
0001
0000
1000
0000
0100
0000
,
0001
0000
0100
0000
0010
0000
0002
0000
0000
0000
0000
0000
,
0203
0000
0000
0000
0310
0000
0100
0000
0001
0000
1000
0000
,
0100
0000
1000
0000
0001
0000
0020
0000
0000
0000
0130
1000
,
0020
0000
0000
0000
0000
0130
0010
0000
1000
0000
0001
0000
,
2000
0000
0000
0000
,
3001
0100
0010
0000
0100
0001
0010
0000
,
0100
1000
0010
0000
0100
0010
1000
0000
,
0001
1000
0100
0000
0010
0100
1000
0000
,
0010
0100
0001
0000
2000
0000
3002
0003
,
0021
0001
0031
0000
1200
1000
1300
0000
,
2010
0010
3010
0000
0102
0100
0103
0000
,
0010
0100
0001
1000
0010
0100
0001
1000
,
0100
1000
0001
0010
0200
0000
0320
0000
,
0031
0000
0000
0100
0000
0000
0001
0000
1000
0000
0000
0001
0000
0000
0010
0000
,
0100
0000
0000
0010
0000
0000
0100
0000
1000
0000
0000
0000
0001
0000
1000
0000
,
0001
0000
0000
0100
0000
0000
0001
0000
0010
0000
0000
0001
0000
0000
1000
0000
,
0100
0000
0000
0010
0000
0000
0100
0000
1000
0000
0000
0001
0000
1000
0000
0000
,
0020
0000
0000
0000
0000
0000
0130
0000
0002
0000
0000
2003
0000
0000
3100
0000
,
0020
0000
0000
0032
0000
0000
0103
0000
0010
0000
0000
0000
0100
0000
0010
0000
,
2000
0000
0000
0000
3200
0000
0000
0000
2300
0000
0000
3020
0000
0000
0230
0000
,
0302
0000
0000
0000
,
0013
0000
0000
0000
0001
0000
0000
0000
0100
0000
0000
0010
0000
0000
1000
0000
,
0002
0000
0000
0000
1003
0100
0001
0010
,
2000
0000
0000
0000
,
0000
0000
0000
0000
,
3000
0000
0000
0000
;

//---------------dance-single - ----------------
#NOTEDATA:;
#CHARTNAME:;
#STEPSTYPE:dance-single;
#DESCRIPTION:;
#CHARTSTYLE:;
#DIFFICULTY:Medium;
#METER:6;
#RADARVALUES:0.314065,0.482460,0.175876,0.335764,0.147896,275.000000,253.000000,22.000000,42.000000,0.000000,0.000000,0.000000,0.000000,0.000000,0.314065,0.482460,0.175876,0.335764,0.147896,275.000000,253.000000,22.000000,42.000000,0.000000,0.000000,0.000000,0.000000,0.000000;
#CREDIT:;
#NOTES:
0000
0000
0000
0000
,
2000
0000
0000
0000
,
3200
0000
0000
0000
,
2300
0000
0000
0000
,
3002
0000
0000
0000
,
0103
0000
0001
0000
,
0000
0000
0010
0000
0000
0010
0000
0000
0010
0000
0000
0000
0000
0000
0100
0000
,
2000
0000
0000
0000
,
0000
0000
0000
0000
3001
0100
1000
0100
,
0010
1000
0010
1000
,
0001
0100
0001
0100
,
0011
0010
0001
0010
,
1100
1000
0100
1000
,
0001
1001
1000
1010
,
1000
1001
0001
0011
,
0001
0100
0010
1000
,
0001
0100
0010
1000
0002
0000
2003
0000
,
3200
0000
0000
0000
0000
0000
0000
0000
0000
0000
1300
0000
0000
0100
0000
0000
,
0010
0000
0000
0001
0000
0000
1000
0000
0000
0020
0000
0000
0000
0000
0000
0000
,
1030
0101
1000
0101
,
1000
0101
0011
0001
,
0200
0000
0000
0000
0000
0000
0000
0000
0000
0000
0310
0000
0000
1000
0000
0000
,
0001
0000
0000
0010
0000
0000
0100
0000
0000
1000
0000
0000
0000
0000
0000
0000
,
0010
1010
1000
1001
,
0001
0011
0020
0230
,
1300
0100
1000
0100
,
0010
0001
0010
0001
,
1000
0001
1000
0001
,
0100
0000
0000
0000
0010
0000
0000
0000
0100
0000
0000
0010
0000
0010
0000
0000
,
0000
0100
0010
0000
0000
0100
0001
0000
,
0000
0100
0010
0000
0000
0100
0001
0000
,
0000
0100
0010
0000
0100
0000
0010
0000
,
1000
0000
0001
0000
1000
0100
0010
0001
,
0022
0000
0000
0033
,
2200
0000
0000
3300
,
2002
0000
0000
3003
,
0202
0000
0000
0303
,
0000
0001
0000
1000
0010
0100
0010
0000
,
1000
0001
0010
0100
,
0010
0000
0002
1000
0003
0002
1000
0003
,
0002
1000
0003
0001
0020
0000
0230
0000
,
2300
0000
0000
0000
,
0000
0000
3002
0000
,
0103
0000
0001
0000
0010
0000
0001
0000
0100
0000
0010
0000
,
1000
0000
0100
0000
1000
0000
0010
0000
0000
0000
0000
0000
,
0100
0000
0000
0000
0000
0000
0010
0000
0100
0000
0001
0000
,
1000
0000
0100
0000
0001
0000
0100
0000
0000
0000
0000
0000
,
0010
0000
0000
0000
0000
0000
0100
0000
0010
0000
0001
0000
,
0010
0000
1000
0000
0010
0000
0100
0000
0000
0000
0000
0000
,
0010
0000
0000
0000
0000
0000
0100
0000
0010
0000
0001
0000
,
2000
0000
0000
3000
,
0220
0000
0000
0000
,
0000
0000
0000
0330
,
0000
1000
0000
0001
,
0200
0000
0000
0320
0000
0000
0030
0000
,
1000
0010
0110
0000
0100
0001
0011
0000
,
0010
0100
1100
0000
1000
0001
1001
0000
,
0001
0100
0010
1000
0001
0010
0100
1000
,
0100
0010
0001
0100
0002
0000
2003
0000
,
3100
0000
0000
1000
0000
0000
0010
0000
0100
0000
0000
0001
0000
0000
1000
0000
,
0010
0000
0000
1000
0000
0000
0100
0000
1000
0000
0000
0000
0100
0000
1000
0000
,
0010
0000
0000
0100
0000
0000
0010
0000
1000
0000
0000
0001
0000
0000
0010
0000
,
0100
0000
0000
0010
0000
0000
0001
0000
1000
0000
0000
0001
0000
0001
0000
0000
,
1000
0000
0000
0000
0000
0000
0001
0000
0100
0000
0000
0010
0000
0000
1000
0000
,
0010
0000
0000
0100
0000
0000
0001
0000
1000
0000
0000
0000
0001
0000
1000
0000
,
0010
0000
0000
0000
0100
0000
0000
0000
0001
0000
0000
1000
0000
0000
0100
0000
,
0020
0000
0000
0000
,
0230
0000
0000
0000
2300
0000
0000
0000
3020
0000
0000
0230
0000
0000
0302
0000
,
0020
0000
0000
0003
0130
1000
0010
0100
,
0002
0000
0000
0000
,
0000
0000
0000
0000
,
0003
0000
0000
0000
;

//---------------dance-single - ----------------
#NOTEDATA:;
#CHARTNAME:;
#STEPSTYPE:dance-single;
#DESCRIPTION:;
#CHARTSTYLE:;
#DIFFICULTY:Easy;
#METER:3;
#RADARVALUES:0.167882,0.425700,0.095932,0.231837,0.000000,147.000000,135.000000,12.000000,29.000000,0.000000,0.000000,0.000000,0.000000,0.000000,0.167882,0.425700,0.095932,0.231837,0.000000,147.000000,135.000000,12.000000,29.000000,0.000000,0.000000,0.000000,0.000000,0.000000;
#CREDIT:;
#NOTES:
0000
0000
0000
0000
,
0000
0000
0000
0000
,
0000
0000
0000
0000
,
0000
0000
0000
0000
,
0000
0000
0000
0000
,
1000
0000
0001
0000
,
0000
0000
0001
0000
,
0100
0000
0000
0000
,
0010
0000
0000
0000
,
1000
0000
0010
0000
,
0100
0000
0001
1000
,
0001
0000
0010
0000
,
0001
0000
1000
0100
,
1000
0010
1000
0010
,
0100
0001
0100
0001
,
0010
0001
1000
0100
,
2000
3002
0103
0010
,
2002
0000
0000
0000
,
0000
0000
0000
3003
,
0001
0000
1000
0000
,
0001
0000
1000
0000
,
0220
0000
0000
0000
,
0000
0000
0000
0330
,
1000
0000
0001
0000
,
1000
0000
0010
0100
,
0001
0000
0010
0000
,
0001
0000
1000
0000
,
0100
0000
1000
0000
,
0010
0000
0100
0010
,
1000
0001
0000
1000
,
0000
0001
0000
1000
,
0000
0010
0000
0100
,
0000
0010
2000
3020
,
0230
0000
0000
0300
,
0002
0000
0000
0003
,
2000
0000
0000
3000
,
0200
0000
0000
0300
,
1000
0000
0001
0000
,
0100
0000
0001
0000
,
0010
0000
0010
0000
,
0010
0000
0002
2003
,
3020
0000
0000
0000
,
0000
0000
1030
0000
,
0001
0000
1000
0000
,
0010
0000
1000
0000
,
0100
0000
1000
0000
,
0001
0000
0100
0000
,
0010
0000
1000
0000
,
0001
0000
0010
0000
,
0001
0000
1000
0000
,
0020
0000
0000
0000
,
2030
0000
0000
0000
,
0000
0000
0000
3000
,
0001
0000
0001
0000
,
1000
0000
1000
0000
,
1001
0000
0110
0000
,
1001
0000
0110
0000
,
1001
0110
1001
0110
,
1001
0110
0002
2003
,
3100
0000
1000
0000
,
0010
0000
0100
0001
,
0010
0000
0001
0000
,
1000
0000
0100
1000
,
0002
0000
1003
0000
,
0001
0100
0001
0010
,
0002
1003
2000
3001
,
0200
0000
0000
0300
,
0020
0000
2030
0000
,
3200
0000
2300
3002
,
0200
0000
0000
0000
,
0000
0000
0000
0000
,
0303
0000
0000
0000
;

//---------------dance-single - ----------------
#NOTEDATA:;
#CHARTNAME:;
#STEPSTYPE:dance-single;
#DESCRIPTION:;
#CHARTSTYLE:;
#DIFFICULTY:Beginner;
#METER:1;
#RADARVALUES:0.087938,0.275806,0.071949,0.000000,0.000000,77.000000,68.000000,9.000000,0.000000,0.000000,0.000000,0.000000,0.000000,0.000000,0.087938,0.275806,0.071949,0.000000,0.000000,77.000000,68.000000,9.000000,0.000000,0.000000,0.000000,0.000000,0.000000,0.000000;
#CREDIT:;
#NOTES:
0000
0000
0000
0000
,
0000
0000
0000
0000
,
0000
0000
0000
0000
,
0000
0000
0000
0000
,
0000
0000
0000
0000
,
1000
0000
0000
0000
,
0000
0000
0000
0000
,
0010
0000
0000
0000
,
0000
0000
0000
0000
,
0100
0000
0000
0000
,
0001
0000
0000
0000
,
1000
0000
0000
0000
,
0010
0000
0000
0000
,
1000
0000
0000
0000
,
0001
0000
0000
0000
,
0010
0000
0000
0000
,
0001
0000
1000
0000
,
0110
0000
0000
0000
,
0000
0000
0000
0000
,
1000
0000
0000
0000
,
0001
0000
0000
0000
,
0110
0000
0000
0000
,
0000
0000
0000
0000
,
0010
0000
0000
0000
,
0001
0000
0000
0000
,
1000
0000
0000
0000
,
1000
0000
0000
0000
,
0001
0000
0000
0000
,
0001
0000
0000
0000
,
0100
0000
0000
0000
,
0010
0000
0000
0000
,
1000
0000
0000
0000
,
0001
0000
0000
0000
,
1001
0000
0000
0000
,
0010
0000
0000
0000
,
1001
0000
0000
0000
,
0100
0000
0000
0000
,
0010
0000
0000
0000
,
1000
0000
0000
0000
,
0100
0000
0000
0100
,
0000
0000
0010
0000
,
0001
0000
0000
0000
,
0000
0000
0000
0000
,
1000
0000
0000
0000
,
0001
0000
0000
0000
,
0100
0000
0000
0000
,
0010
0000
0000
0000
,
1000
0000
0000
0000
,
0001
0000
0000
0000
,
0010
0000
0000
0000
,
0001
0000
0000
0000
,
1000
0000
0000
0000
,
0000
0000
0000
0000
,
0000
0000
0000
0000
,
0000
0000
0000
0000
,
0000
1001
0000
0110
,
0000
1001
0000
0110
,
0001
0001
1000
1000
,
0010
0010
0100
0000
,
0010
0000
0000
0000
,
1000
0000
0000
0000
,
0001
0000
0000
0000
,
0100
0000
0000
0000
,
0010
0000
0000
0000
,
1000
0000
0000
0000
,
0100
0000
1000
0000
,
0001
0000
0000
0000
,
0100
0000
0010
0000
,
1000
0000
0000
0000
,
0110
0000
0000
0000
;

//---------------dance-single - ----------------
#NOTEDATA:;
#CHARTNAME:;
#STEPSTYPE:dance-single;
#DESCRIPTION:;
#CHARTSTYLE:;
#DIFFICULTY:Challenge;
#METER:9;
#RADARVALUES:0.564174,0.851401,0.151893,0.855398,0.755468,494.000000,475.000000,19.000000,107.000000,0.000000,0.000000,12.000000,0.000000,0.000000,0.564174,0.851401,0.151893,0.855398,0.755468,494.000000,475.000000,19.000000,107.000000,0.000000,0.000000,12.000000,0.000000,0.000000;
#CREDIT:;
#NOTES:
// measure 0
0000
0000
0000
0000
,  // measure 1
2010
0000
0000
0000
,  // measure 2
3200
0000
0000
0000
,  // measure 3
0302
0000
0000
0000
,  // measure 4
0023
0000
0000
0000
,  // measure 5
2030
0000
3001
0000
,  // measure 6
0000
0000
0100
0000
0000
0010
0000
0000
1000
0000
0000
0000
0000
0001
0100
0001
,  // measure 7
0020
0000
0000
0000
,  // measure 8
0130
0000
0000
0000
0000
1000
0000
0000
0004
0400
0000
0000
0000
0000
0303
0000
,  // measure 9
1000
0000
0000
0010
0000
0000
0100
0000
0000
0010
0000
0000
0100
0000
0010
0000
,  // measure 10
1000
0000
0001
0000
0100
0000
0001
0100
0000
0000
0001
0100
0010
1000
0001
0100
,  // measure 11
0001
0000
1000
0100
1000
0010
0100
0001
0000
0000
1000
0010
1000
0001
1000
0010
,  // measure 12
0000
0000
0100
0010
1000
0000
0001
0100
0000
0100
0010
1000
0001
0010
0100
1000
,  // measure 13
0001
0100
1000
0100
0001
0100
1000
0100
,  // measure 14
0001
0010
1000
0010
0001
0010
1000
0010
,  // measure 15
0001
0100
0001
0100
0010
1000
0010
1000
0100
1000
0100
0010
0001
0010
0001
1000
,  // measure 16
0040
0400
0000
0000
0000
0000
0000
0000
0000
0000
0000
0330
1001
0000
0000
0000
0000
0000
0110
0000
0000
0000
0000
0000
,  // measure 17
2001
0000
0000
0000
0000
0000
0000
0000
0000
0000
0002
0000
3000
0200
0000
0003
,  // measure 18
2000
0000
0300
0020
0000
3000
0002
0000
0030
2000
0000
0000
0000
0000
0000
3003
,  // measure 19
0010
0000
0000
1000
0001
0000
0000
0000
0010
0000
0000
0001
1000
0000
0000
0000
,  // measure 20
0010
0000
0000
1000
0001
0000
0000
0000
0010
0000
0000
0001
1000
0000
0000
0000
,  // measure 21
1002
0000
0000
0000
0000
0000
0000
0000
0000
0000
2000
0000
0003
0020
0000
3000
,  // measure 22
0002
0000
0030
0200
0000
0003
2000
0000
0300
0002
0000
0000
0000
0000
0000
3003
,  // measure 23
0100
0000
0000
0001
1000
0000
0000
0000
0100
0000
0000
1000
0001
0000
0000
0000
,  // measure 24
0100
0000
0000
0000
0000
0000
0000
0000
0000
0001
0000
0000
1000
0000
0000
0000
0000
0000
0000
0000
0000
0000
0000
0000
0004
0000
0400
0000
0000
0000
0000
0000
0000
0000
0000
0000
0000
0000
0000
0000
0000
0000
0000
0000
0000
0000
0303
0000
,  // measure 25
0010
0000
1000
0001
0000
0010
0000
0001
1000
0000
1000
0010
0000
1000
0000
0001
,  // measure 26
1000
0000
1000
0010
0000
1000
0000
1000
0001
0000
0010
0001
0000
1000
0000
0001
,  // measure 27
0100
0000
0001
1000
0000
0100
0000
1000
0001
0000
0001
0100
0000
0001
0000
1000
,  // measure 28
0001
0000
0001
0100
0000
0001
0000
0001
1000
0000
0100
1100
0000
0101
0000
0100
,  // measure 29
0010
1000
1100
0000
0010
0001
0101
0000
,  // measure 30
0001
1000
1010
0000
1000
0001
0011
0000
,  // measure 31
0001
0000
1000
0000
0010
0000
0100
0000
0001
1000
0001
1000
0001
1000
0001
1000
,  // measure 32
0001
0000
0000
0100
0000
0000
0010
0000
0000
1000
0000
0000
0001
0000
0000
0100
0000
0000
0010
0000
0000
1000
0000
0000
0004
0000
4000
0000
0000
0000
0000
0000
0000
0000
0000
0000
0000
0000
0000
0000
0000
0000
0000
0000
3003
0000
0000
0000
,  // measure 33
1020
0001
1000
0031
,  // measure 34
0210
0000
0000
0000
1000
0000
0000
0000
0001
0000
0000
0000
2300
0000
0000
3000
,  // measure 35
1020
0001
1000
0031
,  // measure 36
0210
0000
0000
0000
1000
0000
0000
0000
0001
0000
0000
1000
0000
1000
0000
0000
,  // measure 37
0310
0000
2000
0000
0000
0000
3100
0000
1000
0000
0001
1000
0100
0000
0000
0000
,  // measure 38
0010
0000
0001
0100
0010
0000
0100
0010
1000
0001
0010
0001
1000
0010
1000
0100
,  // measure 39
0020
0000
0031
1000
0020
0000
1030
0000
0001
1000
0020
0000
1030
0000
0001
1000
,  // measure 40
0020
0000
0000
0000
0000
0000
1030
0000
0000
0000
0000
0000
0001
0000
0000
1000
0000
0000
0020
0000
0000
0000
0000
0000
0430
0000
0040
0000
0000
0000
0000
0000
0000
0000
0000
0000
0000
0000
0000
0000
0000
0000
0000
0000
0330
0000
0000
0000
,  // measure 41
2001
0000
0000
0000
,  // measure 42
0000
0000
0000
0000
0000
0000
0000
0000
0000
0000
0000
0000
0000
0000
0000
0000
0000
0000
0000
0000
0000
0000
0000
0000
0020
0000
0000
0000
0000
0000
0000
0000
0000
0000
0000
0000
0000
0000
0000
0000
0000
0000
0000
0000
3000
0030
0000
0000
,  // measure 43
2000
3020
0230
0000
0320
2030
3002
0000
0023
0000
0032
0000
,  // measure 44
0203
0000
0320
0000
2030
0000
3002
0000
0000
0000
2003
3002
,  // measure 45
0203
0000
0000
0000
0320
2030
3002
0000
0023
0000
0032
0000
,  // measure 46
0203
0000
0320
0000
2030
0000
3001
0010
0001
0100
0010
1000
,  // measure 47
0002
2003
3200
0000
0320
0032
0203
0000
0320
0000
2030
0000
,  // measure 48
3002
0000
0023
0000
0032
0000
2003
0000
0000
0000
3002
0203
,  // measure 49
2300
0000
0000
0000
3200
0320
2030
0000
3002
0000
0023
0000
,  // measure 50
0032
0000
0000
0000
0000
0000
0000
0000
1003
0010
0000
0010
0000
0010
0100
0010
,  // measure 51
0100
0001
1000
0000
0001
1000
0010
0000
,  // measure 52
1000
0001
0100
0000
0001
1000
0100
0000
,  // measure 53
0010
0001
1000
0000
0001
1000
0010
0000
,  // measure 54
0200
0000
0000
0000
0000
0000
0000
0000
0000
0320
0000
0000
4030
0004
0000
0000
0000
0000
0000
0000
0000
0000
3003
0000
,  // measure 55
0001
0100
0010
1000
0002
0000
0000
0000
0013
0100
1000
0010
0200
0000
0000
0000
,  // measure 56
0310
1000
0001
0010
0200
0000
0000
0000
0310
0001
1000
0010
0200
0000
0000
0000
,  // measure 57
0310
1000
0010
1000
0001
0100
0001
0100
0001
0010
0001
0010
0100
1000
0100
1000
,  // measure 58
0001
0100
0010
1000
0001
0010
0100
1000
0020
0000
0000
0000
0001
0000
0000
0000
,  // measure 59
1030
0010
0100
0001
0000
0010
0100
0000
0010
0001
1000
0010
0000
0100
0001
0000
,  // measure 60
1000
0001
1000
0010
0000
1000
0100
0000
1000
0100
1000
0010
0100
0000
0001
0000
,  // measure 61
0010
0001
0100
0010
0000
0100
0001
1000
0100
0010
0100
1000
0000
0001
0100
0000
,  // measure 62
0010
0100
0001
0010
0000
0010
0001
1000
0010
0100
0000
0101
0000
1100
0000
0000
,  // measure 63
1020
0000
0000
0000
0000
0000
2000
0030
0200
0000
3000
0002
0000
0300
0200
0003
,  // measure 64
2000
0000
0300
0020
0000
3000
0002
0030
0020
0000
0000
0003
0200
0030
0020
0300
,  // measure 65
2000
0000
0000
0030
0002
0000
3000
0000
0200
0000
0003
0002
0000
0300
0020
0003
,  // measure 66
0200
0000
0000
0000
0000
0000
0000
0330
,  // measure 67
0020
0000
0000
0000
0032
0000
0000
0000
2003
0000
0000
3020
0000
0000
0230
0000
,  // measure 68
0301
1000
0001
1000
0001
1000
0001
1000
0010
0100
0001
1000
0010
0100
0001
1000
,  // measure 69
0020
0000
0000
0000
,  // measure 70
0000
0000
0000
0000
,  // measure 71
0030
0000
0000
0000
;
