#VERSION:0.81;
#TITLE:Drink Up;
#SUBTITLE:;
#ARTIST:Tut Tut Child;
#TITLETRANSLIT:;
#SUBTITLETRANSLIT:;
#ARTISTTRANSLIT:;
#GENRE:;
#ORIGIN:;
#CREDIT:;
#BANNER:Drink Up.png;
#BACKGROUND:Drink Up-bg.png;
#PREVIEWVID:;
#JACKET:Drink Up-jacket.png;
#CDIMAGE:;
#DISCIMAGE:beverages-bottles-cocktail-alcohol-drinks-bottles-cocktail-alkohol.jpg;
#LYRICSPATH:;
#CDTITLE:;
#MUSIC:Drink Up.ogg;
#OFFSET:-6.619000;
#SAMPLESTART:41.528091;
#SAMPLELENGTH:10.909088;
#SELECTABLE:YES;
#BPMS:0.000=110.000;
#STOPS:64.000=1.636;
#DELAYS:;
#WARPS:;
#TIMESIGNATURES:0.000=4=4;
#TICKCOUNTS:0.000=4;
#COMBOS:0.000=1;
#SPEEDS:0.000=1.000=0.000=0;
#SCROLLS:0.000=1.000;
#FAKES:;
#LABELS:0.000=Song Start;
#BGCHANGES:;
#KEYSOUNDS:;
#ATTACKS:
;

//---------------dance-single - ----------------
#NOTEDATA:;
#CHARTNAME:;
#STEPSTYPE:dance-single;
#DESCRIPTION:;
#CHARTSTYLE:;
#DIFFICULTY:Hard;
#METER:8;
#RADARVALUES:0.463481,0.440744,0.166154,0.131174,0.380404,337.000000,19.000000,15.000000,0.000000,0.000000,0.000000,0.000000,0.000000,0.463481,0.440744,0.166154,0.131174,0.380404,337.000000,19.000000,15.000000,0.000000,0.000000,0.000000,0.000000,0.000000;
#CREDIT:;
#NOTES:
1001
0000
0000
0000
,
0001
1000
0100
0100
0000
1000
0100
0100
,
1000
0001
0100
0100
0000
0001
1000
1000
,
0001
0100
0010
0010
0000
0100
0010
0010
,
0100
0001
1000
1000
0000
0001
0010
0100
,
1000
0000
0001
0000
1000
0000
0001
0000
1000
0000
0001
0000
1000
0000
0001
0100
,
0001
0000
0100
0000
0010
0000
0100
0000
0010
0000
0100
0000
0010
0000
1000
0010
,
1000
0010
0100
0001
0000
1000
0100
0001
,
0100
0000
0010
0000
0001
0000
1000
0000
0000
0001
0010
0100
0010
0001
1000
0010
,
0100
0000
0000
0010
0000
0000
1010
0000
0000
0010
0000
0000
0100
0000
0001
0000
,
1000
0000
0000
0100
0000
0000
0110
0000
0000
0010
0000
0000
0001
0000
0010
0000
,
0100
0000
0000
1000
0000
0000
1010
0000
0000
0010
0000
0000
0100
0000
0001
0000
,
1000
0000
0000
0001
0000
0000
0011
0000
0000
0010
0000
0000
0100
0000
1000
0000
,
0001
0100
1000
0100
0001
0010
1000
0010
,
0001
0100
1000
0100
0001
0010
1000
0010
,
0011
0010
0110
0100
1100
0100
0110
0010
,
1001
0000
0000
0000
1001
0000
0000
0000
0001
0100
0001
1000
0000
1000
0000
1000
,
0100
0000
0010
0000
0100
0000
0000
0000
0010
0100
0010
0001
0000
0001
0000
0001
,
0010
0000
0100
0000
0010
0000
0000
0000
0100
0010
0001
0100
0000
0100
0000
0100
,
0010
1000
0002
0000
0103
0000
0010
1000
,
0200
0000
0000
0000
0310
0000
0000
0000
0100
1000
0001
0100
0000
0010
0000
1000
,
0010
0000
0001
0000
0010
0000
0000
0000
0100
0010
0001
1000
0000
0010
0000
0100
,
0001
0000
0010
0000
1000
0000
0000
0000
1000
0010
0100
0001
0000
1000
0000
0010
,
1000
0000
0001
0000
0010
0000
0000
0000
0100
1000
0000
0001
0000
0000
0100
0000
,
0010
1000
0010
1000
0001
0000
0000
0000
0001
0100
0010
1000
0000
0001
0000
0001
,
1000
0000
0100
0000
0110
0000
0000
0000
0100
1000
0010
0100
0000
0001
0000
0001
,
0020
0000
0000
0000
0130
0000
0000
0000
1000
0010
0100
0001
0000
0001
0000
0100
,
0010
1000
2001
0000
3100
0000
1000
0001
,
0020
0000
0000
0000
0130
0000
0000
0000
0010
0001
1000
0010
0000
0100
0000
0100
,
0001
0000
1000
0000
1100
0000
0000
0000
0100
0010
0001
1000
0000
0001
0000
0001
,
0100
0000
0010
0000
1100
0000
0000
0000
0100
0010
0001
1000
0000
1000
0000
0001
,
0100
0000
0010
0000
1001
0000
0000
0000
0001
0010
0000
0100
0000
0000
0010
0000
,
0001
0000
0101
0000
2010
0000
3001
0010
,
0000
0200
0000
1300
0000
0002
0000
0103
,
0000
0000
0000
0000
0000
0000
0010
0000
0000
1000
0000
0000
0001
0000
0000
0000
1000
0000
0000
0000
0001
0000
0000
0000
0020
0000
0000
0000
0000
0000
0000
0000
0000
0000
0000
0000
0130
0000
0000
0000
0000
0000
0010
0000
0000
0000
0000
0000
,
0200
0000
1300
0000
0100
1000
0000
0001
,
0100
1000
0100
0000
0100
0010
1000
0001
,
1000
0100
0000
1000
0000
2000
0000
3000
,
0001
0000
0010
0000
0100
0000
1000
0000
0000
0010
0000
0000
1000
0000
0000
0001
0000
0000
0010
0000
0000
1000
0000
0000
,
0000
0010
0100
0000
0000
0000
0000
0000
,
0000
0000
1001
0000
0001
0020
0030
0010
,
0000
0010
0100
0000
1000
0000
0000
0000
0001
0100
0000
0001
0020
0000
0000
0000
,
0030
0000
0100
0000
1000
0000
0000
0000
0001
0000
0000
0100
0000
0000
1000
0000
,
0000
0100
0010
0000
1000
0000
0000
0000
0001
0010
0000
0100
0000
0000
1000
0000
,
0100
0000
0010
0000
0001
2000
3000
1000
,
0000
0100
0010
0000
0001
0000
0000
0000
1000
0010
0000
1000
0200
0000
0000
0000
,
0300
0000
0010
0000
0001
0000
0000
0000
1000
0000
0000
0010
0000
0000
0001
0000
,
0000
0010
0100
0000
0001
0000
0000
0000
1000
0100
0000
0010
0000
0000
0001
0000
,
1000
0000
0000
0000
;

//---------------dance-single - ----------------
#NOTEDATA:;
#CHARTNAME:;
#STEPSTYPE:dance-single;
#DESCRIPTION:;
#CHARTSTYLE:;
#DIFFICULTY:Challenge;
#METER:9;
#RADARVALUES:0.683354,0.734574,0.244858,0.489716,0.734574,463.000000,28.000000,56.000000,0.000000,0.000000,0.000000,0.000000,0.000000,0.683354,0.734574,0.244858,0.489716,0.734574,463.000000,28.000000,56.000000,0.000000,0.000000,0.000000,0.000000,0.000000;
#CREDIT:;
#NOTES:
0000
0000
0000
0000
,
1000
0100
1000
0010
0100
0001
0100
0001
0000
0100
0010
1000
0010
1000
0001
1000
,
0001
0010
0001
0100
0010
1000
0010
1000
0000
0010
1000
0001
0010
0100
0010
0100
,
0010
0001
1000
0010
0100
0010
0100
0010
0000
0100
0010
1000
0001
0010
0001
0010
,
0001
0100
0001
0100
0010
1000
0010
1000
0000
0010
1000
0001
0010
0100
1000
0001
,
1000
0000
0010
0000
0001
0000
0010
0000
0100
0000
0010
0000
1000
0000
0001
1000
,
0100
0000
0000
0000
0001
0000
0000
0000
0100
0000
0000
0000
1000
0000
0000
0000
0010
0000
0000
0000
0100
0000
0000
0000
0001
0000
0000
0000
1000
0000
0001
1000
,
0001
0000
1000
0000
0010
0000
0100
0000
0001
0000
0010
0000
0100
0000
1000
0100
1000
0000
0100
0000
0010
0001
0010
0000
0001
0000
1000
0001
1000
0000
0100
0000
,
0010
0001
0010
0001
0010
0100
0010
0100
1000
0100
1000
0100
1000
0001
1000
0001
0000
0000
0100
0000
0001
0000
1000
0000
0010
0000
0010
0000
0010
0000
0010
0000
,
1001
0000
0001
0010
0000
0100
0010
0001
0000
1000
0100
0001
0100
0000
0010
0000
,
0001
0000
0100
0010
0000
0100
0001
1000
0000
0001
0100
1000
0100
0000
0010
0000
,
0001
0000
0010
0100
0000
0010
0001
1000
0000
0010
0001
0010
1000
0000
0010
0000
,
0100
0000
0001
0100
0000
0010
1000
0001
0000
1000
0100
0001
0100
0000
0010
0000
,
0011
0010
0110
0100
1100
1000
1001
0001
,
0101
0100
0110
0010
1010
1000
1001
0001
,
1000
0100
1000
0100
0010
0100
0010
0100
0010
0001
0010
0001
1000
0001
1000
0001
,
1001
0000
0000
0000
0101
0000
0001
0000
0100
0010
1000
0001
0000
0010
0000
0100
,
0010
0000
0001
0000
1001
0000
1000
0000
0010
1000
0001
0010
0000
0100
0000
0010
,
0001
0000
1000
0000
1010
0000
0010
0000
0100
0001
0010
0100
0000
0010
0000
0001
,
1000
0010
2000
3100
2000
3001
0002
0103
,
0020
0000
0030
0000
0011
0000
1000
0000
0010
1000
0001
0010
0000
0100
0000
0010
,
0001
0000
1000
0000
1100
0000
0100
0000
0010
0001
0100
0010
0000
0100
0000
0001
,
1000
0000
0010
0000
1010
0000
0010
0000
0100
0001
0010
0001
0000
1000
0000
0100
,
0010
0000
0001
0000
0100
0000
0000
0000
0010
2000
0000
0002
0003
0000
3002
0000
,
0103
0001
0100
0001
0101
0000
0001
0000
1000
0100
0010
0200
0000
0320
0000
0031
,
0200
0000
1300
0000
0110
0000
0100
0000
0010
1000
0001
0020
0000
2030
0000
3010
,
0002
0000
0003
0000
1100
0000
0100
0000
0010
0001
1000
0020
0000
0001
0000
0130
,
0010
1000
0002
1003
0002
0013
0002
0023
,
2000
0000
3030
0000
1010
0000
0010
0000
0001
0010
0100
2000
0000
3020
0000
0001
,
0230
0000
0301
0000
1001
0000
1000
0000
0001
1000
0100
0020
0000
0230
0000
1300
,
0200
0000
0301
0000
1100
0000
0100
0000
0010
0001
1000
0020
0000
0001
0000
0130
,
0010
0000
1000
0000
0001
0000
0000
0000
1000
0002
0000
0020
0030
0000
1003
0000
,
0001
0000
1001
0001
0200
0010
0302
2003
,
0100
3002
0103
0020
0130
0020
1030
0002
,
0103
0000
0000
0000
0000
0000
0010
0000
0000
1000
0000
0000
0001
0000
0000
0000
0010
0000
0000
0000
0001
0000
0000
0000
2000
0000
0000
0000
0000
0000
0100
0000
0000
0000
0000
0000
3002
0000
0000
0000
0000
0000
0203
0000
0000
0000
0000
0000
,
0320
1000
0230
0001
0320
2030
0001
3002
,
0023
0230
0310
0000
0020
0031
0020
1030
,
0020
0032
1003
0002
0013
0200
0000
0000
,
0310
0000
0000
0000
0100
0000
0000
0000
1000
0000
0000
0000
0002
0000
0000
0000
0000
0000
0013
0000
0000
0000
0000
0000
0200
0000
0000
0000
0000
0000
1300
0000
0000
0000
0000
0000
0100
0000
0000
0010
0000
0000
0002
0000
0000
0000
0000
0000
,
1003
0010
1001
0001
0010
0100
1000
0001
,
0010
0000
0000
0000
0100
0000
0000
0000
1100
0000
0000
0000
0000
0000
0000
0000
0100
0000
0000
0000
0010
0001
1000
0000
0000
0000
0000
0000
0001
0000
0000
0000
,
0000
1000
0010
0000
0100
0000
0000
0000
0001
1000
0000
0001
0020
0000
0000
0000
,
0030
0000
0100
0000
1001
0000
0000
0000
1000
0000
0000
0010
0000
0000
0100
0000
,
0000
0001
0010
0000
0100
0000
0000
0000
0010
0001
0000
1000
0000
0000
0001
0000
,
0100
0000
0000
0000
0000
0000
0000
0000
1010
0000
0000
0000
0000
0000
0000
0000
1000
0000
0000
0000
0001
0100
0010
0000
0000
0000
0000
0000
0100
0000
0000
0000
,
0000
0010
1000
0000
0001
0000
0000
0000
0100
0010
0000
1000
0002
0000
0000
0000
,
0003
0000
1000
0000
0110
0000
0000
0000
0010
0000
0000
0001
0000
0000
1000
0000
,
0000
0100
0010
0000
0001
0000
0000
0000
0001
0100
0000
0010
0000
0000
1000
0000
,
0001
0000
0000
0000
;

//---------------dance-single - ----------------
#NOTEDATA:;
#CHARTNAME:;
#STEPSTYPE:dance-single;
#DESCRIPTION:;
#CHARTSTYLE:;
#DIFFICULTY:Medium;
#METER:5;
#RADARVALUES:0.343551,0.335805,0.262348,0.148664,0.043725,228.000000,30.000000,17.000000,0.000000,0.000000,0.000000,0.000000,0.000000,0.343551,0.335805,0.262348,0.148664,0.043725,228.000000,30.000000,17.000000,0.000000,0.000000,0.000000,0.000000,0.000000;
#CREDIT:;
#NOTES:
1001
0000
0000
0000
,
0001
0000
1000
1000
0000
0100
1000
1000
,
0100
0000
0010
0010
0000
0001
0010
0010
,
0001
0000
1000
1000
0000
0001
0100
0100
,
0001
0000
1000
1000
0000
0100
1000
0010
,
0100
0000
0010
0000
1000
0000
0001
0010
,
1000
0000
0010
0000
0100
0000
1000
0100
,
0001
0100
0010
0001
0000
0001
0010
0100
,
0010
0001
1000
0010
0000
1000
0010
0100
,
0001
0000
0000
1000
0000
0000
0010
0000
0000
0000
0000
0000
0000
0000
0000
0000
,
1000
0000
0000
1000
0000
0000
0001
0000
0000
0000
0000
0000
0000
0000
0000
0000
,
0010
0000
0000
0100
0000
0000
1000
0000
0000
0000
0000
0000
0000
0000
0000
0000
,
0100
0000
0000
0100
0000
0000
0010
0000
0000
0000
0000
0000
0000
0000
0000
0000
,
1001
0101
1001
1100
,
0110
0000
0011
0000
1100
0000
0000
0001
,
1000
0100
0001
0100
0010
0001
1000
0010
,
1001
0000
0110
0000
0010
1000
0010
0000
,
0101
0000
1001
0000
0001
0010
0001
0000
,
0110
0000
1100
0000
0100
0010
0100
0000
,
0011
0120
0130
2100
,
3001
0000
1001
0000
0001
0100
0010
0000
,
1010
0000
0110
0000
0010
1000
0001
0000
,
0011
0000
0110
0000
0100
1000
0010
0000
,
0110
0000
0000
0000
1001
0000
0000
0000
1000
0000
0000
0010
0000
0000
0100
0000
,
0001
0000
1001
0000
0001
1000
0020
0000
,
1000
0000
0130
0000
0100
0001
2000
0000
,
0100
0000
3010
0000
0100
0010
2000
0000
,
0001
3100
1100
0100
,
1002
0000
0103
0000
0001
0010
0100
0000
,
0020
0000
0130
0000
0010
0001
2000
0000
,
0010
0000
3001
0000
0001
0100
0010
0000
,
2000
0000
0000
0000
3010
0000
0000
0000
0100
0000
0000
0010
0000
0000
1000
0000
,
0001
0000
1001
0000
0001
0000
1000
0100
,
0000
0001
0000
0100
0000
0010
0000
0001
,
0000
1000
0020
0000
0230
0000
0301
1000
,
0010
0000
1000
0000
0001
1000
0000
0100
,
0010
0001
1000
0000
0001
0010
1000
0010
,
0100
1000
0000
0100
0000
2000
0000
0000
,
3100
1000
0020
0000
0230
0000
0301
2000
,
0000
3010
0000
0000
0000
0000
0000
0000
,
0000
0000
1001
0000
0001
1000
0000
0100
,
0000
1000
0010
0000
0100
0000
0020
0000
,
0030
0000
0000
0000
0100
0000
0000
0000
0001
0000
0000
1000
0000
0000
0100
0000
,
0000
0000
1000
0000
0010
0000
0000
0000
0100
0000
0000
0001
0000
0000
1000
0000
,
0100
0000
1001
0000
0001
1000
0000
0010
,
0000
0100
0010
0000
1000
0000
0020
0000
,
0030
0000
0000
0000
0100
0000
0000
0000
0001
0000
0000
0010
0000
0000
0100
0000
,
0000
0000
1000
0000
0100
0000
0000
0000
1000
0000
0000
0010
0000
0000
0100
0000
,
0001
0000
0000
0000
;

//---------------dance-single - ----------------
#NOTEDATA:;
#CHARTNAME:;
#STEPSTYPE:dance-single;
#DESCRIPTION:;
#CHARTSTYLE:;
#DIFFICULTY:Easy;
#METER:3;
#RADARVALUES:0.209878,0.230866,0.139919,0.087449,0.000000,142.000000,16.000000,10.000000,0.000000,0.000000,0.000000,0.000000,0.000000,0.209878,0.230866,0.139919,0.087449,0.000000,142.000000,16.000000,10.000000,0.000000,0.000000,0.000000,0.000000,0.000000;
#CREDIT:;
#NOTES:
1001
0000
0000
0000
,
0001
0100
0000
0001
,
1000
0100
0000
1000
,
1000
0010
0000
1000
,
0001
0010
0000
0010
,
0100
0100
0100
0100
,
1000
1000
1000
1000
,
0010
0100
0000
0010
,
0100
0001
0000
1000
,
0002
0000
0003
0000
,
2000
0000
3000
0000
,
0020
0000
0030
0000
,
0200
0000
0300
0000
,
0010
1000
0001
0010
,
0100
0010
0001
0000
,
1000
0001
0100
0010
,
1001
1001
0001
1000
,
0100
1001
1000
0001
,
0100
1001
1000
0100
,
1000
0020
0030
0200
,
0300
1001
0001
0010
,
0100
1001
1000
0100
,
0010
1001
0001
0010
,
0100
1001
0000
0000
,
0000
1001
0001
0100
,
1000
0100
0010
1000
,
0002
1003
0100
0001
,
0100
0110
0100
0110
,
0020
0031
1000
0010
,
0001
0010
0100
0010
,
1000
0100
0001
0100
,
0010
1001
0000
0000
,
0000
0001
1000
0010
,
1000
0100
1000
0010
,
0100
0002
0023
0130
,
0010
0001
0100
1000
,
0100
0010
1000
0010
,
0001
0010
0100
0001
,
1000
0100
0010
0001
,
1000
1001
0000
0000
,
0000
0110
0000
0000
,
0000
0100
0000
0001
,
0000
1000
0000
0000
,
0000
0100
0000
0010
,
0000
1001
0000
0000
,
0000
0001
0000
0010
,
0000
0001
0000
1000
,
0000
0100
0000
0010
,
0001
0000
0000
0000
;

//---------------dance-single - ----------------
#NOTEDATA:;
#CHARTNAME:;
#STEPSTYPE:dance-single;
#DESCRIPTION:;
#CHARTSTYLE:;
#DIFFICULTY:Beginner;
#METER:1;
#RADARVALUES:0.106188,0.144619,0.078704,0.000000,0.000000,76.000000,9.000000,0.000000,0.000000,0.000000,0.000000,0.000000,0.000000,0.106188,0.144619,0.078704,0.000000,0.000000,76.000000,9.000000,0.000000,0.000000,0.000000,0.000000,0.000000,0.000000;
#CREDIT:;
#NOTES:
// measure 0
0000
0000
0000
0000
,  // measure 1
0010
0000
0000
0000
,  // measure 2
0100
0000
0000
0000
,  // measure 3
0010
0000
0000
0000
,  // measure 4
0010
0000
0000
0000
,  // measure 5
1000
0000
1000
0000
,  // measure 6
0100
0000
0100
0000
,  // measure 7
0010
0000
0010
0000
,  // measure 8
0001
0000
0001
1000
,  // measure 9
1001
0000
0000
0000
,  // measure 10
0010
0000
0000
0000
,  // measure 11
0100
0000
0000
0000
,  // measure 12
0001
0000
0000
0000
,  // measure 13
1000
0000
0001
0000
,  // measure 14
1000
1000
1000
0000
,  // measure 15
1001
0000
0110
0000
,  // measure 16
1001
0001
1000
0000
,  // measure 17
0000
1000
1000
0000
,  // measure 18
0000
0010
0100
0000
,  // measure 19
0000
1001
0000
0010
,  // measure 20
0000
0100
0010
0000
,  // measure 21
0000
0100
0001
0000
,  // measure 22
0000
1000
0001
0000
,  // measure 23
0000
0100
0000
0000
,  // measure 24
0000
0010
0100
0000
,  // measure 25
0000
0010
1000
0000
,  // measure 26
0000
0001
0100
0000
,  // measure 27
0000
0110
0000
0000
,  // measure 28
1001
0001
1000
0000
,  // measure 29
0000
0010
1000
0000
,  // measure 30
0000
0100
0001
0000
,  // measure 31
0000
1001
0000
0000
,  // measure 32
0000
0000
1000
0000
,  // measure 33
0000
0001
0000
0001
,  // measure 34
0000
0100
0000
0010
,  // measure 35
0010
0100
0000
0000
,  // measure 36
0001
0000
1000
0000
,  // measure 37
0000
0001
0000
0000
,  // measure 38
0000
0100
0000
0010
,  // measure 39
0000
1001
0000
0000
,  // measure 40
0000
0010
0000
0000
,  // measure 41
0000
0100
0000
0000
,  // measure 42
0000
0001
0000
0000
,  // measure 43
0000
1000
0000
0000
,  // measure 44
0000
0001
0000
0000
,  // measure 45
0000
0100
0000
0000
,  // measure 46
0000
0001
0000
0000
,  // measure 47
0000
1000
0000
0000
;
