#TITLE:Dragon Pirates;
#SUBTITLE:;
#ARTIST:Tut Tut Child;
#TITLETRANSLIT:;
#SUBTITLETRANSLIT:;
#ARTISTTRANSLIT:;
#GENRE:;
#CREDIT:;
#BANNER:Dragon Pirates.png;
#BACKGROUND:Dragon Pirates-bg.png;
#LYRICSPATH:;
#CDTITLE:;
#MUSIC:Dragon Pirates.mp3;
#OFFSET:-0.043000;
#SAMPLESTART:11.077482;
#SAMPLELENGTH:11.034481;
#SELECTABLE:YES;
#BPMS:0.000000=174.000000
,164.000000=185.000000
,172.000000=194.000000
,180.000000=204.000000
,184.000000=214.000000
,188.000000=220.000000
,256.000000=210.000000
,258.000000=175.000000
,260.000000=140.000000
,263.000000=135.000000
,264.000000=140.000000
;
#STOPS:
;
#BGCHANGES:;
#KEYSOUNDS:;
#ATTACKS:;

//---------------dance-single - ----------------
#NOTES:
     dance-single:
     :
     Hard:
     11:
     0.679123,0.752315,0.182548,0.327066,0.889923,625.000000,601.000000,24.000000,43.000000,0.000000,0.000000,0.679123,0.752315,0.182548,0.327066,0.889923,625.000000,601.000000,24.000000,43.000000,0.000000,0.000000:
// measure 0
0000
0000
0000
0000
,  // measure 1
0000
0000
0000
0000
,  // measure 2
0000
0000
0000
0000
,  // measure 3
0000
0000
0000
0000
,  // measure 4
1000
0000
0000
0001
0000
0100
0010
0000
0000
0010
0000
0000
,  // measure 5
1000
0000
0000
0001
0000
0010
0100
0000
0000
0100
0000
0000
,  // measure 6
1000
0000
0001
0100
0000
0010
1000
0000
1000
0100
0000
0010
,  // measure 7
0001
0100
0010
1000
0001
0100
0020
0000
0000
0030
0000
0000
,  // measure 8
1001
0000
0000
0001
0000
1000
0100
0000
0000
0100
0000
0000
,  // measure 9
1000
0000
0010
0100
0000
0001
0010
0000
0001
1000
0000
1000
,  // measure 10
0010
0000
0000
0100
0001
1000
0100
0000
0010
0001
0000
0010
,  // measure 11
0100
0000
0010
0001
0000
0001
1000
0000
1000
0010
0100
0001
,  // measure 12
1000
0000
0000
1000
0000
0001
0010
0000
0000
0010
0000
0000
,  // measure 13
0100
0000
1000
0010
0000
0100
0001
0000
0001
1000
0000
1000
,  // measure 14
0100
0000
0000
0100
0010
0001
1000
0000
0010
1000
0000
1000
,  // measure 15
0001
0000
0100
1000
0000
1000
0200
0000
0000
0302
0000
0000
,  // measure 16
0013
0000
0000
0010
0000
0100
1000
0000
0000
1000
0000
0000
,  // measure 17
0010
0000
0100
0001
0000
0010
0100
0000
1000
0100
0000
0100
,  // measure 18
0010
0000
0000
0100
0010
0001
1000
0000
0001
0100
0000
0100
,  // measure 19
0010
0000
1000
0010
0000
0100
0002
0000
2003
3002
0023
0230
,  // measure 20
1300
0000
0000
1000
0000
0001
0010
0000
0000
0010
0000
0000
,  // measure 21
0100
0000
1000
0010
0000
0100
0001
0000
0001
1000
0000
1000
,  // measure 22
0100
0000
0000
0010
0001
0100
0010
0000
0100
0001
0000
1000
,  // measure 23
0200
0000
0310
0002
0000
1003
0001
1000
0001
0020
0000
0030
,  // measure 24
0101
0000
0000
1001
0000
0000
1000
0000
0001
0100
0000
0010
,  // measure 25
1000
0000
1000
0001
0000
0001
0010
0000
0010
0100
0000
0100
,  // measure 26
1000
0000
0001
0100
0000
0000
0101
0000
0000
1010
0000
0000
,  // measure 27
1000
1000
0001
0010
0010
0100
1100
0000
0000
0011
0000
0000
,  // measure 28
0101
0000
0000
1010
0000
0000
1000
0000
0001
0010
0000
0010
,  // measure 29
0100
0000
0100
1000
0000
1000
0001
0000
0001
0100
0000
0100
,  // measure 30
0020
0030
0110
1010
,  // measure 31
1000
1000
0001
0010
0010
0100
1100
0000
0000
1001
0000
0000
,  // measure 32
0101
0000
0000
1001
0000
0000
1000
0000
0010
0100
0000
0001
,  // measure 33
0010
0000
0100
1000
0000
1000
0001
0000
0001
0100
0000
0100
,  // measure 34
0010
0000
0100
0001
0000
0000
0101
0000
0000
1010
0000
0000
,  // measure 35
1000
1000
0001
0010
0010
0001
1001
0000
0000
1010
0000
0000
,  // measure 36
1001
0000
0000
0011
0000
0000
0010
0000
0100
1000
0000
1000
,  // measure 37
0010
0000
0010
0100
0000
0100
0001
0000
0001
1000
0000
1000
,  // measure 38
0200
0300
0110
0011
,  // measure 39
0001
0100
0010
1000
0100
1000
0010
1000
0100
0010
0001
0010
,  // measure 40
0100
0000
0000
1000
0000
0001
0010
0000
0000
0010
0000
0000
,  // measure 41
0000
0000
0000
0000
,  // measure 42
0001
0000
0000
1000
0000
0001
0100
0000
0000
0100
0000
0000
,  // measure 43
0000
0000
0000
0000
,  // measure 44
0001
0000
0000
1000
0000
0100
0010
0000
0000
0010
0000
0000
,  // measure 45
0001
0000
0000
1000
0000
0001
0010
0000
0000
0010
0000
0000
,  // measure 46
0001
0000
0000
0001
0000
1000
0010
0000
0000
0010
0000
0100
,  // measure 47
0002
0000
0013
0000
,  // measure 48
0100
0000
0000
1000
0000
0010
0100
0000
0000
0001
0000
0000
,  // measure 49
1000
0000
0001
1000
0000
0010
0100
0000
0001
0010
0000
0010
,  // measure 50
0100
0000
0000
1000
0010
0100
0001
0000
1000
0001
0000
0001
,  // measure 51
0010
0000
0100
1000
0000
1000
0010
0000
0010
0100
0001
1000
,  // measure 52
0100
0000
0000
0100
0000
0010
0001
0000
0000
0001
0000
0000
,  // measure 53
1000
0000
0010
1000
0000
0001
0100
0000
0001
1000
0000
1000
,  // measure 54
0100
0000
0000
0010
0001
0100
0010
0000
0100
0001
0000
0001
,  // measure 55
2000
0000
3010
0200
0000
0301
2000
0000
0000
0000
0000
0000
,  // measure 56
3100
0000
0000
0100
0000
1000
0010
0000
0000
0010
0000
0000
,  // measure 57
0100
0000
0001
0100
0000
0010
1000
0000
1000
0001
0000
0001
,  // measure 58
0010
0000
0000
0100
0010
0001
1000
0000
0001
1000
0000
1000
,  // measure 59
0010
0000
0100
0001
0000
0001
0010
0000
0100
0010
0001
1000
,  // measure 60
0001
0000
0000
0001
0000
1000
0010
0000
0000
0010
0000
0000
,  // measure 61
0100
0000
0001
0100
0000
0010
1000
0000
1000
0100
0000
0100
,  // measure 62
0010
0000
0000
0100
0010
0001
1000
0000
0001
1000
0000
1000
,  // measure 63
0020
0000
0130
0002
0000
1003
0010
0100
0010
0100
0000
0000
,  // measure 64
0001
0000
0000
0100
0000
0100
0010
0000
0000
0100
0000
0001
,  // measure 65
0010
0000
0000
0100
0000
0000
1000
0100
0010
0001
0000
0000
,  // measure 66
1001
0000
0000
0000
0001
0100
0001
1000
0100
0000
1000
0000
0001
0000
0000
0000
,  // measure 67
1000
0000
0010
0000
0100
0000
0001
1000
0001
0000
0010
0000
0001
0000
1000
0000
,  // measure 68
0100
0000
0000
0000
1000
0010
0100
0001
0010
0000
1000
0000
0010
0000
0100
0000
,  // measure 69
1000
0000
0001
0000
0100
0000
0001
0000
0010
0000
0100
0000
1000
0100
0010
0000
,  // measure 70
0100
0000
0000
0000
1000
0001
0100
0001
0010
0000
0001
0000
1000
0000
0000
0000
,  // measure 71
0001
0000
0100
0000
0010
0000
1000
0010
1000
0000
0100
0000
1000
0000
0001
0000
,  // measure 72
0100
0000
0000
0000
0010
0100
0001
1000
0100
0000
0001
0000
0100
0000
1000
0000
,  // measure 73
0001
0000
0100
0000
0010
1000
0001
1000
0200
0000
0000
0000
0320
0000
0000
0000
,  // measure 74
0032
0000
0000
0000
2003
0000
0000
0000
3010
1000
0001
0100
0002
0000
0023
0000
,  // measure 75
0130
1000
0100
1000
0002
0000
0203
0000
0310
0100
0010
0100
0002
0000
2003
0000
,  // measure 76
3100
1000
0001
0000
0200
0000
0302
0000
,  // measure 77
0013
0000
0001
1000
0001
0000
1000
0000
0010
0000
0100
0000
0002
0000
0000
0000
0000
0000
2003
0000
0000
0000
0000
0000
,  // measure 78
3002
0000
0000
0000
2003
0000
0000
0000
3010
0100
0001
1000
0200
0000
2300
0000
,  // measure 79
3010
0100
0010
0100
0002
0000
0023
0000
0130
1000
0100
1000
0002
0000
2003
0000
,  // measure 80
3010
0000
0200
0302
,  // measure 81
0013
0100
1000
0010
0100
0001
1000
0100
0010
0001
0010
0100
,  // measure 82
0010
0000
0000
0010
0000
0001
1000
0000
0000
1000
0000
0010
,  // measure 83
0100
0000
0000
0001
0000
0000
1000
0000
0001
0100
0000
0010
,  // measure 84
1000
0000
0000
0100
0000
0100
0010
0000
0000
0001
0000
1000
,  // measure 85
0001
0100
0010
1000
0001
0010
0001
0000
0010
0100
1000
0001
,  // measure 86
1000
0000
0000
0001
0000
0100
0001
0000
0000
0001
0000
0010
,  // measure 87
0100
0000
0000
1000
0000
0000
0100
0000
0100
1000
0000
1000
,  // measure 88
0010
0000
0000
0100
0000
0100
0001
0000
0000
0010
0000
0100
,  // measure 89
0010
0001
0100
1000
0100
0001
0010
1000
0010
0001
1000
0001
;

//---------------dance-single - ----------------
#NOTES:
     dance-single:
     :
     Medium:
     8:
     0.455284,0.616101,0.296641,0.251004,0.117896,419.000000,380.000000,39.000000,33.000000,0.000000,0.000000,0.455284,0.616101,0.296641,0.251004,0.117896,419.000000,380.000000,39.000000,33.000000,0.000000,0.000000:
0000
0000
0000
0000
,
0000
0000
0000
0000
,
0000
0000
0000
0000
,
0000
0000
0000
0000
,
1000
0001
0010
0010
,
0001
1000
0010
0010
,
1000
0010
1000
0010
,
0200
0302
0013
1100
,
1001
0001
0010
0010
,
0001
1000
0100
1000
,
0010
0000
0000
0100
0010
1000
0001
0000
0000
1000
0000
0000
,
0010
0000
0000
1000
0000
0000
0001
0000
0000
0010
0100
1000
,
0001
0010
0001
0001
,
1000
0010
1000
0100
,
0010
0000
0000
0100
0010
0001
1000
0000
0000
0010
0000
0000
,
0100
0001
0011
1010
,
1001
1000
0010
0010
,
1000
0100
1000
0001
,
0010
0000
0000
0100
0010
0001
1000
0000
0000
0010
0000
0000
,
1000
0000
0000
0100
0000
0000
0010
0000
0001
0010
0100
1000
,
0001
0100
0010
0010
,
0100
0001
0010
0001
,
1000
0000
0000
0100
1000
0010
0100
0000
0000
0001
0000
0000
,
1000
0000
0000
0001
0000
0000
0001
0100
0010
1000
0000
0000
,
1010
1100
1000
0001
,
0010
0001
0100
0001
,
1000
0010
1001
0110
,
0001
0100
0001
0100
0001
0100
0001
0000
0000
0101
0000
0000
,
0011
1100
0100
1000
,
0010
0100
0010
1000
,
0002
0000
0000
0003
1100
0000
0011
0000
,
1000
0010
1000
0010
1000
0010
1000
0000
0000
0101
0000
0000
,
0011
1100
0100
1000
,
0100
0010
0100
1000
,
0001
1000
1001
0101
,
0001
0100
0010
1000
0100
0010
0001
0000
0000
1010
0000
0000
,
0011
1100
0100
1000
,
0010
0100
0001
1000
,
0020
0000
0000
0000
0000
0030
0110
0000
0000
1001
0000
0000
,
0120
0000
0000
0000
,
1030
0001
1000
1000
,
0000
0000
0000
0000
,
1000
0001
1000
1000
,
0000
0000
0000
0000
,
1000
0001
1000
1000
,
1000
0001
1000
1000
,
0010
0100
0010
0100
,
0020
0000
0030
0000
,
1000
0010
0100
0100
,
0010
1000
0010
0100
,
0001
0020
0130
0010
,
0001
1000
0001
0200
,
0301
0010
0100
0100
,
0010
0001
1000
0010
,
1000
0002
0103
0001
,
0010
0001
2200
0300
,
3100
1000
0010
0010
,
0100
0001
1000
0100
,
1000
0020
1030
0010
,
0100
0001
0010
0200
,
1300
0100
1000
1000
,
0100
1000
0010
0100
,
0001
0020
0130
0010
,
0001
0000
0000
1000
0000
0000
0010
0100
0010
0100
0000
0000
,
2002
0000
0000
0000
,
0000
0000
0000
3003
0000
0000
1000
0010
0100
1001
0000
0000
,
0001
0000
0100
0010
1000
0100
0010
0000
,
0100
0010
0001
0100
1000
0100
0010
1000
,
0010
0000
0100
0010
1000
0001
0010
1000
,
0010
0100
1000
0100
0001
0100
1000
0010
,
0100
0000
0001
0100
0001
1000
0100
0000
,
1000
0100
1000
0010
0100
0001
0010
0100
,
0010
0000
0001
0010
1000
0010
0001
0100
,
0001
1000
0100
0010
0001
0000
0100
0000
,
0110
0000
1001
0000
0001
0100
0020
0130
,
0100
0001
2000
3100
0100
1000
0020
0130
,
0100
0010
1000
0000
1001
0000
1010
0000
,
0102
0013
0101
1010
,
1100
0000
1010
0000
0010
1000
0200
2300
,
3100
0010
0002
0203
0301
0010
0200
0320
,
0230
0000
0310
1001
,
0220
0000
0000
0330
,
0001
1000
0010
1000
,
0010
1000
0100
0100
,
1000
0001
0010
0001
,
1000
0100
0010
0001
,
1000
0000
0001
0000
,
1000
0000
0010
0000
,
0100
0000
0001
0000
,
2000
3200
0320
0032
,
0003
0000
0000
0000
;

//---------------dance-single - ----------------
#NOTES:
     dance-single:
     :
     Easy:
     5:
     0.274909,0.513417,0.190155,0.159730,0.000000,253.000000,228.000000,25.000000,21.000000,0.000000,0.000000,0.274909,0.513417,0.190155,0.159730,0.000000,253.000000,228.000000,25.000000,21.000000,0.000000,0.000000:
0000
0000
0000
0000
,
0000
0000
0000
0000
,
0000
0000
0000
0000
,
0000
0000
0000
0000
,
1000
0000
0000
0000
,
0001
0000
0000
0000
,
1000
0000
0001
0000
,
0100
0010
0220
0330
,
0010
0000
1000
0000
,
0010
0100
0010
0000
,
0100
0000
0001
0000
,
0010
0001
0010
0100
,
1000
0000
0100
0000
,
1000
0001
1000
0000
,
0010
0000
1000
0000
,
0010
0100
0101
0101
,
0001
0000
1000
0000
,
0100
1000
0100
0000
,
1000
0000
0010
0000
,
0100
0010
2000
3002
,
0103
0000
0001
0000
,
0010
0100
0010
0000
,
0100
0000
1000
0000
,
0001
1000
0110
0110
,
0100
0010
0100
0000
,
0001
0000
1000
0000
,
0100
1000
0001
0001
,
1000
1000
0001
1000
,
0001
1000
0010
0000
,
0100
0000
0010
0000
,
2000
0000
3001
0010
,
0001
0001
0010
0001
,
0010
0001
0010
0000
,
0100
0000
1000
0000
,
0100
0000
1000
0001
,
1000
1000
0001
1000
,
0001
1000
0010
0000
,
1000
0000
0010
0000
,
0200
0000
0310
1000
,
0202
0000
0000
0303
,
1001
0000
0000
0000
,
0000
0000
0000
0000
,
1001
0000
0000
0000
,
0000
0000
0000
0000
,
1001
0000
0000
0000
,
1001
0000
0000
0000
,
1001
0000
0110
0000
,
2002
0000
3003
0000
,
0001
0000
0100
0000
,
0010
1000
0010
0000
,
1000
0000
0100
0000
,
0010
0001
0010
0010
,
0100
0000
0010
0000
,
0001
1000
0001
0000
,
1000
0000
0010
0000
,
0100
0010
2000
0000
,
3001
0000
0010
0000
,
0001
0100
0010
0000
,
0100
0000
0010
0000
,
1000
0000
0010
0100
,
0001
0000
1000
0000
,
0100
1000
0010
0000
,
0100
0000
0010
0000
,
0100
0010
2000
0000
,
3001
0000
1000
0000
,
0100
0000
0020
0030
,
0100
0010
0001
0001
,
0010
0001
0100
1000
,
0100
0010
1000
0010
,
0100
0001
0010
0100
,
0010
0001
1000
1000
,
0001
1000
0010
1000
,
0001
0100
0001
0010
,
0001
0100
1000
0100
,
0110
0110
0010
1001
,
0100
1001
0010
1001
,
0100
0010
0100
0000
0110
0000
1001
0000
,
0020
2030
3200
2300
,
3200
2300
3100
0011
,
0100
1010
0100
1001
,
0102
0000
0103
0010
,
1001
0000
0000
0000
,
1000
0000
0001
0000
,
0010
0000
0100
0010
,
0001
0000
1000
0000
,
0010
0100
0100
0010
,
0100
0000
0010
0000
,
1000
0000
0001
0000
,
0010
0000
0100
0000
,
2000
0000
0000
0000
,
3000
0000
0000
0000
;

//---------------dance-single - ----------------
#NOTES:
     dance-single:
     :
     Beginner:
     2:
     0.144517,0.304628,0.030425,0.000000,0.000000,133.000000,129.000000,4.000000,0.000000,0.000000,0.000000,0.144517,0.304628,0.030425,0.000000,0.000000,133.000000,129.000000,4.000000,0.000000,0.000000,0.000000:
0000
0000
0000
0000
,
0000
0000
0000
0000
,
0000
0000
0000
0000
,
0000
0000
0000
0000
,
1000
0000
0000
0000
,
1000
0000
0000
0000
,
1000
0000
0001
0000
,
0010
0010
0010
0000
,
1001
0000
0000
0000
,
1000
0000
0000
0000
,
0010
0000
0000
0000
,
1000
0000
0000
0000
,
0100
0000
0000
0000
,
1000
0000
0000
0000
,
0001
0000
0000
0000
,
0100
0000
0010
0000
,
0100
0000
0000
0000
,
0001
0000
0000
0000
,
1000
0000
0000
0000
,
0100
0000
1000
0000
,
0001
0000
0000
0000
,
0100
0000
0000
0000
,
0010
0000
0000
0000
,
1000
0000
0001
0000
,
0100
0100
0000
0000
,
0010
0000
1000
0000
,
0001
0000
1000
1000
,
0000
0000
1000
1000
,
0001
0001
1000
0000
,
0000
0000
0010
0000
,
0100
0000
0010
0000
,
1000
1000
1000
0000
,
0001
0001
1000
0000
,
0010
0000
0100
0000
,
0001
0000
1000
1000
,
0010
0010
0100
0100
,
0010
0010
1000
0000
,
0001
0000
0100
0000
,
0010
0000
1000
1000
,
0001
0000
0000
0000
,
1001
0000
0000
0000
,
0000
0000
0000
0000
,
0010
0000
0000
0000
,
0000
0000
0000
0000
,
0100
0000
0000
0000
,
0010
0000
0000
0000
,
1000
0000
0001
0000
,
1001
0000
0000
0000
,
1000
0000
0000
0000
,
0001
0000
0000
0000
,
0100
0000
0000
0000
,
0010
0000
0000
0000
,
1000
0000
0000
0000
,
0010
0000
0000
0000
,
1000
0000
0000
0000
,
0001
0000
1000
0000
,
0001
0000
0000
0000
,
0100
0000
0000
0000
,
0010
0000
0000
0000
,
1000
0000
1000
0000
,
0001
0000
0000
0000
,
0010
0000
0000
0000
,
0001
0000
0000
0000
,
1000
0000
0001
0000
,
0100
0000
0000
0000
,
0010
0000
0000
0000
,
1000
0000
0000
0000
,
0001
0000
0000
0000
,
0100
0000
0000
0000
,
0001
0000
1000
0000
,
0010
0000
0000
0000
,
1000
0000
0100
0000
,
1000
0000
0000
0000
,
0001
0000
1000
0000
,
0010
0010
0000
0010
,
0000
0100
0000
0010
,
0000
0000
1000
1000
,
1001
0000
0000
0000
,
0001
0001
0100
0000
,
0010
0000
1000
0000
,
0001
0000
1000
1000
,
0010
0000
0000
0000
,
1000
0000
0000
0000
,
0001
0000
0000
0000
,
0100
0000
0000
0000
,
0010
0000
0000
0000
,
1000
0000
0000
0000
,
0010
0000
0000
0000
,
0100
0000
0000
0000
,
0001
0000
0000
0000
;
