#VERSION:0.83;
#TITLE:Doppelganger;
#SUBTITLE:;
#ARTIST:LeaF;
#TITLETRANSLIT:;
#SUBTITLETRANSLIT:;
#ARTISTTRANSLIT:;
#GENRE:;
#ORIGIN:;
#CREDIT:;
#BANNER:Doppelganger.png;
#BACKGROUND:Doppelganger-bg.png;
#PREVIEWVID:;
#JACKET:Doppelganger-jacket.png;
#CDIMAGE:;
#DISCIMAGE:;
#LYRICSPATH:;
#CDTITLE:;
#MUSIC:Doppelganger.mp3;
#OFFSET:-4.285000;
#SAMPLESTART:0.820000;
#SAMPLELENGTH:12.000000;
#SELECTABLE:YES;
#BPMS:0.000=280.000,
47.000=140.000,
48.000=280.000,
54.000=140.000,
57.000=280.000,
64.000=140.000,
89.500=280.000,
97.500=140.000,
98.000=280.000,
98.500=140.000,
99.000=280.000,
99.500=140.000,
100.000=280.000,
100.500=140.000,
101.000=280.000,
101.500=140.000,
103.000=280.000,
106.000=140.000,
106.500=280.000,
107.000=140.000,
107.500=280.000,
108.000=140.000,
108.500=280.000,
109.000=140.000,
109.500=280.000,
176.000=140.000,
176.500=280.000,
177.500=140.000,
178.000=280.000,
199.000=140.000,
201.000=280.000,
203.000=140.000,
204.000=280.000,
206.000=140.000,
207.000=280.000,
208.000=140.000,
208.500=280.000,
210.000=140.000,
210.500=280.000,
220.000=140.000,
225.000=280.000,
277.000=140.000,
291.000=280.000,
303.000=140.000,
305.000=280.000,
314.000=140.000,
315.000=280.000,
316.000=140.000,
317.000=280.000,
321.000=140.000,
322.000=280.000,
340.000=140.000,
342.000=280.000,
353.000=140.000,
354.500=280.000,
358.000=140.000,
359.500=280.000,
406.000=35.000,
410.000=140.000,
424.000=280.000,
432.000=420.000,
551.000=5.000,
551.250=9999.000,
564.000=45.000,
586.000=280.000;
#STOPS:30.000=0.214,
134.000=0.107,
134.500=0.107,
146.500=0.107,
147.500=0.107,
148.000=0.107,
148.500=0.107,
163.000=0.107,
163.500=0.107,
229.000=0.214,
240.000=0.107,
240.500=0.107,
241.000=0.107,
241.500=0.107,
242.000=0.214,
366.000=0.214,
368.000=0.107,
379.000=0.214,
379.500=0.214,
392.500=0.321,
397.500=0.214,
402.000=0.214,
550.500=0.571;
#DELAYS:;
#WARPS:;
#TIMESIGNATURES:0.000=4=4;
#TICKCOUNTS:0.000=4;
#COMBOS:0.000=1;
#SPEEDS:0.000=1.000=0.000=0;
#SCROLLS:0.000=1.000;
#FAKES:;
#LABELS:0.000=Song Start;
#BGCHANGES:;
#KEYSOUNDS:;
#ATTACKS:
;

//---------------dance-single - ----------------
#NOTEDATA:;
#CHARTNAME:;
#STEPSTYPE:dance-single;
#DESCRIPTION:;
#CHARTSTYLE:;
#DIFFICULTY:Hard;
#METER:14;
#RADARVALUES:0.935909,1.507158,0.675825,0.668929,0.610311,950.000000,852.000000,98.000000,97.000000,0.000000,0.000000,0.000000,0.000000,0.000000,0.935909,1.507158,0.675825,0.668929,0.610311,950.000000,852.000000,98.000000,97.000000,0.000000,0.000000,0.000000,0.000000,0.000000;
#CREDIT:;
#DISPLAYBPM:0.000000:9999.000000;
#NOTES:
1000
0010
0100
0001
,
0010
0100
1000
0001
,
0100
0010
0100
0000
0100
0001
0000
0100
,
0000
0000
0000
0010
0000
0000
1000
0000
0000
0010
0000
0000
1000
0000
0000
0000
0000
0000
0001
0000
1000
0000
0001
0000
,
1000
0001
0010
0001
,
1000
0100
0010
0001
,
1000
0001
1000
0001
0100
0001
0100
0010
,
1010
0000
0000
0000
0000
0000
0000
0000
0000
0000
0000
0000
0000
0000
0000
0000
0000
0000
0000
0000
0000
0000
0000
0000
0000
0000
0000
0000
0000
0000
0000
0000
0000
0000
0000
0000
0000
0000
0000
0000
0000
0000
0000
0000
0000
0000
0000
0000
0101
0000
0000
0000
0000
0000
0000
0000
0000
0000
0000
0000
0000
0000
0000
0000
0000
0000
0000
0000
0000
0000
0000
0000
0000
0000
0000
0000
0000
0000
0000
0000
0000
0000
0000
0000
0000
0000
0000
0000
0000
0000
0000
0000
0000
0000
0000
0000
2002
3003
0000
0000
0000
0000
0000
0000
0000
0000
0000
0000
0000
0000
0000
0000
0000
0000
0000
0000
0000
0000
0000
0000
0000
0000
0000
0000
0000
0000
0000
0000
0000
0000
0000
0000
0000
0000
0000
0000
0000
0000
0000
0000
0000
0000
0000
0000
1000
0000
0000
0000
0000
0000
0000
0000
0000
0000
0000
0000
0000
0000
0000
0000
0000
0000
0000
0000
0000
0000
0000
0000
0000
0000
0000
0000
0000
0000
0000
0000
0000
0000
0000
0000
0000
0000
0000
0000
0000
0000
0000
0000
0000
0000
0000
0000
,
1100
0011
0101
1010
,
0011
1100
1001
0001
,
0011
1010
1100
0011
,
1100
0101
1001
0201
,
0310
1000
0100
1000
0001
0010
0100
1000
,
0001
0000
1000
0000
1001
0000
0000
0000
0101
0000
0000
0011
0000
0000
1001
0000
,
0000
1100
0000
0000
2002
0000
0000
0000
3003
0000
0000
0000
0002
0000
0000
0000
,
0203
0320
2030
3002
,
1003
0100
1000
0000
0010
0000
0100
0000
0001
0000
0010
0000
0010
0000
0100
0000
,
0010
0001
1000
0000
0010
0000
0100
0000
0100
0000
0001
0000
0100
0010
1000
0000
,
1000
0001
0100
0000
0001
0010
0100
0000
0100
0000
0010
0000
0100
0010
0001
0000
,
0001
0000
1000
0000
1000
0001
0010
0000
0100
0000
0010
0001
0100
0001
1000
0000
,
0100
0010
0100
1000
0001
0100
0010
1000
,
0001
0100
0001
0100
0000
0000
0010
0000
0000
1000
0000
0000
0001
0000
0000
0100
0000
0000
0001
0000
0000
0020
0000
0000
,
0000
0230
0000
1300
0000
0011
0000
0001
,
0100
1000
0100
0001
0100
1000
0100
0000
,
0100
0010
0000
2020
3030
0202
0303
0022
,
0033
2200
3300
2002
0000
3003
2002
3003
,
2020
3030
0202
0303
2002
3003
0022
0033
,
2200
3300
0202
0303
2002
0000
0000
0000
,
0000
0000
0000
0000
,
0000
0000
0000
3003
,
0201
0000
1300
0000
0100
0010
1000
0001
,
0010
0000
0000
0001
0000
0000
1000
0000
0000
0001
0000
0000
0000
0000
0000
1000
0000
0000
0010
0000
0100
0000
0000
0000
,
0001
0010
0100
1000
0001
0001
0010
0100
,
0100
1000
1010
0000
0100
0001
0101
0000
,
0011
0000
0000
0000
0000
0000
0210
0000
0000
0000
0000
0000
1300
0000
0000
0100
0000
0000
1000
0000
0100
0000
0000
0000
,
1000
0000
0000
0001
0000
0000
0100
0000
0001
0000
0000
0000
0100
0000
0000
0010
0000
0000
1000
0000
0001
0000
1000
0000
,
0001
0000
1000
0000
0001
0000
1000
0000
0000
0010
0000
0000
0001
0000
0000
0010
0000
0000
1000
0000
0000
0010
0000
0000
,
0002
0000
0000
0023
0000
0000
0230
0000
0000
0000
0000
0000
0310
0000
0000
0000
0001
0000
1000
0000
0000
0010
0000
0000
,
1000
0000
0010
1000
0000
0000
1000
0001
1000
0000
0001
0000
0100
0000
0001
0000
,
0020
0000
0000
0130
1000
0100
1000
0100
1000
0100
0000
0010
,
0001
0000
0000
0000
0000
0000
1000
0000
0010
0000
0100
0000
0001
0000
0000
1000
0000
0000
1001
0000
0000
0101
0000
0000
,
1002
0000
0013
0000
0100
0010
0001
1000
,
0020
0000
0030
0100
0010
0010
1000
0000
,
0001
0000
0100
0000
0000
0000
1000
0000
0100
0000
0000
0010
0000
0000
0100
0000
,
2000
3000
0000
0202
0303
0000
0022
0033
,
0001
0000
0000
0000
0000
0000
0000
0000
0000
1000
0000
0000
0000
0000
0000
0000
0000
0000
1000
0000
0000
0000
0000
0000
0001
0000
0000
0000
0000
0000
0000
0000
1000
0000
0000
0000
0001
0000
0000
0000
0000
0000
1000
0000
0000
0000
0000
0000
,
0010
0100
0002
0000
0013
0100
1000
0001
,
1000
0010
0100
0001
0010
1000
0000
0010
,
0011
1100
0101
1001
,
1000
0000
0000
0000
0001
0000
0000
0000
0010
0000
0000
0000
0100
0000
1000
0100
,
1000
0000
0001
0000
1000
0000
0000
0000
1000
0000
0000
0000
0100
0000
0010
0001
,
1000
0000
0000
0000
0010
0000
0100
0000
0001
0000
1000
0001
0010
0000
0000
0000
,
0100
0000
0010
0000
0000
0000
0100
0000
1000
0010
0000
0000
0100
0000
0000
0000
,
0001
0000
0100
0010
1000
0000
0001
0000
,
0010
0100
0010
0001
1001
0000
0110
0000
,
1001
0000
0000
0000
0000
0000
1000
0000
0000
0010
0000
0000
1000
0000
0000
0001
0000
0000
0100
0000
0000
0001
0010
0001
,
0010
0100
1100
0000
0011
0000
0101
0000
,
1010
0000
0000
0000
0000
0000
2002
0000
0000
3003
0000
0000
0101
0000
0000
0000
0000
0000
0001
0000
0000
0000
1000
0000
,
0010
0000
0100
0001
0000
0001
0010
0000
0010
0100
0000
0100
,
1000
0000
1000
0010
0000
0010
0100
0000
0100
0001
0000
0001
,
1001
1100
0110
0011
1001
0000
2000
3000
,
0001
1000
1001
1000
0001
0010
0001
0100
,
0010
1000
0100
0000
0010
0001
0000
0001
,
0100
0000
0000
0010
0000
0000
1000
0000
0001
0000
1000
0000
0001
0000
0000
0010
0000
0000
0000
0000
0000
0100
0000
0000
,
2000
0000
0000
3010
0000
0000
0100
0000
0000
0001
0100
0001
,
0100
0010
2000
0000
0000
3001
0020
0000
,
0000
0000
0130
0000
0010
0200
0000
1300
,
0010
0000
0000
0001
0000
0000
1000
0000
0001
0000
0100
0000
0001
0000
0000
1000
0000
0000
0020
0000
0000
0200
0000
0000
,
0000
0000
0000
0330
0000
0000
1001
0000
0000
0000
0000
0000
0101
0000
0000
0000
0000
0000
0001
0000
0100
0000
0000
0000
,
0010
0000
1000
0000
1010
0000
0001
0100
0010
0000
1000
0000
0001
0000
1000
0000
,
0010
0000
1000
0000
0001
0000
1000
0001
1000
0000
0001
0000
0100
0000
0001
0000
,
0010
0000
0001
1000
0001
0000
1000
0100
1000
0000
0001
0100
0001
0000
0010
0000
,
0001
0000
1000
0001
1000
0000
0100
0000
1000
0000
0001
1000
0001
0000
0000
0000
,
1000
0000
0000
0000
0000
0000
0002
0000
0000
0000
0000
0000
0000
0000
0000
0000
0000
0000
1003
0000
0000
0000
0000
0000
0001
0000
0000
0000
1000
0000
0000
0000
0000
0001
0000
0000
1000
0000
0000
0000
0000
0000
0000
0000
0001
0000
0000
0000
,
1000
0100
0020
0000
0032
0000
0103
0010
,
1000
0000
0001
0000
0010
0000
0100
0000
0010
0000
0001
0000
1000
0000
0010
0100
,
0020
0000
0000
0030
0000
0000
2000
0000
0000
3000
0000
0000
0001
0000
0000
0000
0000
0000
0000
0000
0000
0000
0000
0000
1000
0000
0000
0000
0000
0000
0000
0000
0000
0000
0000
0000
0100
0000
0000
0000
0000
0000
0000
0000
0010
0000
0000
0000
,
0001
0000
0000
0000
0010
0000
0000
0000
0001
0000
0000
0000
1000
0000
0000
0000
0000
0000
0000
0000
0000
1000
0000
0000
0000
0000
0000
0000
0000
0000
1000
0000
0000
0000
0000
0000
0001
0000
0000
0000
0000
0000
0100
0000
0000
0000
0000
0000
,
0001
0000
0100
0000
0010
0000
0000
0000
2000
3200
0020
0330
0010
0000
0001
0000
,
2000
3020
0230
0000
0301
0100
0020
0000
,
2030
0000
0000
0000
3001
0010
0100
1000
1001
0000
0000
0000
0110
0000
0000
0000
,
2002
0000
0000
3003
0001
0000
0100
0000
,
0100
0000
0100
0000
0100
0001
0100
0010
,
1000
0010
0100
0001
1002
0000
0000
1003
,
2001
0000
0000
3001
1002
0000
0000
1003
,
1001
0000
0000
0000
0000
0000
0000
0010
0200
0300
0000
0000
0000
0000
0000
0000
2001
0000
0000
0000
0000
0000
0000
0000
0000
0000
0000
0000
3200
0000
0000
0000
,
0000
0000
0320
0000
0130
1000
0010
0100
,
0001
0000
0010
0000
0001
0000
0010
0000
0000
0100
0000
0000
1000
0000
0000
0001
0000
0000
1000
0000
0000
0001
0000
0000
,
0000
0000
0000
0000
1001
0000
0000
0101
0000
0000
1000
0000
0010
0000
0100
0000
,
0001
0000
0020
0000
0000
0000
0030
0000
1100
0000
0000
0101
0000
0000
1100
0000
,
0000
0000
1000
0100
0010
0001
1000
0010
,
0100
0000
0010
0000
0100
0000
0001
0000
0000
0000
0000
0000
1100
0000
0000
1000
0000
0000
0001
0000
0000
0000
0000
0000
,
0011
0010
0100
0000
1000
0001
0000
0100
,
0000
0020
0000
0000
1000
0000
0200
0030
,
0301
1000
0001
0000
0101
0000
1010
1010
,
1000
0010
0000
1000
0200
0000
0000
0000
,
0000
0000
0000
0000
0000
0000
0000
0000
0000
0310
0000
0001
0000
0010
0000
0001
0000
0010
0000
0001
0000
0010
0000
0000
,
0100
1000
0001
0100
0001
0010
0100
2000
,
3000
1000
1001
0000
0000
0101
0000
0000
,
1010
0000
2000
3000
0001
0000
0201
0000
,
0000
0000
0000
0320
0000
0000
0000
0000
0000
0000
0000
0000
2030
0000
0000
0000
0000
0000
3001
0000
0010
0000
0100
0000
,
1000
0000
0000
0000
0000
0000
0000
0000
0000
0000
0000
0000
0000
0000
0000
0000
0001
0000
0000
0000
0000
0000
0000
0000
0000
0000
0000
0000
0000
0000
0000
0000
0010
0000
0000
0000
0000
0000
0000
0000
0000
0000
0000
0000
0000
0000
0000
0000
0100
0000
0000
0000
0000
0000
0000
0000
0000
0000
0000
0000
0000
0000
0000
0000
1000
0000
0000
0000
0000
0000
0000
0000
0000
0000
0000
0000
0000
0000
0000
0000
0001
0000
0000
0000
0000
0000
0000
0000
0000
0000
0000
0000
0000
0000
0000
0000
1000
0000
0000
0000
0000
0000
0000
0000
0000
0000
0000
0000
0001
0000
0000
0000
0000
0000
0000
0000
0000
0000
0000
0000
0101
0000
0000
0000
0000
0000
0000
0000
0000
0000
0000
0000
0000
0000
0000
0000
0000
0000
0001
0000
0000
0000
0000
0000
0100
0000
0000
0000
0000
0000
0000
0000
0000
0000
0000
0000
0010
0000
0000
0000
0000
0000
0000
0000
0000
0000
0000
0000
1000
0000
0000
0000
0000
0000
0000
0000
0000
0000
0000
0000
0010
0000
0000
0000
0000
0000
0000
0000
0000
0000
0000
0000
,
0100
0000
0001
0000
0101
0000
0000
0001
1000
0000
0010
0000
0100
0000
0001
1000
0000
0000
0000
0000
0001
0000
1000
0000
0010
0000
0000
0000
0100
0000
0000
0000
,
0001
0000
0010
0000
0100
0000
0010
0000
0001
0000
1000
0010
0100
0000
0001
0000
,
0010
0000
0001
0000
1000
0000
0100
0010
0001
0000
0010
0100
1000
0000
1000
0001
,
0100
0000
0010
0000
1000
0000
0010
0100
0001
0000
1000
0000
0100
0000
1000
0001
,
0010
0000
0000
0000
0000
0000
0000
0000
0000
0100
0000
0000
0010
0000
0000
0000
0001
0000
0000
0000
1000
0000
0000
0000
0001
0000
0000
0000
0100
0000
0000
0000
0001
0000
0000
0000
0000
0000
0000
0000
1000
0000
0100
0000
0000
0000
0000
0000
,
0010
0000
0001
0100
0000
0000
0000
0100
0000
0010
0000
0000
1000
0000
0000
0000
0000
0000
0001
0000
0000
0000
0000
0000
,
1000
0000
0000
0100
0000
0000
0010
0000
0000
0001
0000
0000
0100
0000
0000
0010
,
0000
0000
1000
0000
0000
0001
0000
0000
0010
0000
0000
0001
0000
0000
1000
0000
,
0000
0010
0000
0000
0100
0000
0000
0001
0000
0000
0010
0000
0000
0100
0000
0000
,
1000
0000
0000
0010
0000
0000
0100
0000
0000
0001
0000
0000
1000
0000
0000
0001
,
0000
0000
0010
0000
0000
0001
0000
0000
1000
0000
0000
0010
0000
0000
0100
0000
,
0000
0001
0000
0000
0010
0000
0000
0100
0000
0000
1000
0000
0000
0001
0000
0000
,
0100
0000
0000
0001
0000
0000
1000
0000
0000
0100
0000
0000
0010
0000
0000
0100
,
0000
0000
1000
0000
0000
0001
0000
0000
0100
0000
0000
0010
0000
0000
1000
0000
,
0000
0010
0000
0000
0100
0000
0000
0010
0000
0000
0100
0000
0000
0001
0000
0000
,
0100
0000
0000
0001
0000
0000
1000
0000
0000
0001
0000
0000
0010
0000
0000
0100
,
0000
0000
1000
0000
0000
0010
0000
0000
0100
0000
0000
0001
0000
0000
0010
0000
,
0000
0001
0000
0000
1000
0000
0000
0010
0000
0000
0100
0000
0000
0001
0000
0000
,
1002
0000
0000
0013
0000
0000
2001
0000
,
0000
3100
0000
0000
1001
0000
0000
1000
,
0010
1000
0010
0000
0000
0100
0001
0100
,
0001
0000
0000
1000
0000
0000
0001
0000
0000
1000
0000
0000
0010
0000
0000
0100
,
0000
0000
0000
0000
0010
0000
0000
0000
0000
0000
0100
0000
0000
0000
0000
0000
0010
0000
0000
0000
0000
0000
1000
0000
0000
0010
0000
0000
1000
0000
0000
0000
,
0000
0000
0000
0000
0000
0000
0000
0000
0001
0000
0000
0000
0000
0000
0100
0000
0000
0001
0000
0000
0100
0000
0000
0000
0000
0000
0001
0000
0000
0000
0000
0000
,
1000
0000
0000
0100
0000
0000
0010
0000
0000
0001
0000
0000
1000
0000
0000
0100
,
0000
0000
0010
0000
0000
0001
0000
0000
1000
0000
0000
0001
0000
0000
0100
0000
,
0000
0010
0000
0000
1000
0000
0000
0001
0000
0000
0100
0000
0000
0010
0000
0000
,
1000
0000
0000
0100
0000
0000
0010
0000
0000
0001
0000
0000
1000
0000
0000
0001
,
0000
0000
0010
0000
0000
0001
0000
0000
0100
0000
0000
0010
0000
0000
1000
0000
,
0000
0100
0000
0000
0010
0000
0000
0001
0000
0000
0100
0000
0000
0010
0000
0000
,
1000
0000
0001
0000
1000
0000
0001
0000
0000
0100
0000
0000
0001
0000
0100
0000
,
0001
0000
0100
0000
0000
0010
0000
0000
1000
0000
0010
0000
1000
0000
0010
0000
,
0000
0100
0000
0000
0001
0000
0100
0000
0001
0000
0100
0000
0000
0010
0000
0000
,
1000
0000
0000
0001
0000
0000
0010
0000
,
0000
0100
0000
0000
1000
0000
0000
0100
,
0000
0000
0000
0000
0010
0000
0000
0000
0000
0000
0100
0000
2002
3003
0020
0000
,
0000
0000
0000
0000
,
0000
0000
0000
0000
,
0000
0000
0000
0000
,
0030
0000
0000
0000
;

//---------------dance-single - ----------------
#NOTEDATA:;
#CHARTNAME:;
#STEPSTYPE:dance-single;
#DESCRIPTION:;
#CHARTSTYLE:;
#DIFFICULTY:Easy;
#METER:9;
#RADARVALUES:0.492584,0.666170,0.199989,0.386186,0.017240,500.000000,471.000000,29.000000,56.000000,0.000000,0.000000,0.000000,0.000000,0.000000,0.492584,0.666170,0.199989,0.386186,0.017240,500.000000,471.000000,29.000000,56.000000,0.000000,0.000000,0.000000,0.000000,0.000000;
#CREDIT:;
#NOTES:
1000
0100
1000
0100
,
1000
0100
1000
1000
,
0001
0100
0001
0100
,
0001
0100
0001
0000
,
0100
0010
0100
0010
,
0100
0010
0100
0100
,
0010
1000
0001
0100
,
0001
1000
1001
0000
,
1000
0100
0001
0100
,
1000
0010
1000
0000
,
0001
0010
1000
0010
,
0100
0001
1000
0001
,
1000
0000
0100
1000
,
0010
0000
0000
0000
0100
0000
0000
0000
0001
0000
0000
1000
0000
0000
0010
0000
,
0000
0100
0000
0000
0001
0000
0000
0000
0000
0000
0000
0000
2000
0000
0000
0000
,
0000
3200
0000
2300
,
3001
1000
0010
1000
0000
0001
0000
0010
,
0100
1000
0100
1000
0000
0010
0000
0100
,
0010
1000
0001
0100
0000
0001
0000
1000
,
0010
1000
0001
0100
0000
0001
0010
0100
,
0100
0010
0010
0001
0000
1000
0000
0001
,
0010
0100
0010
0001
0000
0010
0100
1000
,
0000
0100
0000
1000
0000
0001
0000
0100
,
0000
0100
0000
0001
0000
0000
1000
0000
,
0000
1000
0000
0020
0000
0230
0000
0302
,
0000
2003
0000
3200
0000
0000
2300
0000
,
3200
0320
0032
0023
,
0230
2300
3020
0000
,
0000
0000
0000
0000
,
0000
0000
0030
0000
,
1001
0001
1000
0010
,
1000
0000
0000
0010
0000
0000
0100
0000
,
0002
0023
0130
0010
,
0001
0000
1000
0000
0001
1000
0010
0000
,
0100
0010
1000
0010
,
0100
0001
0000
1000
,
0002
0000
0103
0000
0001
0000
1000
0001
,
0010
0100
1000
0000
0010
0000
0200
0000
,
0301
0010
0001
0001
,
1000
0100
0100
0020
,
0031
0000
0100
0000
0010
0000
1000
0001
,
0100
0001
0010
0010
,
0020
0000
0130
1000
,
1000
0001
0100
0010
,
1001
0000
0000
0110
0000
0000
1001
0000
,
1000
0100
0010
0001
,
0010
0100
1000
0100
,
0010
0001
1000
0000
,
0001
0010
0100
1000
,
0010
0100
0100
0000
,
0000
1000
0001
0000
,
0001
0100
0000
0010
,
0000
0000
1000
0000
0000
0000
0000
0000
0000
0001
0000
0000
1000
0000
0000
0000
,
0001
0100
0010
0100
,
0001
1000
1001
1001
,
1001
0000
0000
0000
,
0000
0001
1000
0010
,
0100
0101
1010
0000
,
0010
0100
0001
1000
,
0010
0100
0001
1000
,
0001
0010
0100
1000
0010
0000
0100
0000
,
0000
0010
1000
0010
,
0100
0000
0001
0000
0000
1000
0000
0000
,
0100
0000
1000
0000
0000
0010
0000
0000
,
0100
0001
1000
0100
,
0001
0200
0000
0320
,
0000
0000
0031
0000
0000
1000
0000
0000
,
0010
0000
0200
0000
0301
0000
0000
0010
,
0000
0100
0010
0001
,
1000
0010
0000
1000
,
0001
1000
0001
1000
,
0001
1000
0001
1000
,
0001
1000
0001
1000
,
0100
0010
0100
1000
,
0010
0100
0100
0001
,
0100
0000
0010
0000
1000
0000
0001
1000
,
0010
0010
1000
0000
0001
0000
0100
0000
,
0100
0001
0010
0100
,
1000
0000
0100
0000
1000
1000
0010
0000
,
0100
0100
0001
0000
0010
0000
1000
0000
,
0010
0000
0100
1000
0100
0000
0100
0000
,
0010
0000
0010
0001
,
1000
0010
0100
0100
,
0100
0100
1001
0000
,
0110
0000
1001
0000
,
0220
0000
0330
0000
1001
0000
0000
0001
,
0000
0100
0001
1000
,
0100
1000
0010
0100
,
0000
0000
0000
0000
0001
0000
0000
1000
0000
0000
0100
0000
0000
0000
0010
0000
,
0000
0000
0000
0000
0000
0000
0000
0000
0001
0000
0000
0100
0000
0000
0010
0000
,
0000
0200
0000
0000
,
0000
0301
0000
0000
1100
1000
0000
0000
,
1001
1000
0000
0000
0010
0000
0000
0100
,
0000
0002
0000
0000
2003
0000
0000
3100
,
0000
0000
0010
0000
0001
0000
1000
0001
,
0100
0000
0000
0220
0000
0000
0000
0000
,
0330
0000
0000
0002
0000
0203
0000
0310
,
0000
0010
0000
0200
0000
0302
0000
2003
,
0000
3100
1100
0000
0000
0110
0000
0000
,
0012
0000
0000
0003
1000
0000
0001
0000
,
0000
0100
0000
0000
0010
0000
0200
0000
,
0000
0300
2002
0000
,
0000
0000
3003
0000
,
0001
1000
0010
1000
,
0001
0100
0001
1000
,
0100
1000
0010
0100
,
1001
0110
1001
0110
,
0010
0010
2000
3002
,
0103
0000
0000
0010
0000
0000
1000
0000
,
0000
0001
0000
0000
0010
0000
0000
0100
,
0000
0000
2000
0000
0000
3200
0000
0000
,
0310
0000
0000
0100
0000
0000
1000
0000
,
0000
0002
0000
0000
0103
0000
0000
0002
,
0000
0000
1003
0000
0000
0100
0000
0000
,
0010
0000
0000
0100
0000
0000
0100
0000
,
0000
0010
0000
0000
0002
0000
0000
2003
,
0000
0000
3020
0000
0000
0130
0000
0000
,
0010
0000
0000
1000
0000
0000
0100
0000
,
0000
0010
0000
0000
0200
0000
0000
1300
,
0000
0000
0200
0000
0000
0310
0000
0000
,
0100
0000
0000
0010
0000
0000
0001
0000
,
0000
1000
0000
0000
0010
0000
0000
0200
,
0000
0000
0301
0000
0000
0200
0000
0000
,
0310
0000
0000
1000
0000
0000
0001
0000
,
0000
0010
0000
0000
0110
0000
0000
0000
,
0000
1001
0000
0000
,
1000
0000
0000
0100
0000
0000
0010
0000
,
0000
0001
0000
0000
1000
0000
0000
0010
,
0000
0000
0100
0000
0000
0001
0000
0000
,
1000
0000
0000
0100
0000
0000
0010
0000
,
0000
0001
0000
0000
1000
0000
0000
0010
,
0000
0000
0100
0000
0000
0001
0000
0000
,
1000
0000
0000
0010
0000
0000
0001
0000
,
0000
0010
0000
0000
1000
0000
0000
0100
,
0000
0000
0001
0000
0000
0100
0000
0000
,
1000
0000
0000
0100
0000
0000
0010
0000
,
0000
0001
0000
0000
0010
0000
0000
0100
,
0000
0000
0010
0000
0000
0001
2002
0000
,
3003
0000
0000
0000
;

//---------------dance-single - ----------------
#NOTEDATA:;
#CHARTNAME:;
#STEPSTYPE:dance-single;
#DESCRIPTION:;
#CHARTSTYLE:;
#DIFFICULTY:Medium;
#METER:11;
#RADARVALUES:0.695528,1.067700,0.406874,0.496524,0.186197,706.000000,647.000000,59.000000,72.000000,0.000000,0.000000,0.000000,0.000000,0.000000,0.695528,1.067700,0.406874,0.496524,0.186197,706.000000,647.000000,59.000000,72.000000,0.000000,0.000000,0.000000,0.000000,0.000000;
#CREDIT:;
#NOTES:
1000
0001
0100
0001
,
0010
0100
2000
3200
,
0310
0100
1000
0010
,
0100
0000
0001
0000
1000
0000
0001
0100
,
0001
0010
0100
0010
,
0001
1000
0020
0230
,
0301
0100
0010
1000
,
1010
0101
1001
0000
,
0001
0010
0100
0010
,
0001
1000
1000
0000
,
1000
0100
0010
0100
,
1000
0001
0001
1002
,
0203
0000
0320
0000
,
1030
0000
0000
0000
1001
0000
0000
0000
1001
0000
0000
1000
0000
0000
0001
0000
,
0000
0100
0000
0000
1001
0000
0000
0000
0000
0000
0000
0000
0001
0000
0000
0000
,
0100
0010
1000
0001
,
1000
0001
1000
0000
0100
0000
1000
0000
0010
0000
0100
0000
0001
0000
0010
0000
,
0100
0010
0100
0000
0010
0000
0001
0000
1000
0000
0100
0000
1000
0010
1000
0000
,
0010
0100
0010
0000
0100
0001
0100
0000
0001
0000
0010
0000
0100
1000
0100
0000
,
1000
0000
0010
0000
0100
0001
1000
0000
0001
0000
1000
0000
0100
0000
0001
0000
,
0100
0010
0001
0100
0001
0100
0010
1000
,
0001
0100
0001
0000
0100
0000
0010
0000
1000
0000
0100
0000
1000
0000
0020
0000
,
0000
0230
0000
0301
0000
1010
0000
1000
,
0010
1000
0010
0100
0010
0100
0001
0000
,
0000
1000
0000
1001
0000
0110
0000
1001
,
0000
0110
0000
1001
0000
0000
1000
0000
,
0100
0010
0011
1100
,
0101
1010
2002
0000
,
0000
0000
0000
0000
,
3003
0000
0000
0000
,
0201
0310
1000
0001
,
0010
0100
0010
0100
0000
0100
1000
0000
,
0002
0000
0203
0000
0310
1000
0001
1000
,
0100
0010
0001
0000
1000
0001
0100
0000
,
0001
0000
0020
0000
0130
1000
0001
1000
,
0001
0000
1000
0001
0200
0000
0310
0000
,
1000
0000
0001
0100
0010
1000
0001
0010
,
0100
0010
0001
0000
2000
0000
3020
0000
,
0130
0001
0000
0001
1000
0100
1000
0000
,
0100
0000
0110
0000
0011
0000
0001
1000
,
0001
0000
2000
0000
3020
0000
0130
0001
,
0010
0100
1000
0001
,
0200
0000
0000
0310
1000
0001
1000
0000
,
0001
0000
0100
0000
0000
0000
0010
0000
1000
0000
0000
0100
0000
0000
0010
0000
,
0002
0000
0000
0203
0000
0000
0310
0000
,
1000
0010
0000
0010
1000
0000
1000
0010
,
1000
0000
0002
0000
0103
0010
1000
0001
,
1000
0100
0010
0001
1000
0000
0000
0001
,
1001
0101
1001
1000
,
0100
0000
0000
0000
1000
0000
0000
0000
0010
0000
0000
0000
0100
0000
0001
0100
,
0001
0000
0100
0000
0010
0000
0000
0000
1000
0000
0000
0000
0100
0000
0010
0001
,
1000
0000
0000
0000
0001
0000
1000
0000
0100
0000
0010
0001
1000
0000
0000
0000
,
0010
0000
0100
0000
0000
0000
0001
0000
1000
0001
0000
0000
0100
0000
0000
0000
,
0010
0000
1000
0010
0100
0000
0001
0000
,
0010
0001
0100
0010
1000
0000
0001
0000
,
1001
0000
0001
0100
0001
1000
0100
0001
,
0100
0010
0011
0000
1100
0000
0101
0000
,
1010
1001
0110
0000
,
0002
0203
2300
3200
,
0320
2030
3020
0230
,
0301
0100
0010
1000
0001
0000
0000
0000
,
0000
0000
1001
0000
0000
0000
0100
0010
,
0100
0000
1001
0000
0001
0100
0000
0010
,
1000
0000
0100
1000
0100
0010
0000
0001
,
0010
0000
0100
0000
0010
0000
0001
1000
,
0000
0010
0200
0000
0000
0000
0302
0000
,
0000
0000
1003
0000
0100
0010
0000
0010
,
0001
0000
1000
0001
0100
0001
0000
1000
,
0010
0000
0110
0000
0110
0000
0100
0010
,
0000
0000
0010
0000
1000
0000
0001
0100
0010
0000
1000
0000
0001
0000
0010
0000
,
0001
0000
1000
0000
0010
0000
0100
0010
0100
0000
0001
0000
1000
0000
0100
0000
,
1000
0000
0001
0100
0001
0000
1000
0010
1000
0000
0001
1000
0001
0000
1000
0000
,
0010
0000
0100
0001
0100
0000
0001
0000
1000
0000
0010
0100
0001
0000
0000
0000
,
1000
0100
0000
0100
0010
0001
1000
0001
,
0100
0001
0020
0000
0230
0000
1300
0000
,
0100
0000
0000
0000
0010
0000
0000
0000
0001
0000
0000
0000
0100
0000
0010
1000
,
0001
1001
0001
0000
0100
0000
0010
1000
,
0001
0000
0010
0000
0100
0000
0000
0100
0000
0000
1000
0000
0100
0000
0010
0000
,
0001
1000
0001
0000
1000
1000
0001
0100
,
0020
2030
3002
0000
0013
0000
0110
0000
,
0011
0000
0000
0000
0001
0010
0100
0010
0011
0000
0000
0000
1100
0000
0000
0000
,
1001
0000
0001
0100
,
0100
0000
0100
0000
0100
0010
0100
0010
,
0100
0010
0100
0010
2000
0100
0000
0000
,
3002
0100
0000
0000
2003
0100
0000
0000
,
3002
0000
0103
0000
1020
0000
0000
0230
,
0000
0302
0013
0100
,
1000
0001
1000
0001
0100
0010
0100
0010
,
0000
0000
0000
0000
0101
0000
0000
1010
0000
0000
0101
0000
0000
0000
1000
0000
,
0200
0000
0000
0000
0300
0000
0000
0000
0110
0000
0000
0011
0000
0000
1001
0000
,
0000
0001
0010
0100
,
0000
1000
0100
0000
0010
0001
0010
0000
,
0100
1000
0001
0000
0001
0100
0000
0010
,
0000
0200
0000
0000
0302
0000
0000
1003
,
0000
0001
1000
0000
0010
0000
0100
0001
,
0010
0100
0000
2002
0000
0000
0000
0000
,
3003
0000
0000
0001
1000
0001
1000
0001
,
1000
0010
0100
0010
1000
0001
0010
0100
,
0000
0100
0110
0000
0000
1100
0000
0000
,
1010
0000
1000
0001
1000
0000
1001
0000
,
0000
1100
0000
0000
1001
0000
0220
0000
,
0000
0000
0000
0330
2002
0000
0000
0000
,
0000
0000
3003
0000
,
0002
0000
0200
0003
,
0020
0300
2000
0030
,
0200
3000
0020
0300
,
0031
0000
0000
1100
0000
1000
0001
1000
0001
1000
0000
0001
,
1000
0010
0100
0001
0020
0000
0230
0000
,
1300
0000
0000
0100
0000
0000
0010
0000
,
0000
0001
0000
0000
0100
0000
0000
0010
,
0000
1000
0000
0000
0001
0000
0000
0000
0000
0000
1000
0000
0000
0000
0000
0000
,
0100
0000
0000
1000
0000
0000
0010
0000
,
0000
0000
0100
0000
0000
0001
0000
0000
0010
0000
0000
0000
0000
0000
0010
0000
,
0000
0001
0000
0000
1000
0000
0000
0000
0000
0000
0001
0000
0000
1000
0000
0000
,
0100
0000
0000
0010
0000
0000
0100
0000
,
0000
0000
1000
0000
0000
0001
0000
0000
0010
0000
0000
0000
0000
0000
0100
0000
,
0000
0000
0000
0000
1000
0000
0000
0000
0000
0000
0001
0000
0000
0100
0000
0000
,
0010
0000
0000
0000
0000
0000
0100
0000
0000
0000
0000
0000
0001
0000
0000
0100
,
0000
0000
0010
0000
0000
1000
0000
0000
0001
0000
0000
0000
0000
0000
0010
0000
,
0000
0000
0100
0000
0000
1000
0000
0000
,
0002
0000
0000
0013
0000
0000
0020
0000
,
0000
0130
0000
0000
0200
0000
0000
1300
,
0000
0001
0000
0000
2000
0000
0000
0000
0000
0000
3200
0000
0000
0000
0000
0000
,
0310
0000
0000
0001
0000
0000
0100
0000
,
0000
0000
0010
0000
0000
0000
0000
0000
1000
0000
0000
0010
0000
0000
0100
0000
,
0000
0000
0000
0000
0010
0000
0000
0100
0000
0000
0001
0000
0000
0000
0000
0000
,
1000
0000
0000
0000
0000
0000
0100
0000
0000
0000
0000
0000
0010
0000
0000
0001
,
0000
0000
0100
0000
0000
0010
0000
0000
1000
0000
0000
0000
0000
0000
0001
0000
,
0000
0000
0000
0000
0010
0000
0000
0001
0000
0000
0100
0000
0000
0010
0000
0000
,
1000
0000
0000
0000
0000
0000
0100
0000
0000
0000
0000
0000
0010
0000
0000
0001
,
0000
0000
0100
0000
0000
0010
0000
0000
1000
0000
0000
0000
0000
0000
0001
0000
,
0000
0000
0000
0000
0010
0000
0000
0100
0000
0000
1000
0000
0000
0010
0000
0000
,
0100
0000
0000
0001
0000
0000
0020
0000
0000
0000
0000
0000
0130
0000
0000
1000
,
0000
0002
0000
0000
1003
0000
0000
0100
,
0000
0000
0000
0000
0010
0000
0000
0000
0000
0000
0001
0000
0000
0010
0000
0000
,
0100
0000
0000
0010
0000
0000
0001
0000
,
0000
0100
0000
0000
0010
0000
0000
1000
,
0000
0000
0001
0000
0000
0100
2002
0000
,
0000
0000
0000
0000
,
0000
0000
0000
0000
,
0000
0000
0000
3003
;

//---------------dance-single - ----------------
#NOTEDATA:;
#CHARTNAME:;
#STEPSTYPE:dance-single;
#DESCRIPTION:;
#CHARTSTYLE:;
#DIFFICULTY:Beginner;
#METER:4;
#RADARVALUES:0.185211,0.427476,0.131027,0.013792,0.000000,188.000000,169.000000,19.000000,2.000000,0.000000,0.000000,0.000000,0.000000,0.000000,0.185211,0.427476,0.131027,0.013792,0.000000,188.000000,169.000000,19.000000,2.000000,0.000000,0.000000,0.000000,0.000000,0.000000;
#CREDIT:;
#NOTES:
// measure 0
1000
0000
0000
0000
,  // measure 1
0000
0000
0000
0000
,  // measure 2
0001
0000
0000
0000
,  // measure 3
0000
0000
0000
0000
,  // measure 4
1000
0000
0000
0000
,  // measure 5
0000
0000
0000
0000
,  // measure 6
0010
0000
0000
0000
,  // measure 7
0100
0100
0100
0000
,  // measure 8
0010
0000
0000
0000
,  // measure 9
0000
0000
0000
1000
,  // measure 10
0000
0000
0000
0000
,  // measure 11
0000
0000
0000
1001
,  // measure 12
1000
0000
0000
0000
,  // measure 13
0000
0001
0001
0000
,  // measure 14
0000
0000
0000
1000
,  // measure 15
0000
0000
0000
0000
,  // measure 16
0000
0010
0000
0010
0000
0000
0000
0000
,  // measure 17
0000
0000
0000
0100
0000
0000
0000
0001
,  // measure 18
0000
0000
0000
1000
0000
0000
0000
0000
,  // measure 19
0000
0000
0000
1000
0000
0000
0000
0001
,  // measure 20
0000
0001
0000
0001
0000
0000
0000
1000
,  // measure 21
0000
0000
0000
0010
0000
0010
0000
0100
,  // measure 22
0000
0000
0000
1001
0000
0000
0000
0000
,  // measure 23
0000
0000
0000
0000
,  // measure 24
0000
0000
0000
2000
0000
0000
0000
0000
,  // measure 25
0000
0000
0000
0000
,  // measure 26
0000
0000
0000
0000
,  // measure 27
0000
0000
3000
0000
,  // measure 28
0000
0000
0000
0000
,  // measure 29
0000
0000
0000
0000
,  // measure 30
0001
0001
0001
0000
,  // measure 31
1000
0000
0010
0000
,  // measure 32
0100
0000
0010
0000
,  // measure 33
1000
0000
0001
1000
,  // measure 34
0000
1000
0000
0001
,  // measure 35
0000
0001
0000
1000
,  // measure 36
0000
0010
0000
0000
,  // measure 37
0000
0000
0100
0000
,  // measure 38
0000
0000
0010
0000
,  // measure 39
0000
0000
1000
0000
,  // measure 40
0000
0000
0001
0000
,  // measure 41
0000
0000
1000
0000
,  // measure 42
1000
0000
0000
0000
,  // measure 43
0001
0000
0100
0000
,  // measure 44
0010
0000
0000
0010
0000
0000
0010
0000
,  // measure 45
0000
0000
0000
1000
,  // measure 46
0000
0000
0000
0000
,  // measure 47
0000
0000
0000
0000
,  // measure 48
0000
0001
0000
1001
,  // measure 49
0000
0000
0000
1000
,  // measure 50
0000
0001
0000
0000
,  // measure 51
1000
0000
0000
0001
,  // measure 52
0000
0000
1000
0000
,  // measure 53
0000
0000
0010
0000
,  // measure 54
0000
0000
0100
0100
,  // measure 55
0100
0000
0000
0000
,  // measure 56
0000
0010
0000
0000
,  // measure 57
0000
1000
0000
0000
,  // measure 58
0001
0000
1000
0000
,  // measure 59
0010
0000
0100
0000
,  // measure 60
0001
1000
1001
0000
,  // measure 61
0000
1001
0000
0000
,  // measure 62
0010
1001
0000
0000
,  // measure 63
0000
0001
0000
0000
,  // measure 64
0000
1000
0000
0000
,  // measure 65
0000
0001
0000
0001
,  // measure 66
0000
0001
0000
0000
,  // measure 67
0000
0100
0000
0000
,  // measure 68
0000
0010
0000
0100
,  // measure 69
0000
1001
0000
1000
,  // measure 70
0000
0000
0000
0001
,  // measure 71
0000
0000
0000
1000
,  // measure 72
0000
0000
0000
0110
,  // measure 73
0000
0000
0000
0010
,  // measure 74
0000
0000
0000
0100
,  // measure 75
0000
0000
0000
0001
,  // measure 76
0000
1000
0000
0000
,  // measure 77
0000
0010
0000
0000
,  // measure 78
0000
0100
0000
0000
,  // measure 79
0010
0000
0000
1000
,  // measure 80
0000
0000
0001
0001
,  // measure 81
0001
0000
1000
0000
,  // measure 82
0000
0000
0010
0000
,  // measure 83
0000
0000
1001
0000
,  // measure 84
0110
0000
1001
0000
,  // measure 85
0110
0000
0100
0000
,  // measure 86
0000
0000
0010
0000
,  // measure 87
0000
0000
1000
0000
,  // measure 88
0000
1001
0000
0000
,  // measure 89
0000
0000
0001
0000
,  // measure 90
0000
0000
0000
0000
,  // measure 91
0000
1000
0000
0000
0000
0010
0000
0000
,  // measure 92
0000
0000
0000
0000
0100
0000
0000
0001
,  // measure 93
0000
1000
0000
0000
0000
0000
0000
0001
,  // measure 94
0000
0000
0000
0000
0000
0000
1000
1000
,  // measure 95
1000
0000
0000
1001
0000
0000
0000
0000
,  // measure 96
0000
0000
0000
0020
0000
0000
0000
0000
,  // measure 97
0000
0000
0000
0030
0000
0000
0000
0100
,  // measure 98
0000
0100
0001
0000
0000
0000
0000
0000
,  // measure 99
1000
0000
0000
0001
,  // measure 100
0000
0000
0100
0010
,  // measure 101
0000
0000
1001
0000
,  // measure 102
0000
0000
0000
0000
,  // measure 103
1000
0000
0100
0000
,  // measure 104
0010
0000
0100
0000
,  // measure 105
1000
0000
0001
0000
,  // measure 106
1001
0000
0000
0000
,  // measure 107
0000
0000
0000
0000
,  // measure 108
1000
0000
0000
0000
,  // measure 109
0000
0000
0001
0000
,  // measure 110
0000
0000
0000
0000
,  // measure 111
0100
0000
0000
0000
,  // measure 112
0000
0000
0010
0000
,  // measure 113
0000
0100
0000
0000
,  // measure 114
0010
0000
0000
0000
,  // measure 115
0000
0000
1000
0000
,  // measure 116
0000
0000
0000
0000
,  // measure 117
0001
0000
0000
0000
,  // measure 118
0000
0000
1000
0000
,  // measure 119
0000
0001
0000
0000
,  // measure 120
0100
0000
0000
0000
,  // measure 121
0000
0000
0010
0000
,  // measure 122
0000
0000
0000
0000
,  // measure 123
1000
0000
0000
0000
,  // measure 124
0000
0000
1001
0000
,  // measure 125
0000
0110
0000
0000
,  // measure 126
1000
0000
0000
0000
,  // measure 127
0000
0000
0100
0000
,  // measure 128
0000
0000
0000
0000
,  // measure 129
0010
0000
0000
0000
,  // measure 130
0000
0000
0001
0000
,  // measure 131
0000
0000
0000
0000
,  // measure 132
1000
0000
0000
0001
,  // measure 133
0000
0000
0100
0000
,  // measure 134
0000
0010
0000
0000
,  // measure 135
1000
0000
0000
0100
,  // measure 136
0000
0000
0010
0000
,  // measure 137
0000
0000
0001
0000
0000
1000
0110
0000
;
