#TITLE:Devil's Gear;
#SUBTITLE:;
#ARTIST:DJ Myosuke;
#TITLETRANSLIT:;
#SUBTITLETRANSLIT:;
#ARTISTTRANSLIT:;
#GENRE:;
#CREDIT:;
#BANNER:Devil's Gear.png;
#BACKGROUND:Devil's Gear-bg.png;
#LYRICSPATH:;
#CDTITLE:;
#MUSIC:Devil's Gear.ogg;
#OFFSET:-0.129000;
#SAMPLESTART:70.817657;
#SAMPLELENGTH:10.666664;
#SELECTABLE:YES;
#BPMS:0.000000=180.000000
;
#STOPS:116.000000=5.000000,
353.000000=1.000000
;
#BGCHANGES:;
#KEYSOUNDS:;
#ATTACKS:;

//---------------dance-single - ----------------
#NOTES:
     dance-single:
     :
     Hard:
     10:
     0.617007,1.129496,0.294996,0.242048,0.442495,571.000000,532.000000,39.000000,32.000000,0.000000,0.000000,0.617007,1.129496,0.294996,0.242048,0.442495,571.000000,532.000000,39.000000,32.000000,0.000000,0.000000:
// measure 0
0000
0000
0000
0000
,  // measure 1
0000
0000
0000
0000
,  // measure 2
0000
0000
0000
0000
,  // measure 3
0000
0000
0000
0000
,  // measure 4
0000
0000
0000
0000
,  // measure 5
1000
0010
1000
0010
0100
0001
0100
0001
,  // measure 6
0010
0100
0010
0100
0010
0100
0010
0100
0001
1000
0001
1000
0001
1000
0001
1000
,  // measure 7
0020
0000
0000
0000
0430
0004
0000
0000
0303
0000
0000
0000
0000
0000
0000
0000
,  // measure 8
2000
0000
0001
0000
0002
0000
0000
3003
,  // measure 9
1000
1000
0010
0000
0100
0000
0001
0000
,  // measure 10
0010
0000
0100
0000
0010
0001
2000
3020
,  // measure 11
0130
0100
0010
1000
,  // measure 12
0001
0010
0001
1000
0020
0000
2030
0000
,  // measure 13
3100
1000
0100
0000
1000
0000
0001
0000
,  // measure 14
0001
0010
0100
0010
0100
0000
0020
0000
0031
0000
1000
0000
0001
0000
1000
0000
,  // measure 15
0100
0000
0100
0000
0010
0000
0001
0000
1000
0010
0100
0001
0010
0001
1000
0100
,  // measure 16
1000
0000
0000
0000
,  // measure 17
0101
0000
0000
1000
1100
0000
0000
0000
,  // measure 18
0011
0000
0000
0000
0000
0000
0001
0000
0001
1000
0010
0000
0101
0000
0000
0000
,  // measure 19
1010
0000
0000
0000
0000
0000
0001
0000
0011
0000
0000
0000
0001
1000
0001
0000
,  // measure 20
1000
0100
0001
0100
1000
0100
0001
0100
,  // measure 21
0110
0000
0000
0000
0000
0000
0010
0000
1001
0000
0000
0000
0010
0100
0010
0000
,  // measure 22
1001
0000
0000
0000
0000
0000
0010
0100
0000
0100
0000
0100
0000
0000
0000
0000
,  // measure 23
2002
0000
0000
0000
0000
0000
0000
3003
,  // measure 24
1000
0001
0000
1000
0100
0000
1000
0010
0000
1000
0001
0000
0010
0000
0100
0000
,  // measure 25
1100
0000
0000
0101
0000
0000
1010
0000
0000
0011
0000
0000
1001
0000
0000
0101
,  // measure 26
0000
1000
0010
0000
0000
1001
0000
0000
1100
0000
0000
0000
0000
0000
0000
0000
,  // measure 27
1000
0100
0000
0100
0010
0000
0010
0001
0000
0001
1000
0000
1000
0010
0000
0010
,  // measure 28
0400
0000
0000
0300
,  // measure 29
1001
0000
1000
2000
0000
0000
0000
0000
,  // measure 30
0000
3100
0000
0000
,  // measure 31
0010
0000
0010
0000
0001
0000
0000
0000
1000
0000
0000
0000
0001
0000
0000
0100
,  // measure 32
0000
0020
0000
0000
0000
0000
0000
0000
,  // measure 33
0030
0000
0000
0000
1000
0000
0010
0000
0100
0000
0000
0010
0000
0000
1000
0000
,  // measure 34
0100
0000
0000
0000
0010
0000
0001
0000
0100
0000
0000
0001
0000
0000
1000
0000
,  // measure 35
0001
0000
0000
0000
0010
0000
0100
0000
0010
0000
0000
0001
0000
0000
1000
0000
,  // measure 36
0010
0000
0000
0000
0100
0000
0000
0100
0000
0000
0010
0000
0000
0010
0000
0000
,  // measure 37
1000
0000
0001
0000
1001
0000
0001
0000
0010
0000
0000
0001
0000
0000
1000
0000
,  // measure 38
0100
0000
0000
0000
0110
0000
0100
0000
1000
0000
0000
0010
0000
0000
0100
0000
,  // measure 39
0001
0000
1001
1000
0001
0010
1001
1000
,  // measure 40
0001
0100
1001
0000
0000
0000
0000
0000
,  // measure 41
0000
0101
0010
0010
,  // measure 42
0010
1000
1000
1000
,  // measure 43
1000
0001
1000
0000
0001
0000
0001
0000
,  // measure 44
0001
0000
0100
0010
0100
0000
0001
1000
,  // measure 45
0001
0200
0301
0020
,  // measure 46
0130
2000
3001
0020
,  // measure 47
0130
0000
0000
0000
1000
0000
0100
0000
0010
0000
0001
0000
0100
0010
0001
1000
,  // measure 48
0010
0100
0010
0100
0002
0000
0000
0000
0000
0000
0000
0000
0000
0000
1003
0001
,  // measure 49
1000
0000
1010
1000
0100
0000
1000
0001
,  // measure 50
0100
0000
0010
0010
1000
0000
0001
0020
,  // measure 51
0130
0010
0100
0000
2000
0000
0000
0000
3010
0000
0100
0000
0010
0000
0000
0000
,  // measure 52
1000
0000
0000
0000
0001
1000
0001
0000
1000
0000
0000
0010
0000
0000
0100
0000
,  // measure 53
0001
0010
0200
0000
1300
0100
0010
0000
,  // measure 54
0100
1000
0001
0010
,  // measure 55
0001
0100
0010
0000
1000
0001
0020
0000
,  // measure 56
0030
0000
0000
0000
0100
0000
0000
0110
0000
0000
0010
0000
0000
0011
0000
0000
,  // measure 57
0001
0000
1000
0000
0010
0000
1000
0000
0001
0010
0001
0010
0001
0000
0000
0000
,  // measure 58
1000
0000
0010
0000
1000
0000
0100
0020
,  // measure 59
0031
0010
0100
0000
0010
0000
0000
0000
0001
0000
0000
0000
1000
0000
0000
0000
,  // measure 60
0010
0000
0000
0000
0100
0010
1000
0000
1001
0000
0000
0101
0000
0000
0001
0000
,  // measure 61
0010
0000
0001
0000
2000
0000
0000
0000
3001
0100
0001
0000
1000
0000
0000
0000
,  // measure 62
0001
0000
1000
0010
1000
0000
0100
0020
,  // measure 63
0031
1000
0100
0000
0110
0000
0000
1100
0000
0000
1000
0010
0200
0300
0000
0200
,  // measure 64
0300
0000
0201
0300
0002
0000
0000
0000
0000
0000
0000
0000
1003
0100
1000
0100
,  // measure 65
1000
0100
1000
0100
1000
0000
0001
0000
1000
0000
0000
0001
0000
0000
0010
0000
,  // measure 66
0001
0000
0000
0000
1000
0000
0010
0000
1000
0000
0000
0010
0000
0000
0100
0000
,  // measure 67
0001
0000
0000
0000
0010
0000
0100
0000
0010
0000
0000
0100
0000
0000
1000
0000
,  // measure 68
0001
0000
0000
0000
1000
0000
0000
0010
0000
0000
0100
0000
0000
0001
0000
0000
,  // measure 69
0010
0000
0100
0000
1000
0000
0001
0000
0000
0000
0100
0000
0001
0000
0000
0010
,  // measure 70
0000
0000
1000
0000
0010
0000
0100
0000
0000
0000
0010
0000
0001
0000
0000
0100
,  // measure 71
0000
0000
1000
0000
0100
0000
0010
0000
0000
0000
1000
0000
0001
0000
0000
1000
,  // measure 72
0000
0000
0100
0000
4000
0004
0000
0000
0000
0000
0000
0000
0000
0000
0000
0000
,  // measure 73
3003
0000
1000
0001
0010
0000
0001
0000
,  // measure 74
1000
0000
0001
1000
0001
0000
0000
0000
0100
0000
0000
0000
0010
0000
1000
0010
,  // measure 75
1000
0100
0010
0000
0100
0000
1000
0000
,  // measure 76
0001
1001
0110
1001
,  // measure 77
0110
0000
2000
0000
3010
0100
0001
0010
,  // measure 78
0100
1000
0100
1000
0100
0000
0000
0000
1000
0000
0000
0000
0100
0000
0100
0010
,  // measure 79
0100
0000
0010
0000
0001
0000
0000
0001
0000
0000
0001
0000
1000
0000
0000
1000
,  // measure 80
0000
1000
0020
0000
1000
0000
1030
0000
,  // measure 81
1001
0000
0001
0010
0001
0010
0100
1000
,  // measure 82
0001
0000
1000
0010
1000
0000
0100
0000
1000
0000
0001
0000
0100
0000
0010
0000
,  // measure 83
0100
0001
0100
0001
0100
0000
0010
0000
1000
0000
0100
0000
1000
0000
0001
0000
,  // measure 84
0010
0100
0010
0100
0010
0000
0100
0010
0001
0000
0010
0100
1000
0000
0100
0010
,  // measure 85
0001
0010
0001
0000
1000
0001
1000
0001
1000
0001
1000
0001
1000
0001
1000
0001
,  // measure 86
1000
0001
1000
0010
0100
0010
0100
0010
0100
0010
0100
0010
0100
0010
0100
0010
,  // measure 87
0100
0010
1000
0001
0100
0010
0100
0010
0100
0010
0100
0010
1000
0010
0100
0001
,  // measure 88
0010
0001
1000
0010
0100
0000
0000
0000
2002
0000
0000
0000
0000
0000
0000
0000
,  // measure 89
0000
0000
0000
0000
,  // measure 90
0000
0000
3003
0000
;

//---------------dance-single - ----------------
#NOTES:
     dance-single:
     :
     Easy:
     6:
     0.373878,0.479180,0.310124,0.098332,0.000000,346.000000,305.000000,41.000000,13.000000,0.000000,0.000000,0.373878,0.479180,0.310124,0.098332,0.000000,346.000000,305.000000,41.000000,13.000000,0.000000,0.000000:
0000
0000
0000
0000
,
0000
0000
0000
0000
,
0000
0000
0000
0000
,
0000
0000
0000
0000
,
0000
0000
0000
0000
,
1000
0001
1000
0001
,
0100
0010
0100
0010
,
1001
0000
0001
0100
0020
0000
0000
0000
,
0200
0000
0000
0330
,
0001
0100
0001
0000
0100
0000
0010
0000
,
1000
1000
0001
1000
,
0100
1000
0100
0000
1000
0000
0010
0000
,
0100
0100
0100
0100
,
0010
1000
0010
0000
0100
0000
0001
0000
,
0010
0100
0010
0001
,
1000
0001
1000
0000
0001
0000
0100
0000
,
0020
0000
0000
0030
,
1000
0000
0101
0000
,
0001
0000
1100
1001
,
0001
0000
1010
0000
,
1000
0100
1000
0001
,
0101
0000
1010
0000
,
1001
0000
0001
0011
,
0220
0000
0000
0330
,
0100
0000
0000
0000
,
1100
0000
0000
0011
0000
0000
0101
0000
,
0000
1010
0000
0000
1001
0000
0000
0000
,
1001
0000
0000
1010
0000
0000
1100
0000
,
2020
0000
0000
0000
,
3030
0001
0000
0000
,
0000
1000
0000
0000
,
0000
0010
0000
0100
,
0000
0000
0000
0000
,
0000
0001
1000
0010
,
1000
0001
0100
0001
,
0010
0001
1000
0100
,
1000
0001
0001
1000
,
1000
0110
0010
1000
,
0100
0110
0010
0001
,
0100
0110
0010
1001
,
0100
1001
0000
0000
,
0000
0101
0001
0001
,
0001
1000
1000
1000
,
1000
0010
0010
0010
,
0010
0100
0100
0100
,
0100
0010
1000
0010
,
0100
0010
0001
0010
,
0100
0010
1000
0001
,
0100
2002
0000
0000
,
3003
0000
0001
0010
0001
0000
0100
0000
,
0001
1000
1000
0001
,
0010
0001
1000
0100
,
1000
0010
1000
0010
,
0100
0000
0001
0100
0010
0000
1000
0000
,
0010
0100
0001
0010
,
0001
1000
1000
0001
,
0001
1001
0100
1001
,
0010
0000
1000
0010
0100
0001
0100
0000
,
0010
1000
0010
0100
,
0001
1000
0001
0010
,
0001
1000
0001
0100
,
0001
0000
1000
0001
0100
0001
1000
0000
,
0100
0010
0100
1000
,
0010
0100
0001
0010
,
0001
1000
0001
0100
,
0010
1000
0010
0001
,
0010
1000
0100
0001
,
0100
0010
0001
0010
,
0100
1000
1000
0001
,
0001
1000
0000
0010
,
1000
1100
0000
0100
,
0010
0011
0001
0101
,
0010
2002
0000
0000
,
3003
0001
1000
0010
,
1000
0100
1000
0010
,
0100
0001
0010
0001
,
0100
0110
1001
0110
,
1001
0001
1000
0010
,
1000
0010
0100
0001
,
0010
0001
1000
0100
,
1000
1001
0110
1001
,
0110
0000
0001
0100
0001
0000
0100
0000
,
0010
0000
1000
0010
1000
0000
0010
0000
,
0100
0000
0001
1000
0001
0000
1000
0000
,
0100
0000
0010
0100
0010
0000
0100
0010
,
0100
0000
0010
0001
0010
0000
0001
0000
,
0100
0000
0010
1000
0010
0000
1000
0000
,
0001
0000
1000
0100
0010
0001
0010
0100
,
1000
0010
0100
0000
2002
0000
0000
0000
,
0000
0000
0000
0000
,
0000
0000
3003
0000
;

//---------------dance-single - ----------------
#NOTES:
     dance-single:
     :
     Medium:
     8:
     0.437632,0.581861,0.204228,0.181536,0.068076,405.000000,378.000000,27.000000,24.000000,0.000000,0.000000,0.437632,0.581861,0.204228,0.181536,0.068076,405.000000,378.000000,27.000000,24.000000,0.000000,0.000000:
0000
0000
0000
0000
,
0000
0000
0000
0000
,
0000
0000
0000
0000
,
0000
0000
0000
0000
,
0000
0000
0000
0000
,
2000
3010
0100
0001
,
0010
0000
0100
0000
0010
0000
0001
1000
,
0020
0000
0130
0001
0020
0000
0000
0000
,
0130
0010
2002
3003
,
0001
0100
0010
0000
1000
0000
0100
0000
,
1000
0000
0001
0000
0100
0010
0100
0001
,
1000
0010
0100
0001
,
1000
0001
0000
0010
0000
0001
0000
1000
,
0100
0010
0001
1000
,
0010
0100
0001
0001
1000
0001
0010
0010
,
0100
0000
1000
0000
0010
0100
0010
1000
,
0001
0000
0000
0000
,
1100
0000
0000
1000
0001
0000
0000
0000
,
0101
0000
0000
0001
0100
1000
0100
0000
,
0100
0000
0000
0010
1000
0000
0000
0000
,
0001
1000
0000
1000
0000
0001
0000
0001
,
1001
0000
0000
0001
0100
0000
0000
0000
,
0010
0000
0000
0000
0000
0000
0100
0010
0000
0010
0000
0010
0000
0000
0000
0000
,
2002
0000
0000
0000
,
3003
0000
0000
0000
,
1000
0000
0000
0010
0000
0000
0100
0000
0000
0001
0000
0000
0010
0000
0000
0100
,
0000
0000
0010
0000
0000
0001
0000
0000
1000
0000
0000
0000
0000
0000
0000
0000
,
0001
0000
0000
1000
0000
0000
0010
0000
0000
0100
0000
0000
0001
0000
0000
0010
,
0200
0000
0000
0000
,
0300
0000
0010
0001
0000
0000
0000
0000
,
0000
1000
0000
0000
,
0010
0000
1000
0000
0010
0000
0000
0000
0100
0000
0000
0000
0010
0000
0000
0010
,
0000
0010
0000
0000
0000
0000
0000
0000
,
0000
0000
1000
0000
0001
0000
0010
0001
,
0010
0000
0001
0000
0100
0000
0010
1000
,
0010
0000
0100
0000
0010
0000
1000
0001
,
0100
0000
0000
0000
0001
0000
0000
1000
0000
0000
0010
0000
0000
1000
0000
0000
,
0001
0000
1001
0000
0001
0000
1000
0100
,
0010
0000
0011
0000
0001
0000
0100
0010
,
1000
1001
0001
1001
,
1000
1010
0000
0000
,
0000
0001
1000
0001
,
1000
0010
0100
0010
,
0100
0001
0100
0010
,
1000
0001
0010
0100
,
1000
0002
0103
0002
,
1003
0002
0013
0002
,
1003
0011
1010
1100
,
0101
0000
2002
0000
0000
0000
0000
3000
,
0003
1020
0130
0001
,
0010
0000
0100
0010
0001
0000
1000
0010
,
1000
0100
2000
0000
3100
0000
1000
0000
,
0001
0000
0010
0010
0001
0000
1000
0000
,
0001
0000
0120
0000
1030
0100
1000
0000
,
0001
0010
0001
1000
,
0010
0100
0001
0000
1000
0001
0100
0000
,
0010
0000
0000
0000
0100
0000
0000
0100
0000
0000
0010
0000
0000
0010
0000
0000
,
1000
0100
1000
0001
0100
1000
0100
0000
,
0010
0000
1000
0000
0001
0000
0100
0001
,
0010
0001
1000
0000
0100
0000
1000
0000
,
0010
0000
0000
0000
0100
0000
0010
0000
0110
0000
0000
0100
0000
0000
0010
0000
,
1000
0001
0200
0000
0310
1000
0001
0000
,
0010
0000
0001
1000
0100
0000
0100
1000
,
0010
0000
0100
0000
0001
0000
0000
0001
0000
0000
0001
0000
1000
0000
0000
1000
,
0000
1000
0220
0000
0000
0000
0000
0000
,
0330
0000
0100
0010
1000
0000
0100
0000
,
1000
0000
0001
0010
0100
0000
0010
0000
,
0001
0000
1000
0001
0100
0000
0001
0000
,
0010
0000
0100
0010
0001
0000
1000
0000
,
0010
0000
0100
0010
1000
0000
0001
0000
,
1001
0000
1000
0001
0010
0000
0100
0000
,
1100
0000
0100
1000
0010
0000
0100
0001
,
0010
2002
0000
0000
,
3003
0000
1000
0001
0000
0001
1000
0000
,
0010
0000
0100
0010
0000
0010
0100
0000
,
0010
0000
1000
0010
0000
0010
1000
0000
,
0010
0101
1010
0101
,
1010
0000
0001
1000
0000
1000
0100
0000
,
0010
0000
0001
0010
0000
0010
0100
0000
,
1000
0000
0100
1000
0000
1000
0010
0000
,
0100
0001
0100
0010
,
1000
0000
0001
0100
0001
0000
0100
0010
,
0100
0000
0010
1000
0010
0000
1000
0100
,
1000
0000
0100
0010
0100
0000
0010
0001
,
0010
0000
0001
1000
0001
0000
0100
0001
,
0100
0000
0001
0100
0010
1000
0001
0100
,
0010
1000
0001
0100
0010
1000
0001
0100
,
0010
1000
0001
0010
0100
1000
0100
0001
,
0100
1000
0001
0000
2002
0000
0000
0000
,
0000
0000
0000
0000
,
0000
0000
3003
0000
;

//---------------dance-single - ----------------
#NOTES:
     dance-single:
     :
     Beginner:
     2:
     0.129669,0.267010,0.143716,0.000000,0.000000,120.000000,101.000000,19.000000,0.000000,0.000000,0.000000,0.129669,0.267010,0.143716,0.000000,0.000000,120.000000,101.000000,19.000000,0.000000,0.000000,0.000000:
0000
0000
0000
0000
,
0000
0000
0000
0000
,
0000
0000
0000
0000
,
0000
0000
0000
0000
,
0000
0000
0000
0000
,
0000
0000
0000
0000
,
0000
0000
0000
0000
,
1001
0000
0000
0000
,
0010
0010
0010
0000
,
1001
0000
0000
0000
,
1000
0000
0000
0000
,
0001
0000
0000
0000
,
0100
0100
0100
0000
,
0010
0000
0000
0000
,
1000
0000
0000
0000
,
0001
0000
1000
0000
,
1001
0000
0000
0000
,
0010
0000
0000
0000
,
0100
0000
0000
0000
,
0001
0000
0000
0000
,
1000
0000
1000
0000
,
1000
0000
0000
0000
,
0010
0000
0000
0000
,
0100
0000
0000
0000
,
0001
0000
0000
0000
,
1001
0000
0000
0000
,
0000
0000
0000
0000
,
0110
0000
0000
0000
,
0000
0000
0000
0000
,
0010
0100
0000
0000
,
0000
0100
0000
0000
,
0000
0100
0000
0000
,
0000
0000
0000
0000
,
0000
1000
0000
0000
,
0000
0001
0000
0000
,
0000
0100
0000
0000
,
0000
0010
0000
0100
,
0000
1001
0000
0000
,
0000
0110
0000
0000
,
0000
1001
0000
1001
,
0000
1001
0000
0000
,
0000
1000
0000
0000
,
0000
0000
0000
0000
,
0000
0001
0000
0000
,
0000
0000
0000
0000
,
0000
0100
0000
0000
,
0000
0010
0000
0000
,
0000
1000
0000
0001
,
0000
0110
0000
0000
,
0000
0100
0000
0000
,
0000
0010
0000
0000
,
0000
0001
0000
0000
,
0000
1000
0000
1000
,
0000
1000
0000
0000
,
0000
0010
0000
0000
,
0000
1000
0000
0000
,
0000
0100
0000
0000
,
0000
1000
0000
0000
,
0000
0001
0000
0000
,
0000
0010
0000
0000
,
0000
0001
0000
0000
,
0000
1000
0000
0000
,
0000
0010
0000
0000
,
0000
1000
0000
0001
,
0000
1001
0000
0000
,
0000
0010
0000
0000
,
0000
0100
0000
0000
,
0000
0001
0000
0000
,
0000
1000
0000
1000
,
0000
0001
0000
0000
,
0000
1000
0000
0000
,
0000
0010
0000
0100
,
0000
1001
0000
0000
,
0000
0010
0000
0000
,
0000
1000
0000
0000
,
0000
0001
0000
0000
,
0000
0100
0100
0100
,
0100
0010
0000
0000
,
0000
1000
0000
0000
,
0000
0001
0000
0000
,
0000
0010
0010
0010
,
0010
1001
0000
0000
,
0000
0110
0000
0000
,
0000
1001
0000
0000
,
0000
0110
0000
0010
,
0000
1001
0000
1000
,
0000
0001
0000
0100
,
0000
0010
0000
0100
,
0000
1001
0000
0000
;

//---------------dance-single - ----------------
#NOTES:
     dance-single:
     :
     Challenge:
     12:
     0.758562,1.266404,0.491661,0.340380,0.726145,702.000000,637.000000,65.000000,45.000000,0.000000,0.000000,0.758562,1.266404,0.491661,0.340380,0.726145,702.000000,637.000000,65.000000,45.000000,0.000000,0.000000:
// measure 0
0000
0000
0000
0000
,  // measure 1
0000
0000
0000
0000
,  // measure 2
0000
0000
0000
0000
,  // measure 3
0000
0000
0000
0000
,  // measure 4
0000
0000
0000
0000
,  // measure 5
1000
0010
0100
0001
1000
0010
0100
0001
,  // measure 6
0010
0100
0010
0100
0001
1000
0001
1000
0001
0100
0010
0100
0001
1000
0001
0100
,  // measure 7
0020
0000
0000
0000
4030
0400
0000
0000
3300
0000
0000
0000
0000
0000
0000
0000
,  // measure 8
0012
0000
0000
0000
0103
0001
0100
0001
0020
0000
0000
0000
0130
0000
0000
0000
,  // measure 9
0010
0001
2001
0000
3010
0100
0001
0010
,  // measure 10
0001
1000
0001
1000
0001
0000
1000
0000
0010
0000
0100
0000
0001
0010
0001
0010
,  // measure 11
0001
1000
0020
0000
1030
0010
1000
0100
,  // measure 12
1000
0000
0100
1000
0100
0000
0100
0010
0100
0010
0100
0010
0100
0010
0100
0010
,  // measure 13
0100
0010
0002
0000
0103
0001
0010
0001
,  // measure 14
1000
0010
0100
0001
0010
0000
0010
0000
0100
0010
0001
1000
0001
1000
0001
1000
,  // measure 15
0001
0000
0100
0000
0010
0000
1000
0000
0100
1000
0100
1000
0100
1000
0100
1000
,  // measure 16
0100
0000
0000
0010
0000
0000
0001
0000
0000
0100
0000
0000
0010
0000
1000
0000
,  // measure 17
1001
0000
0000
0000
0000
0000
0001
0000
0011
0000
0000
0000
0010
0100
1000
0000
,  // measure 18
1001
0000
0000
0000
0000
0000
1000
0000
0001
0100
1000
0000
1100
0000
0000
0000
,  // measure 19
0110
0000
0000
0000
0000
0000
0010
0000
1001
0000
0000
0000
0001
0100
0001
0000
,  // measure 20
1000
0000
0001
1000
0020
0000
1030
0001
0200
0000
0301
1000
0020
0000
1030
0001
,  // measure 21
0101
0000
0000
0000
0000
0000
1000
0000
1001
0000
0000
0000
0001
1000
0010
0000
,  // measure 22
1010
0000
0000
0000
0000
0000
1000
0100
0000
0100
0000
0100
0000
0000
0000
0000
,  // measure 23
2002
0000
0000
3003
,  // measure 24
0001
0100
0000
0100
0010
0000
0010
1000
0000
1000
0001
0000
0010
0000
0100
0000
,  // measure 25
1100
0000
0000
1010
0000
0000
0110
0000
0000
0101
0000
0000
0011
0000
0000
1001
,  // measure 26
0000
1000
0001
0000
0000
0011
0000
0000
1010
0000
0000
0000
0000
0000
0000
0000
,  // measure 27
0001
0100
0010
1000
0001
0010
0001
0100
0010
1000
0010
0100
0001
0010
0100
0040
,  // measure 28
0004
0000
0000
0033
,  // measure 29
2002
3000
0003
0000
0000
0000
0000
0000
,  // measure 30
0000
0100
0000
0000
,  // measure 31
0000
0000
0000
0020
0000
2030
0000
3002
0000
0200
0000
0000
,  // measure 32
0303
0000
0000
0000
,  // measure 33
1001
0000
0000
0000
0101
0000
0100
0001
0100
0000
0000
0001
0000
1000
0100
0000
,  // measure 34
0010
0000
0000
0100
0000
0010
0001
0000
1000
0000
0000
0010
0000
1000
0010
0000
,  // measure 35
0100
0000
0000
0000
0001
0000
0010
0000
0100
0000
0000
0010
0000
0001
1000
0000
,  // measure 36
0010
0000
0000
0000
1000
0010
0000
1000
0010
0000
1000
0010
0000
1000
0010
0000
,  // measure 37
0100
0000
0001
0000
0011
0000
0010
0000
0100
0000
0000
0010
0000
0001
1000
0000
,  // measure 38
0010
0000
0000
0000
1001
0000
1000
0000
0001
0000
0000
0010
0000
0001
0100
0000
,  // measure 39
0010
0000
1010
0010
0100
0001
0011
0010
,  // measure 40
0100
1000
1001
0000
0000
0000
0000
0000
,  // measure 41
0000
0201
0010
0010
,  // measure 42
0010
0001
0001
0001
,  // measure 43
0301
1200
0010
0010
,  // measure 44
0010
1000
1000
1000
,  // measure 45
1300
0000
0000
0000
0002
0000
0000
0100
0000
0000
1003
0000
0200
0000
0000
0010
,  // measure 46
0000
0000
1300
0000
0020
0000
0000
0100
0000
0000
1030
0000
0002
0000
0000
0010
,  // measure 47
0000
0000
0100
0000
0203
0000
0000
0302
0000
0000
0023
0000
0032
0000
0000
2003
,  // measure 48
0000
0000
3200
0000
0340
0000
0000
0000
0000
0000
0000
0000
0000
0000
0130
0010
,  // measure 49
0001
0000
0000
0000
1000
0001
0100
0001
0010
0000
0100
0000
0010
0001
0000
0001
,  // measure 50
1000
0000
1000
0010
0000
0010
1000
0000
1000
0010
0000
0010
0100
0000
0010
1000
,  // measure 51
0100
0010
0100
0000
0021
0000
0000
0000
0130
0000
1000
0000
0001
0000
0100
0001
,  // measure 52
0000
0001
0010
0000
0100
0010
0001
1000
0001
0000
0000
1010
0000
0000
0101
0000
,  // measure 53
0001
0010
1200
0000
0310
0001
1001
0000
,  // measure 54
1010
0000
0101
0000
0011
0000
0110
0200
,  // measure 55
0310
0001
1000
0200
0301
0100
0020
0000
,  // measure 56
0032
0000
0000
0003
0101
0000
0000
1010
0000
0000
0101
0000
0000
0011
0000
0000
,  // measure 57
0110
0000
0000
0000
0010
0000
0001
0000
1000
0010
1000
0010
1000
0000
0100
0000
,  // measure 58
1000
0010
0100
0001
0010
0001
0100
0010
,  // measure 59
1000
0001
1000
0000
1200
0000
0000
0000
0310
0000
0001
0000
0100
0000
0001
0000
,  // measure 60
0010
0000
0001
0000
1000
0001
0100
0000
0101
0000
0000
0011
0000
0000
0001
0000
,  // measure 61
1000
0000
0100
0000
0020
0000
0000
0000
0130
0010
0001
0000
1001
0000
1000
0000
,  // measure 62
0010
0000
0100
0000
0001
0000
0010
0000
0001
0000
1000
0000
0100
0000
1000
0001
,  // measure 63
0100
0000
0000
0010
0000
0000
0100
0000
0000
0000
0000
0000
0110
0000
0000
0000
0000
0000
0000
0000
0000
0101
0000
0000
0000
0000
0000
0000
0000
0000
0001
0000
0000
1000
0000
0000
0100
0000
1000
0000
0000
0000
0000
0000
1000
0000
0001
0000
,  // measure 64
0000
0000
0000
0000
0000
0000
0001
0000
0100
0000
0000
0000
0020
0000
0000
0000
0000
0000
0000
0000
0000
0000
0000
0000
0000
0000
0000
0000
0000
0000
0000
0000
0000
0000
0000
0000
1030
0000
0000
0001
0000
0000
1000
0000
0000
0001
0000
0000
,  // measure 65
1000
0001
1000
0001
1000
0000
0001
0100
0001
0000
0000
0100
0000
0010
1000
0000
,  // measure 66
0100
0000
0000
0000
0010
0000
0001
0100
0010
0000
0000
1000
0000
1000
0010
0000
,  // measure 67
0100
0000
0000
0000
0010
0000
1000
0100
1000
0000
0000
0100
0000
0010
0001
0000
,  // measure 68
1000
0000
0000
0001
0100
0000
0001
1000
0000
0001
0010
0000
0001
1000
0000
0001
,  // measure 69
0100
0000
0010
0000
1000
0000
0010
0000
0000
0000
0100
0000
0001
0000
0000
0010
,  // measure 70
0000
0000
0001
0000
1000
0000
0010
0000
0000
0000
1000
0000
0100
0000
0000
1000
,  // measure 71
0000
0000
0001
0000
0010
0000
0100
0000
0000
0000
0010
0000
0001
0000
0000
1000
,  // measure 72
0000
0010
4004
0000
0000
0000
0000
0000
,  // measure 73
3003
0000
0000
0000
0101
0000
0011
0000
1001
0000
0001
0000
1000
0000
0001
0100
,  // measure 74
0000
0001
0010
0000
0100
0000
0010
0000
0001
0000
1000
0000
0010
0000
1000
0010
,  // measure 75
0000
0010
0100
0000
0010
0000
1000
0000
0001
0000
0010
0000
0001
0000
1000
0100
,  // measure 76
0000
0100
0010
0000
0011
0000
0000
0000
1010
0000
0000
0000
0101
0000
0000
0000
,  // measure 77
0011
0000
0000
0000
2001
0000
0000
0000
3010
0000
1000
0000
0100
0000
0010
0001
,  // measure 78
0000
0001
1000
0000
0010
0000
0100
0000
0001
0000
0010
0000
0100
0000
0010
0001
,  // measure 79
0000
0001
1000
0000
1001
0000
0000
0101
0000
0000
0001
0000
0011
0000
0000
0110
,  // measure 80
0000
1000
1200
0000
2300
0000
3020
0000
,  // measure 81
0230
0000
0301
0100
0010
1000
0100
1000
,  // measure 82
0001
0010
0001
0010
0001
0000
1000
0000
0010
0000
0100
0000
0001
0000
0010
0000
,  // measure 83
0001
1000
0001
1000
0001
0000
1000
0000
0010
0000
1000
0000
0100
0000
0010
0000
,  // measure 84
0001
0000
0000
0010
0000
0000
0001
0000
0000
1000
0000
0000
0100
0000
0000
0000
0000
0000
1000
0000
0001
0000
1000
0000
0001
0000
0000
1000
0000
0000
0001
0000
0000
0000
0000
0000
0100
0000
0000
0010
0000
0000
1000
0000
0000
0001
0000
0000
,  // measure 85
0010
0100
0010
0001
1000
0010
0100
0001
0010
0001
0100
0010
1000
0100
0010
0100
,  // measure 86
1000
0010
0100
0001
0010
0100
0010
0001
1000
0100
1000
0010
0100
0001
0010
0100
,  // measure 87
1000
0000
0000
0001
0000
0000
0100
0000
0000
0010
0000
0000
1000
0000
0000
0001
0000
0000
0010
0000
0000
0100
0000
0000
1000
0000
0000
0010
0000
0000
0100
0000
0000
0001
0000
0000
0010
0000
0100
0000
0010
0000
0100
0000
0010
0000
0100
0000
,  // measure 88
0010
0100
0010
0100
0010
0100
0010
0000
0000
0000
0000
0000
2002
0000
0000
0000
0000
0000
0000
0000
0000
0000
0000
0000
,  // measure 89
0000
0000
0000
0000
,  // measure 90
0000
0000
3003
0000
;
