#TITLE:Desperado;
#SUBTITLE:;
#ARTIST:Savant;
#TITLETRANSLIT:;
#SUBTITLETRANSLIT:;
#ARTISTTRANSLIT:;
#GENRE:;
#CREDIT:;
#BANNER:Desperado.png;
#BACKGROUND:Desperado-bg.png;
#LYRICSPATH:;
#CDTITLE:;
#MUSIC:Desperado.ogg;
#OFFSET:2.526000;
#SAMPLESTART:58.097576;
#SAMPLELENGTH:10.105263;
#LASTBEATHINT:2.384500;
#SELECTABLE:YES;
#BPMS:0.000000=95.000000
,92.000000=190.000000
;
#STOPS:92.000000=1.263000
;
#BGCHANGES:;
#KEYSOUNDS:;
#ATTACKS:;

//---------------dance-single - ----------------
#NOTES:
     dance-single:
     :
     Hard:
     11:
     0.707751,1.506433,0.392665,0.167091,0.384310,593.000000,546.000000,47.000000,20.000000,0.000000,0.000000,0.707751,1.506433,0.392665,0.167091,0.384310,593.000000,546.000000,47.000000,20.000000,0.000000,0.000000:
0000
0000
0000
0000
,
0000
0000
0000
0000
,
0000
0000
0000
0000
,
1000
0001
0010
0001
1000
0100
1000
0000
,
0001
0000
0010
0000
0001
0000
1000
0000
0010
0000
0100
0010
0100
0000
0001
0020
,
0100
0000
0230
0000
2300
0000
3000
0001
,
1000
0000
0010
0100
0000
0001
0010
0000
0200
0000
0000
0000
0310
0000
0001
2000
,
0010
0000
3020
0000
0230
0000
0301
0010
,
0100
0000
1000
0001
0000
0001
0100
0000
0010
0000
1000
0001
1000
0000
0001
0010
,
0100
1000
0100
0001
0100
0010
1100
0000
,
1000
0010
0001
0010
1000
0100
0011
0000
,
0001
0010
1000
0010
0100
0010
1100
0000
,
0100
0001
0100
0010
0001
0100
1010
0000
,
1000
0000
0001
0100
0010
0000
0100
0001
0000
0010
0000
0010
0100
0000
1000
0000
,
0001
0000
1000
0001
0010
0000
0100
0010
0000
0001
0000
0100
0010
0000
1000
0000
,
1100
0100
0001
0100
0110
0010
0001
0100
,
0110
0100
1000
0100
0110
0010
1000
0001
,
0011
0010
0100
1000
1100
1000
0001
0100
,
0101
0001
1000
0010
1010
1000
0100
0010
,
0001
0000
1000
0001
0010
0000
0100
0010
0001
0000
0100
0010
1000
0000
0100
0010
,
0001
0000
1000
0001
0100
0000
0010
1000
0100
0000
0010
0001
0100
0000
0010
1000
,
0100
0010
0100
0000
0010
0000
0001
0000
1000
0000
0010
0000
0100
0000
0001
0000
1000
0100
1000
0000
0100
0000
0010
0000
0100
0000
1000
0000
0001
0000
0010
0000
,
0001
0100
0001
0100
0010
0100
0010
1000
0010
1000
0010
1000
0001
0010
0001
0010
0001
0100
0010
1000
0001
0010
0001
0100
0010
1000
0100
1000
0010
0100
0001
0010
,
0000
0000
0100
0010
1001
0000
0100
1001
,
0101
0000
0100
0000
0001
0000
0010
0000
0100
0000
0100
0000
0000
0000
0010
0100
,
1000
0000
0100
1000
0010
0000
0100
0001
0010
0000
0010
0000
0001
0000
0001
0000
,
2000
0000
3010
0100
0001
0001
0000
0001
,
0010
0000
1000
0000
0000
0000
1000
0000
0010
0100
0010
0000
0100
0000
0010
0000
,
0001
0000
1000
0000
0010
0000
0100
0001
0100
0000
0010
0000
0000
0000
1000
0100
,
0010
0000
0100
0010
0001
0000
0010
0001
0100
0000
0010
0000
0010
0000
0010
0000
,
0200
0000
0301
0100
1000
0100
0010
1000
,
0001
0000
1001
0101
0011
0000
1001
1100
,
0100
0010
0001
1000
0001
0000
1000
0000
0010
0000
0100
0000
0001
0000
0000
0000
,
1000
0100
1000
0000
0010
0000
0100
0000
0001
0000
0010
0000
0000
0000
0000
0000
,
0100
0000
0000
0010
0000
0000
0001
0000
0000
1000
0000
0000
0010
0000
0100
0000
0001
0000
1000
0000
0000
0000
0000
0000
,
0100
0000
0010
0000
0100
0000
1000
0000
0010
0000
0100
0000
0001
1000
0001
0000
,
1000
0010
0100
0001
0010
0000
0100
0000
1000
0000
0100
0000
0001
0000
0100
0000
,
0010
0001
0010
0000
0001
0000
0100
0000
0001
0000
1000
0000
0000
0000
0000
0000
,
0100
0000
0000
0010
0000
0000
0001
1000
0100
0010
0000
0000
,
0100
0000
1100
0110
0011
0000
0010
1001
,
0000
0000
0001
0100
0010
0000
0100
0000
0001
0000
1000
0000
0100
0000
1000
0000
,
0001
0010
0001
0000
1000
0000
0001
0000
0010
0000
0100
0000
0010
0000
0001
0000
,
1000
0000
0000
0010
0000
0000
1000
0000
0000
0100
0000
0000
0010
0000
0100
0000
1000
0000
0001
0000
0000
0100
0000
0000
,
0001
0000
0100
0000
0010
0000
1000
0000
0100
0000
1000
0000
0001
1000
0001
0000
,
0010
0100
1000
0001
0100
0000
0001
0000
0100
0000
0010
0000
1000
0000
0100
0000
,
1000
0001
0010
0000
0010
0000
0001
0000
1000
0000
0100
0000
0010
0000
0000
0000
,
0100
0000
0000
0100
0000
0000
0100
1000
0001
0100
0000
0000
,
0010
0000
1001
0110
1001
0000
0010
1001
,
0000
0101
0000
0000
1000
0010
0010
0100
,
0002
0000
0013
0100
1000
0001
0010
0001
,
0200
0000
0320
0000
1030
0001
0010
0001
,
0200
0302
0023
0130
0100
0010
0010
0011
,
0000
1100
0000
0000
0100
1000
1000
0001
,
0100
0000
0010
0100
0001
0001
1000
0100
,
1000
0000
0010
0100
0001
0001
0010
0001
,
4004
0000
0000
0000
0000
3003
1000
0100
1000
0100
0010
0001
0100
0000
0110
0000
,
0000
1001
0001
0010
0100
0100
1000
0001
,
1100
0000
1000
0001
0010
0010
0001
0100
,
1010
0000
1000
0001
0010
0010
0001
0100
,
0011
0010
0100
1000
0100
0001
0100
0010
,
0000
1100
1000
0001
0100
0100
0001
0010
,
1100
0000
1000
0100
0010
0010
0100
1000
,
0011
0000
0001
0100
0010
0010
0100
0001
,
4004
0000
0000
0000
0000
0000
3003
0110
,
0000
1001
0000
0000
1000
0001
0000
0200
,
0010
0300
0001
0000
0100
0010
0000
2000
,
0100
3000
0010
0000
0001
1000
0000
0020
,
0100
0030
0001
0001
0001
0001
0000
0101
,
0000
1001
0000
0000
0001
1000
0000
0020
,
0100
0030
1000
0000
0010
0100
0000
0002
,
0010
0003
1000
0000
0010
0100
0000
0001
,
0010
0400
0010
0000
0010
0000
0010
0000
0010
0000
0010
0300
0010
0000
0110
0000
,
0000
1001
0000
0000
0000
0000
0000
0000
;

//---------------dance-single - ----------------
#NOTES:
     dance-single:
     :
     Easy:
     5:
     0.309119,0.361544,0.108609,0.158737,0.000000,259.000000,246.000000,13.000000,19.000000,0.000000,0.000000,0.309119,0.361544,0.108609,0.158737,0.000000,259.000000,246.000000,13.000000,19.000000,0.000000,0.000000:
0000
0000
0000
0000
,
0000
0000
0000
0000
,
0000
0000
0000
0000
,
1000
0001
1000
0001
,
0100
0010
0100
0010
,
2000
0100
0200
3300
,
0100
0010
0001
1000
,
0002
0100
0200
0303
,
0001
0010
0001
1000
,
0200
0010
0020
0330
,
0100
0010
0001
1000
,
0002
0100
0200
0303
,
0100
0010
2000
0000
,
3001
0010
0002
0003
,
1000
0001
0200
0300
,
0010
1000
0010
1000
,
0001
0100
0001
0100
,
0001
0010
0001
0010
,
0100
1000
0100
1000
,
0001
1000
0010
1000
,
0001
0100
0001
1000
,
0001
1000
0001
0000
1000
0001
1000
0000
,
0001
0000
0100
0000
0010
1000
0010
1000
,
0000
0000
1000
0001
1000
0000
0001
1000
,
0001
0100
0001
0010
,
0001
0001
1000
1000
,
0001
0100
0100
0000
,
0010
0000
1000
1000
,
0001
0010
0001
0000
,
0010
0100
1000
1000
,
0100
1000
1000
0010
,
0100
0000
0010
1000
0010
0000
0010
1000
,
0001
0000
1000
0000
,
0010
1000
0010
0000
,
1000
0000
0001
0000
,
0010
0001
0010
0010
,
0001
0000
1000
0000
,
0100
1000
0100
0000
,
1000
0100
0010
0010
,
0100
0010
0001
1000
,
0000
0001
0100
0010
,
1000
0010
0100
0001
,
0010
0001
1000
0100
,
1000
0001
0010
0001
,
1000
0100
1000
0010
,
0100
0001
0010
0001
,
1000
1000
0001
0001
,
1000
0000
0001
0100
0001
0000
0100
0010
,
0000
1010
0000
0000
1000
0000
0010
0000
,
0200
0310
1000
0001
,
0020
0031
0100
0010
,
1000
0010
1000
0000
0010
0000
0100
0010
,
0000
1000
0000
0000
0000
0000
0001
0000
,
0000
1000
0000
0010
,
0000
1000
0000
0100
,
2002
0000
0000
0000
0000
0000
3003
0001
,
0000
1001
0000
0000
0001
0000
0100
0000
,
0101
0001
0100
0010
,
1010
1000
0010
0100
,
0101
0000
0001
0000
0010
0000
0000
0001
,
0000
1001
0000
0000
0001
0000
1000
0000
,
1010
1000
0001
0010
,
0011
0001
0100
0010
,
2002
0000
0000
0000
0000
0000
3003
0001
,
0000
1000
0000
0000
0001
0000
0000
0000
,
0100
0001
0010
0000
,
0100
0010
0001
0000
,
0010
0000
0001
0000
0001
0000
0000
1000
,
0000
0001
0000
0000
1000
0000
0000
0000
,
0010
1000
0100
0000
,
0010
0001
0100
0000
,
0220
0000
0000
0000
0000
0000
0330
0110
,
0000
1001
0000
0000
0000
0000
0000
0000
;

//---------------dance-single - ----------------
#NOTES:
     dance-single:
     :
     Medium:
     9:
     0.471436,0.783345,0.334183,0.233928,0.100255,395.000000,355.000000,40.000000,28.000000,0.000000,0.000000,0.471436,0.783345,0.334183,0.233928,0.100255,395.000000,355.000000,40.000000,28.000000,0.000000,0.000000:
0000
0000
0000
0000
,
0000
0000
0000
0000
,
0000
0000
0000
0000
,
1000
0000
0010
0000
0100
0001
0010
0000
,
0100
0000
0010
0000
0001
0010
0100
0010
,
0002
0000
2003
0000
0020
0000
3030
0010
,
1000
0000
0000
0001
0000
0000
1000
0000
0200
0000
0000
0000
1300
0000
0010
0000
,
0200
0000
0302
0000
0020
0000
0033
0010
,
0100
0000
0000
0100
0000
0000
1000
0000
0001
0000
0001
0000
1000
0000
0001
0000
,
0200
0302
0020
0033
,
0010
0000
0000
0100
0000
0000
1000
0000
0002
0000
0000
0000
1003
0000
0010
0000
,
2000
3200
0020
0330
,
0100
0000
0000
1000
0000
0000
0001
0000
2000
0000
0000
0000
0000
0000
0000
0000
,
3001
0000
0100
0000
0020
0000
0030
0100
,
0010
0000
0000
1000
0000
0000
0010
0000
0200
0000
0000
0000
0000
0300
0000
0000
,
0010
1000
0010
0100
,
0001
0010
0001
1000
,
0100
1000
0001
0100
,
0010
1000
0010
0100
,
0001
0000
1000
0001
1000
0000
0000
0000
0001
0000
1000
0001
1000
0000
0000
0000
,
0001
0000
1000
0001
1000
0000
0000
0000
0001
0000
1000
0001
1000
0000
0000
0000
,
0001
0100
0001
0000
0100
0000
0010
0000
1000
0010
1000
0000
0010
0000
0100
0000
,
0001
0100
0001
0100
0001
0100
0001
0100
0010
1000
0010
1000
0010
1000
0010
1000
,
0000
0000
0001
1000
0100
0000
1000
1001
,
0000
0001
0100
0010
1000
0010
0000
0100
,
0001
0000
0001
0000
1000
0100
1000
0100
,
0020
0000
0031
1000
0001
0100
0000
0001
,
0010
0001
0000
0010
0001
1000
0001
1000
,
0100
0000
0000
0100
0010
0001
0000
0010
,
0001
0100
0001
0100
0010
0100
0010
0100
,
0001
0000
0100
0010
0100
0010
0000
1000
,
0001
0000
1000
0001
0100
0000
0010
1000
,
0100
1000
0100
0000
1000
0000
0001
0000
,
0100
0001
0100
0000
0001
0000
0010
0000
,
0100
0010
0100
0000
0010
0000
0001
0000
,
1000
0010
1000
0000
0010
0000
0100
0000
,
0001
0100
0001
0000
0100
0000
0010
0000
,
1000
0001
1000
0000
0001
0000
0000
0000
,
1000
0000
0000
0010
0000
0000
0100
0010
1000
0001
0000
0000
,
0010
0000
0100
0010
0001
0000
1000
1001
,
0000
0001
0101
0000
0101
0000
0101
0000
,
1010
1010
1010
1010
,
1100
1100
1100
1100
,
0011
0011
0011
0011
,
1001
1001
0101
0101
,
0011
0011
0110
0110
,
1100
0000
0000
1100
0000
0000
1000
0001
1000
0001
0000
0000
,
0110
0000
0001
0100
0010
0000
1000
0010
,
0000
0101
0000
0000
0001
0000
1000
0000
,
0020
1030
0010
0100
,
0200
0301
0100
0010
,
1000
1000
0010
0100
0001
1000
0010
0100
,
0000
1001
0000
0000
0001
0000
0020
0000
,
0031
0200
0310
2000
,
3001
0020
0130
0020
,
0002
0000
0000
0000
0000
0000
0033
1001
,
0000
1100
0100
0000
1000
0000
0010
1000
,
0001
0000
0010
0000
0100
0000
0010
0001
,
1000
0000
0010
0000
0100
0000
0001
1000
,
0010
0010
0100
0010
1000
0001
0010
0100
,
0000
1001
0000
0000
0001
0000
0010
0001
,
0100
0000
0010
0000
1000
0000
0001
1000
,
0100
0000
0010
0000
0001
0000
0100
0010
,
2002
0000
0000
0000
0000
0000
3003
1001
,
0000
0101
0000
0000
0001
1000
0000
0001
,
0100
0000
0001
0000
0100
0010
0000
0100
,
0010
0000
1000
0000
0010
0100
0000
0010
,
0100
0000
0001
1000
0001
1000
0000
1001
,
0000
0110
0000
0000
0001
1000
0000
1000
,
0010
0000
0100
0000
0010
1000
0000
1000
,
0001
0000
0010
0000
0010
0100
0000
0100
,
4000
0004
0000
0000
0000
0000
0000
0000
0000
0000
0000
0000
3003
0000
0110
0000
,
0000
1001
0000
0000
0000
0000
0000
0000
;

//---------------dance-single - ----------------
#NOTES:
     dance-single:
     :
     Beginner:
     2:
     0.124125,0.210901,0.041773,0.000000,0.000000,104.000000,99.000000,5.000000,0.000000,0.000000,0.000000,0.124125,0.210901,0.041773,0.000000,0.000000,104.000000,99.000000,5.000000,0.000000,0.000000,0.000000:
// measure 0
0000
0000
0000
0000
,  // measure 1
0000
0000
0000
0000
,  // measure 2
0000
0000
0000
0000
,  // measure 3
0000
0000
0000
0000
,  // measure 4
0000
0000
0000
0000
,  // measure 5
0010
0000
0000
0000
,  // measure 6
1000
0000
0000
0000
,  // measure 7
0001
0000
0000
0000
,  // measure 8
0100
0000
0000
0000
,  // measure 9
0010
0000
0010
0000
,  // measure 10
1000
0000
1000
0000
,  // measure 11
0001
0000
0001
0000
,  // measure 12
0100
0000
0100
0000
,  // measure 13
1001
0000
0000
0000
,  // measure 14
1000
0000
0000
0000
,  // measure 15
0010
0000
0010
0000
,  // measure 16
0010
0000
0010
0000
,  // measure 17
0100
0000
0100
0000
,  // measure 18
0100
0000
0100
0000
,  // measure 19
0001
0001
0001
0000
,  // measure 20
1000
1000
1000
0000
,  // measure 21
0010
0000
0100
0000
,  // measure 22
0001
0000
1000
0000
,  // measure 23
0000
0000
0000
0000
,  // measure 24
0010
0000
0000
0000
,  // measure 25
1000
0000
1000
0000
,  // measure 26
0001
0000
0000
0000
,  // measure 27
0100
0000
0100
0100
,  // measure 28
0000
0000
0010
0000
,  // measure 29
1000
0000
1000
0000
,  // measure 30
0001
0000
1000
0000
,  // measure 31
1001
0000
0000
0000
,  // measure 32
0001
0001
0001
0000
,  // measure 33
1000
0000
0001
0000
,  // measure 34
1000
0000
0000
0000
,  // measure 35
0010
0000
0010
0000
,  // measure 36
0100
0100
0100
0000
,  // measure 37
0010
0000
1000
0000
,  // measure 38
0001
0000
1000
0000
,  // measure 39
0010
0000
0000
0000
,  // measure 40
0000
1000
0000
0000
,  // measure 41
1000
0000
0000
0000
,  // measure 42
0001
0000
0000
0000
,  // measure 43
0100
0000
0000
0000
,  // measure 44
0010
0000
0000
0000
,  // measure 45
1000
0000
0000
0000
,  // measure 46
0001
0000
1000
0000
,  // measure 47
0001
0000
0000
0000
,  // measure 48
0010
0000
0000
0000
,  // measure 49
0100
0000
0000
0000
,  // measure 50
0010
0000
0000
0000
,  // measure 51
1000
1000
0000
0000
,  // measure 52
0000
0001
0000
0000
,  // measure 53
1000
0000
0000
0000
,  // measure 54
0001
0000
0000
0000
,  // measure 55
0110
0000
0000
0000
,  // measure 56
0010
0000
0000
0000
,  // measure 57
1000
0000
0000
0000
,  // measure 58
0001
0000
0000
0000
,  // measure 59
0010
0000
0000
0000
,  // measure 60
0001
0000
0000
0000
,  // measure 61
0100
0000
0000
0000
,  // measure 62
0010
0000
0000
0000
,  // measure 63
1001
0000
0000
0000
,  // measure 64
0001
0000
0000
0000
,  // measure 65
0100
0000
0000
0000
,  // measure 66
0010
0000
0000
0000
,  // measure 67
1000
1000
1000
0000
,  // measure 68
0001
0000
0000
0000
,  // measure 69
0010
0000
0000
0000
,  // measure 70
0001
0000
0000
0000
,  // measure 71
1001
0000
0000
0000
0000
0000
0000
0010
,  // measure 72
0000
0010
0000
0000
0000
0000
0000
0000
;
