#TITLE:Dark Prism;
#SUBTITLE:;
#ARTIST:Tsukasa;
#TITLETRANSLIT:;
#SUBTITLETRANSLIT:;
#ARTISTTRANSLIT:;
#GENRE:;
#CREDIT:;
#BANNER:Dark Prism.png;
#BACKGROUND:Dark Prism-bg.png;
#LYRICSPATH:;
#CDTITLE:cdtitle.png;
#MUSIC:Dark Prism.ogg;
#OFFSET:1.183000;
#SAMPLESTART:79.339996;
#SAMPLELENGTH:12.000000;
#LASTBEATHINT:0.454450;
#SELECTABLE:YES;
#BPMS:0.000000=149.000000
,136.000000=74.500000
,152.000000=149.000000
;
#STOPS:
;
#BGCHANGES:4.000=Dark Prism BGA.avi=1.000=1=1=1=StretchRewind==CrossFade==,
99999=-nosongbg-=1.000=0=0=0 // don't automatically add -songbackground-
;
#KEYSOUNDS:;
#ATTACKS:;

//---------------dance-single - ----------------
#NOTES:
     dance-single:
     :
     Hard:
     8:
     0.463475,0.540238,0.154492,0.000000,0.223606,380.000000,19.000000,0.000000,0.000000,0.000000,0.000000,0.463475,0.540238,0.154492,0.000000,0.223606,380.000000,19.000000,0.000000,0.000000,0.000000,0.000000:
0000
0000
0000
0000
,
0000
0000
0000
0000
,
0001
0000
1000
0000
0010
1000
0010
0000
,
0100
0000
0001
0000
0010
0100
0010
0000
,
0001
0000
1000
0000
0100
1000
0100
0000
,
0010
0000
0000
0000
0001
0000
0000
0000
1000
0000
0000
0001
0000
0000
0010
0000
,
0100
0000
0010
0000
0001
1000
0001
0000
,
0100
0000
0001
0000
0010
0100
0010
0000
,
0100
0000
1000
0000
0001
0100
0001
0000
,
0010
0000
0000
0000
0100
0000
0000
0000
0010
0000
0000
0001
0000
0000
1000
0000
,
0010
0100
0001
0000
0001
0100
0000
0100
,
0010
0000
0010
1000
0000
1000
0100
0000
,
0100
0010
0000
0000
0000
0000
0000
0000
,
0000
0000
0000
0000
0100
0000
1000
0000
0010
0000
0000
0100
0000
0000
0001
0000
,
0100
0010
0100
0000
0100
0010
0000
0100
,
1000
0000
0100
0001
0000
0001
0010
0000
,
0010
1000
0010
0000
0001
0000
1000
0000
,
1100
0000
0000
0000
1000
0000
0010
0000
0110
0000
0000
1001
0000
0000
1000
0000
,
1100
0100
0010
0000
0010
0001
0000
0001
,
0100
0000
0100
0010
0000
0010
1000
0001
,
1000
0000
0000
0100
0000
0010
0000
0000
0001
0000
0000
0100
0000
0010
0000
0000
,
1000
0000
0000
0010
0000
0100
0000
0000
0001
0000
0000
1000
0000
0100
0000
0000
,
0010
0100
1000
0000
0100
0010
0000
0010
,
0001
0000
0001
0100
0000
0010
1000
0000
,
0001
0010
0100
0000
0010
0000
0001
0000
,
1000
0000
0010
0000
0100
0010
1000
0001
,
0100
0000
0010
0000
0100
0010
1000
0001
,
1000
0000
0001
0000
0100
0010
1000
0001
,
0010
0000
0001
0000
0100
0010
0001
1000
,
0010
0000
1000
0000
0100
0010
0001
1000
,
0100
0010
0001
0010
0000
0001
0010
0100
,
0000
0100
0010
0001
0000
0001
0100
1000
,
0100
0010
1000
0010
0001
0010
0001
0010
,
1000
0000
0010
0100
0000
0010
0100
0000
0010
0100
0000
0010
1000
0000
0001
0000
,
0101
0000
0001
0000
0000
0010
0000
0000
0100
0000
0000
0010
0000
0001
1000
0010
,
0000
0000
0100
0000
0000
0001
0000
0000
1000
0000
0000
0100
0000
1000
0100
0010
,
0100
0000
1000
0000
0010
0000
0000
0000
0000
0000
0100
0000
0000
0000
0000
0000
0001
0000
0000
0000
0000
0000
1000
0000
0000
0000
0000
0000
0000
0000
0001
1000
,
0001
1000
0000
0001
0000
0100
0000
0001
0000
0010
0100
1000
0000
0100
0010
0001
,
1001
0000
0001
0000
0000
0100
0000
0000
,
0001
0000
0000
0010
0000
0100
0010
0001
,
0000
0000
1000
0000
0000
0010
0000
0000
,
0001
0000
0000
0010
0000
0100
0010
1000
,
0001
0000
0010
0000
0000
0001
0000
0000
,
1000
0000
0000
0000
0000
0000
0010
0000
0000
0000
0000
0000
0000
0000
0100
0010
,
0100
0010
0000
1000
0000
0000
0001
1000
,
0100
0000
0000
0010
0000
0000
0001
0000
0000
1000
0000
0000
0010
0000
0100
0000
,
1001
0001
0010
0000
0100
1000
0000
0100
,
0010
0000
0100
1000
0000
0100
0001
0100
,
0010
0001
1000
0000
0001
0100
0000
0001
,
0010
0000
0001
1000
0000
0001
0100
1000
,
0100
0010
1000
0000
0010
0100
0000
0010
,
0001
0000
0000
0000
0010
0000
0100
0000
0000
0000
0100
0000
0001
0000
0010
0100
,
1000
0001
0000
0100
0000
1000
0000
0100
,
0000
0100
0010
1000
0001
0010
1000
0010
,
0100
0000
1000
0100
1000
0000
0000
0000
0000
0000
0110
0000
0000
0000
0000
0000
,
0011
0000
0000
0000
0000
0000
1001
0000
0000
0000
1000
0000
0010
0100
0001
0100
,
0000
0000
0110
0000
0000
0101
0000
0000
,
0011
0000
0000
0000
0000
0000
1100
0000
0000
0000
0000
0000
0001
0010
0100
1000
,
0100
0000
1000
0001
0010
0000
0000
0000
0000
0000
0100
0000
1000
0000
0001
0000
,
0000
0000
0100
0000
0000
0000
0001
0000
0000
0000
1000
0000
0000
0000
0100
0010
,
0001
0010
0000
0100
0000
0010
0000
0001
,
1100
0000
0000
0101
0000
0000
1010
0000
0000
0011
0000
0000
0001
0000
0010
0000
,
0110
0100
0010
0000
0010
0001
0000
0001
,
0100
0000
0100
0010
0000
0010
1000
0000
,
1000
0001
0000
0000
0000
0000
0000
0000
,
0000
0000
0000
0000
0000
0000
0000
0000
0001
0000
0000
0100
0000
0000
0010
0000
,
1000
0100
0001
0000
0001
0100
0000
0100
,
0010
0000
0010
0001
0000
0010
1000
0000
,
0010
0100
1000
0000
0001
0000
0100
0000
,
0001
0000
0000
0010
0000
0000
0100
0000
0000
1000
0000
0000
0001
0100
0001
0010
;

//---------------dance-single - ----------------
#NOTES:
     dance-single:
     :
     Easy:
     4:
     0.253227,0.312490,0.146361,0.073180,0.000000,191.000000,18.000000,9.000000,0.000000,0.000000,0.000000,0.253227,0.312490,0.146361,0.073180,0.000000,191.000000,18.000000,9.000000,0.000000,0.000000,0.000000:
0000
0000
0000
0000
,
0000
0000
0000
0000
,
0001
0000
1000
0000
,
0001
0000
1000
0000
,
0001
0000
1000
0000
,
0001
0000
0100
0100
,
0010
0000
1000
0000
,
0010
0000
1000
0000
,
0010
0000
1000
0000
,
0010
0000
1000
0001
,
0100
0000
0001
0000
0000
0100
0000
0000
,
0010
0000
0000
1000
0000
0000
0001
0000
,
0000
0100
0000
0000
0000
0000
0000
0000
,
0000
0000
0100
0010
,
1000
0000
0001
0000
0000
1000
0000
0000
,
0100
0000
0000
1000
0000
0000
0010
0000
,
0000
0100
0000
0000
0000
0000
0000
0000
,
0110
0000
1001
0000
,
0001
0000
0100
0000
0000
0010
0000
0000
,
1000
0000
0000
0100
0000
0000
1000
0000
,
0010
0000
0100
0000
,
0001
0000
1000
0000
,
0001
0000
0100
0000
0000
0010
0000
0000
,
1000
0000
0000
0100
0000
0000
0010
0000
,
0000
0100
0000
0000
0010
0000
0000
0000
,
0001
0000
1000
0001
,
0100
0000
0001
1000
,
0100
0000
1000
0001
,
0100
0000
0001
1000
,
0100
0000
1000
0001
,
0010
0001
1000
0010
,
1000
0001
0010
0001
,
1000
1000
0010
0010
,
0110
0010
0110
0100
,
1001
0000
0001
0000
,
1000
0000
0100
0000
,
1000
0000
0010
0000
,
0100
0000
0001
0000
,
1000
0010
0000
0000
,
0100
0000
0000
0010
,
1000
0001
0000
0000
,
0100
0000
0000
0001
,
1000
1000
0001
0001
,
0100
0100
0010
0010
,
0100
0010
1000
0001
,
0220
0000
0000
0330
,
0200
0301
0100
0010
,
1000
0100
0010
0200
,
1300
0100
1000
0010
,
0100
0001
1000
0020
,
0130
0001
1000
0010
,
1000
0100
1000
0010
,
0100
0001
1000
0100
,
0010
0100
1000
0010
,
0200
0000
0301
0000
0000
0100
0000
0000
,
0010
0000
0000
1000
0000
0000
0020
0000
,
0130
0000
0001
0000
0000
1000
0000
0000
,
0100
0000
0000
1000
0000
0000
0020
0000
,
1030
0000
0010
0000
0000
0100
0000
0001
,
0000
1000
0000
0100
0000
0000
0000
0000
,
1000
0000
0000
0100
0000
0000
0010
0000
,
0001
0010
0100
1000
,
0001
0000
1001
0000
0000
1001
0000
0000
,
0110
0000
0000
0110
0000
0000
0101
0000
,
0000
1010
0000
0000
0000
0000
0000
0000
,
0000
0000
0000
0000
2000
0000
0000
3000
,
0001
0000
0101
0000
0000
1010
0000
0000
,
1100
0000
0000
0011
0000
0000
1100
0000
,
0000
1001
0000
0000
0000
0000
0000
0000
,
0001
0000
0100
0000
0010
0000
1000
0001
;

//---------------dance-single - ----------------
#NOTES:
     dance-single:
     :
     Medium:
     6:
     0.368224,0.426123,0.300852,0.000000,0.105705,280.000000,37.000000,0.000000,0.000000,0.000000,0.000000,0.368224,0.426123,0.300852,0.000000,0.105705,280.000000,37.000000,0.000000,0.000000,0.000000,0.000000:
0000
0000
0000
0000
,
0000
0000
0000
0000
,
1000
0000
0001
0000
0010
0001
0010
0000
,
0001
0000
1000
0000
0010
1000
0010
0000
,
0001
0000
1000
0000
0100
1000
0100
0000
,
1000
0000
0000
0000
0001
0000
0000
0000
0100
0000
0000
0001
0000
0000
0100
0000
,
0010
0000
1000
0000
0100
0010
0100
0000
,
0010
0000
0001
0000
0100
0010
0100
0000
,
0010
0000
1000
0000
0001
1000
0001
0000
,
1000
0000
0000
0000
0100
0000
0000
0000
0010
0000
0000
0100
0000
0000
1000
0000
,
0001
0000
0101
0000
0000
1010
0000
0000
,
0101
0000
0000
1010
0000
0000
0101
0000
,
0000
1010
0000
0000
0000
0000
0000
0000
,
0000
0000
0000
0000
0000
0000
0000
0000
0010
0000
0000
0100
0000
0000
0001
0000
,
1000
0000
1100
0000
0000
0011
0000
0000
,
1100
0000
0000
0011
0000
0000
1100
0000
,
0000
1001
0000
0000
0000
0000
0000
0000
,
0110
0000
0000
0000
0100
0000
0010
0000
1000
0000
0000
0001
0000
0000
0010
0000
,
0001
0000
1100
0000
0000
0110
0000
0000
,
0011
0000
0000
0110
0000
0000
1001
0000
,
0000
0101
0000
0000
0001
0000
0000
0000
,
1000
0000
0010
0100
,
0001
0000
1001
0000
0000
1100
0000
0000
,
1001
0000
0000
0101
0000
0000
0011
0000
,
0000
0110
0000
0000
0010
0000
0000
0000
,
0100
0000
0010
0000
0100
1000
0010
0100
,
0001
0000
0000
0000
1000
0100
0010
0001
,
0000
0000
0000
0000
1000
0100
0010
0001
,
0000
0000
0000
0000
1000
0100
0010
0001
,
0000
0000
0000
0000
1000
0100
0010
0001
,
0000
1000
0100
0010
0000
0100
0010
0001
,
0000
0001
0010
0100
0000
0010
0100
1000
,
0001
1000
0010
0100
,
0001
0000
0000
0100
0000
0000
0010
0000
0000
1000
0000
0000
0001
0000
1000
0000
,
0001
0000
0010
0000
0000
0100
0000
0000
1000
0000
0000
0001
0000
0000
0100
0001
,
0000
0000
0100
0000
0000
0010
0000
0000
1000
0000
0000
0001
0000
0000
0010
0100
,
0000
0000
0010
0000
0000
0001
0000
0000
1000
0000
0000
0010
0000
0000
0000
0000
,
0100
0010
0000
1000
0000
0001
0000
0010
0000
0100
0010
0100
0000
0100
1000
0100
,
0000
0000
0010
0000
0000
0001
0000
0000
,
1000
0000
0000
0010
0000
0000
0100
0001
,
0000
0000
0100
0000
0000
0010
0000
0000
,
1000
0000
0000
0001
0000
0000
1000
0100
,
0000
0000
1000
0000
0000
0010
0000
0100
,
0000
0001
0000
1000
0000
0000
0000
0001
,
0100
0010
0000
0100
0000
0000
0010
1000
,
0001
0000
0000
0010
0000
0000
0100
0000
0000
1000
0000
0000
0100
0000
0010
0000
,
0001
1000
0010
0000
0000
0100
0001
1000
,
0000
0000
0000
0000
0000
0000
0100
0010
,
0000
0100
1000
0000
0000
0010
0100
0001
,
0000
0000
0000
0000
0000
0000
1000
0001
,
0100
0001
0010
0000
0000
0100
0010
0001
,
0000
1000
0000
0010
0000
0000
0000
0100
,
0010
1000
0000
0010
0000
0001
0000
0010
,
0000
0100
0010
1000
0000
0010
0100
0001
,
0000
1000
0001
0000
0001
0010
0000
0010
,
0100
0000
0100
1000
0000
0000
0100
0010
,
0000
0100
1000
0000
0100
0010
0000
0010
,
0001
0000
0001
0100
0000
0000
0010
0100
,
0001
1000
0100
0000
0000
0100
1000
0010
,
0000
0100
0000
0001
0000
0000
0000
0001
,
1000
0010
0000
1000
0000
0010
0000
0100
,
0001
0000
0000
0010
0000
0000
0100
0000
0000
1000
0000
0000
0001
0000
1000
0000
,
0001
0000
0101
0000
0000
1010
0000
0000
,
0011
0000
0000
1100
0000
0000
0011
0000
,
0000
1001
0000
0000
0000
0000
0000
0000
,
0000
0000
0001
0100
,
0010
0000
0110
0000
0000
0101
0000
0000
,
1010
0000
0000
0101
0000
0000
1001
0000
,
0000
1100
0000
0000
0000
0000
0000
0000
,
1000
0000
0001
0000
0100
0000
0010
1000
;

//---------------dance-single - ----------------
#NOTES:
     dance-single:
     :
     Beginner:
     2:
     0.145199,0.226859,0.089443,0.000000,0.000000,114.000000,11.000000,0.000000,0.000000,0.000000,0.000000,0.145199,0.226859,0.089443,0.000000,0.000000,114.000000,11.000000,0.000000,0.000000,0.000000,0.000000:
// measure 0
0000
0000
0000
0000
,  // measure 1
0000
0000
0000
0000
,  // measure 2
1000
0000
0000
0000
,  // measure 3
0001
0000
0000
0000
,  // measure 4
1000
0000
0000
0000
,  // measure 5
0001
0000
1000
0000
,  // measure 6
1001
0000
0000
0000
,  // measure 7
0010
0000
0000
0000
,  // measure 8
0100
0000
0000
0000
,  // measure 9
0010
0000
0100
0000
,  // measure 10
0010
1000
0000
1000
,  // measure 11
0000
1000
0000
1000
,  // measure 12
0000
1000
0000
0000
,  // measure 13
0000
0000
1000
0001
,  // measure 14
0100
0001
0000
0001
,  // measure 15
0000
0001
0000
0001
,  // measure 16
0000
0001
0000
0000
,  // measure 17
1001
0000
0010
0000
,  // measure 18
1001
0001
0000
1000
,  // measure 19
0000
0010
0000
0100
,  // measure 20
0000
0010
0000
0000
,  // measure 21
0100
0000
0010
0000
,  // measure 22
1001
0000
0000
0000
,  // measure 23
1000
0000
0000
0000
,  // measure 24
0100
0000
0000
0000
,  // measure 25
1000
0000
0000
0001
,  // measure 26
0100
0000
0000
0010
,  // measure 27
0000
0000
0000
0100
,  // measure 28
0000
0000
0000
0001
,  // measure 29
0000
0000
0000
1000
,  // measure 30
0010
0000
0100
0000
,  // measure 31
0001
0000
1000
0000
,  // measure 32
0010
0010
0100
0100
,  // measure 33
0010
1000
0001
0100
,  // measure 34
1001
0000
0000
0000
,  // measure 35
0100
0000
0000
0000
,  // measure 36
1000
0000
0000
0000
,  // measure 37
0001
0000
0100
0000
,  // measure 38
0010
0100
0000
0000
,  // measure 39
0001
0000
0000
0000
,  // measure 40
1000
0001
0000
0000
,  // measure 41
0100
0000
0000
0000
,  // measure 42
0010
0100
0000
0000
,  // measure 43
0010
0000
0000
0000
,  // measure 44
1000
0000
0001
0000
,  // measure 45
0110
0000
0000
0000
,  // measure 46
0100
1001
0000
0000
,  // measure 47
0001
0000
0000
1000
,  // measure 48
0000
0100
0000
0000
,  // measure 49
1000
0000
0000
0000
,  // measure 50
0000
0001
0000
0000
,  // measure 51
0100
0000
0000
0000
,  // measure 52
0001
0000
0000
0000
,  // measure 53
1000
0000
0001
0000
,  // measure 54
0100
1001
0000
0000
,  // measure 55
0010
0000
0000
0010
,  // measure 56
0000
0100
0000
0000
,  // measure 57
0010
0000
0000
1000
,  // measure 58
0000
0001
0000
1000
,  // measure 59
1000
0000
0100
0000
,  // measure 60
1001
0000
0110
0000
,  // measure 61
1001
0000
0000
0000
,  // measure 62
0000
0100
0000
0010
,  // measure 63
0000
1000
0000
0001
,  // measure 64
0000
1000
0000
0000
,  // measure 65
0000
0000
0001
0001
,  // measure 66
0010
0001
0000
0010
,  // measure 67
0000
0100
0000
1000
,  // measure 68
0000
0001
0000
0000
,  // measure 69
1000
0000
0001
1000
;
