#VERSION:0.83;
#TITLE:Damage Per Second;
#SUBTITLE:;
#ARTIST:Maozon;
#TITLETRANSLIT:;
#SUBTITLETRANSLIT:;
#ARTISTTRANSLIT:;
#GENRE:;
#ORIGIN:;
#CREDIT:;
#BANNER:Damage Per Second.png;
#BACKGROUND:Damage Per Second-bg.png;
#PREVIEWVID:;
#JACKET:Damage Per Second-jacket.png;
#CDIMAGE:;
#DISCIMAGE:;
#LYRICSPATH:;
#CDTITLE:CDtitle.png;
#MUSIC:Damage Per Second.mp3;
#OFFSET:-0.720000;
#SAMPLESTART:88.855591;
#SAMPLELENGTH:10.847458;
#SELECTABLE:YES;
#BPMS:0.000=177.000,
100.000=88.500,
112.000=177.000,
120.000=88.500,
132.000=177.000,
156.000=88.500,
164.000=177.000,
180.000=88.500,
188.000=177.000,
252.000=88.500,
260.000=177.000;
#STOPS:;
#DELAYS:;
#WARPS:;
#TIMESIGNATURES:0.000=4=4;
#TICKCOUNTS:0.000=4;
#COMBOS:0.000=1;
#SPEEDS:0.000=1.000=0.000=0;
#SCROLLS:0.000=1.000;
#FAKES:;
#LABELS:0.000=Song Start;
#BGCHANGES:;
#KEYSOUNDS:;
#ATTACKS:
;

//---------------dance-single - ----------------
#NOTEDATA:;
#CHARTNAME:;
#STEPSTYPE:dance-single;
#DESCRIPTION:;
#CHARTSTYLE:;
#DIFFICULTY:Hard;
#METER:7;
#RADARVALUES:0.391048,0.741538,0.296615,0.211868,0.097459,323.000000,288.000000,35.000000,25.000000,0.000000,0.000000,0.000000,0.000000,0.000000,0.391048,0.741538,0.296615,0.211868,0.097459,323.000000,288.000000,35.000000,25.000000,0.000000,0.000000,0.000000,0.000000,0.000000;
#CREDIT:;
#NOTES:
0000
0000
0000
0000
,
0000
0000
0000
0000
,
0000
0000
0000
0000
,
0000
0000
0000
0000
,
0000
0000
0000
0000
,
0000
0000
0000
0000
,
0000
0000
0000
0000
,
2010
0000
3000
1200
0000
0000
0300
0021
,
0000
0000
0030
2010
0000
0000
3000
0000
,
0001
0010
0001
1000
,
0100
0000
1000
0000
0010
0000
0100
0001
,
0010
0001
1000
0100
,
1000
0001
0200
0320
,
1030
0001
0010
0001
,
1000
0100
1000
0010
,
0100
0001
0010
0001
,
1000
0000
0000
0000
,
0000
0001
0000
0000
1000
0000
0000
0010
,
0000
1000
0000
0010
0100
0010
0000
0100
,
0000
0001
0000
0000
1000
0000
0000
0010
,
0000
1000
0000
0001
0010
0001
0100
0000
,
0000
0001
0000
0000
1000
0000
0000
0100
,
0000
1000
0000
0010
0100
0001
0000
1000
,
0020
0000
0000
0000
,
0130
0000
0000
0100
0000
0000
0010
0000
0000
0010
0000
0000
1001
0000
0000
0000
,
0001
0000
0101
0000
1000
0000
1010
1000
,
0100
0000
1100
0000
1000
0100
0001
0100
,
0010
0011
0001
1001
,
2010
0000
3000
0102
0000
0000
0003
0021
,
0000
0000
0030
1200
0000
0000
0300
0000
,
1000
0000
1010
0000
0010
0000
0110
0100
,
0001
0000
0011
0000
0010
1000
0010
0001
,
0100
0101
0001
1001
,
1100
0000
0010
0001
0000
0010
0001
1000
,
0000
0001
0100
0001
0010
1000
0010
0100
,
1000
0000
0010
1000
0000
1000
0001
0000
,
0001
0010
0000
0010
0001
0000
0001
0010
,
0100
0000
0100
0010
0000
0010
0001
0000
,
0001
1000
0000
1000
0020
0000
0230
0000
,
0301
0000
0000
0000
1000
0000
0001
0000
0000
0000
0001
0000
0010
0000
0000
0000
0010
0000
0001
0000
0000
0000
0001
0000
0100
0000
0000
0100
0000
0000
0100
0000
,
0010
0000
0100
0010
0000
1000
0010
0000
0100
0010
0000
1000
0010
0000
0100
0000
,
0001
0000
1000
0010
0000
0100
0001
0000
,
1000
0001
0000
0100
0001
0000
1000
0100
,
0010
0000
0001
0010
0000
0100
1000
0000
,
0001
1000
0000
0010
0200
0000
0320
0000
,
1030
0000
0000
0000
0001
0000
0100
0000
0000
0000
0010
0000
1000
0000
0000
0000
1000
0000
0100
0000
0000
0000
0100
0000
0001
0000
0000
0100
0000
0000
1000
0000
,
0010
0000
0000
0000
1000
0000
0001
0000
0000
0000
1000
0000
0100
0000
0000
0000
0000
0000
0110
0000
0000
0011
0000
0000
0101
0000
0000
1010
0000
0000
0000
0000
,
0001
0010
0010
0000
,
0001
1000
1000
0001
,
1000
0010
0010
0000
,
1000
0000
0010
0000
0100
0001
0100
0000
,
0001
1000
1000
0000
,
0100
1000
0010
0100
,
0002
0000
0000
0000
,
2000
0000
0000
3003
,
0110
0000
0001
0100
0010
1000
0001
1000
,
0000
0010
0100
0001
1000
0001
0011
0000
,
1100
0000
1000
0010
0100
0001
1000
0001
,
0010
0100
1000
0100
1000
0001
0101
0000
,
1001
0000
1000
0010
0100
0001
1000
0010
,
0100
0001
1000
0001
1000
0100
0010
0001
,
1002
0000
0003
0201
0000
0000
0300
1020
,
0000
0000
0030
2100
0000
0000
3000
0000
,
0001
0000
0011
0000
0010
0000
0110
0100
,
2000
3001
0100
0000
0001
0010
0100
0010
,
0002
0000
0000
0000
,
0203
0000
0000
0000
0000
0310
1000
0100
,
0010
0000
0100
1000
0000
1000
0001
0020
,
0000
0000
0000
0000
,
0000
0000
0000
0000
,
0130
0000
0000
0000
;

//---------------dance-single - ----------------
#NOTEDATA:;
#CHARTNAME:;
#STEPSTYPE:dance-single;
#DESCRIPTION:;
#CHARTSTYLE:;
#DIFFICULTY:Medium;
#METER:5;
#RADARVALUES:0.285719,0.355938,0.084747,0.093222,0.008475,236.000000,226.000000,10.000000,11.000000,0.000000,0.000000,0.000000,0.000000,0.000000,0.285719,0.355938,0.084747,0.093222,0.008475,236.000000,226.000000,10.000000,11.000000,0.000000,0.000000,0.000000,0.000000,0.000000;
#CREDIT:;
#NOTES:
0000
0000
0000
0000
,
0000
0000
0000
0000
,
0000
0000
0000
0000
,
0000
0000
0000
0000
,
0000
0000
0000
0000
,
0000
0000
0000
0000
,
0000
0000
0000
0000
,
1001
0000
0000
0110
0000
0000
0000
1010
,
0000
0000
0000
0101
0000
0000
0000
0000
,
0001
0010
0001
1000
,
0100
0000
1000
0000
0010
0000
0100
0001
,
0010
0001
1000
0100
,
1000
0010
0200
0302
,
0013
0001
0010
0100
,
1000
0001
0100
0001
,
1000
0010
0100
0001
,
2000
0000
0000
0000
,
3001
0000
0000
0000
1000
0000
0000
0010
,
0000
1000
0000
0010
0100
0010
0000
0100
,
0000
0001
0000
0000
0010
0000
0000
0001
,
0000
1000
0000
0001
0100
0001
0010
0000
,
0000
0001
0000
0000
1000
0000
0000
0100
,
0000
1000
0000
0010
0100
0010
0000
0100
,
0002
0000
0000
0000
,
1003
0000
0000
1000
0000
0000
1000
0000
0000
1000
0000
0000
1001
0000
0000
0000
,
0001
0000
0010
0000
0100
0000
1000
0001
,
0100
0000
0010
0000
1000
0000
0010
0100
,
0001
0010
1000
0010
,
0100
0000
0000
0010
0000
0000
0000
0001
,
0000
0000
0000
1000
0000
0000
0000
0000
,
0001
0000
0100
0000
1000
0000
0100
0010
,
1000
0000
0010
0000
0001
0000
0010
0100
,
0001
0010
1000
0010
,
0100
0000
0010
0001
0000
0001
1000
0010
,
0000
1000
0001
0010
0000
0000
0000
0000
,
0001
1000
0010
1000
,
0001
0000
0010
0000
0100
0000
0010
0001
,
0100
0010
1000
0100
,
1000
0010
0200
0302
,
0013
0100
0010
0001
,
1000
0010
0100
0001
,
1000
0001
0100
0001
,
0010
0000
0100
0000
0010
0000
0001
0010
,
0100
0010
0001
1000
,
0010
0100
0020
2030
,
3100
1000
0010
0001
,
0010
0100
0001
1000
,
0001
0000
1000
0000
,
0001
1000
0010
1000
,
0001
1000
0001
0000
,
1000
0000
0001
0000
0100
0010
0100
0000
,
0000
0010
1000
0000
,
0010
0100
0001
0010
,
0100
0000
0000
0000
,
0000
0000
0000
0000
,
0001
0000
0010
0000
0000
0001
0100
0000
,
0010
0000
1000
0000
0000
0100
1000
0000
,
1010
0000
0010
0000
0000
0100
0001
0000
,
1000
0100
0010
0011
,
1100
0000
0100
0000
0000
1000
0100
0000
,
1000
0000
0010
0000
0000
0100
0001
0000
,
1000
0000
0000
0101
0000
0000
0000
0001
,
0000
0000
0000
1100
0000
0000
0000
0000
,
0100
0000
1000
0000
0010
0000
0001
0010
,
1000
0000
0100
0000
0001
0000
0100
1000
,
0020
0000
0000
0000
,
2030
0000
0000
0000
0000
3001
0100
1000
,
0100
0000
0010
1000
0000
1000
0001
0020
,
0000
0000
0000
0000
,
0000
0000
0000
0000
,
0130
0000
0000
0000
;

//---------------dance-single - ----------------
#NOTEDATA:;
#CHARTNAME:;
#STEPSTYPE:dance-single;
#DESCRIPTION:;
#CHARTSTYLE:;
#DIFFICULTY:Easy;
#METER:3;
#RADARVALUES:0.190076,0.326277,0.025424,0.135596,0.000000,157.000000,154.000000,3.000000,16.000000,0.000000,0.000000,0.000000,0.000000,0.000000,0.190076,0.326277,0.025424,0.135596,0.000000,157.000000,154.000000,3.000000,16.000000,0.000000,0.000000,0.000000,0.000000,0.000000;
#CREDIT:;
#NOTES:
0000
0000
0000
0000
,
0000
0000
0000
0000
,
0000
0000
0000
0000
,
0000
0000
0000
0000
,
0000
0000
0000
0000
,
0000
0000
0000
0000
,
0000
0000
0000
0000
,
0000
0000
0000
0000
,
0000
0000
0000
0000
,
1000
0000
0010
0000
,
0100
0000
0001
0100
,
0010
0000
1000
0000
,
0001
0000
2000
3002
,
0103
0000
0001
0000
,
0010
0000
0010
0001
,
0100
0000
0010
0000
,
2000
0000
0000
0000
,
3001
0000
1000
0000
,
0001
0001
0001
0000
,
0100
0000
0010
0000
,
0100
0100
0010
0010
,
1000
0010
1000
0010
,
0100
0001
0100
0001
,
0020
0000
0000
0000
,
0130
0000
0000
1001
,
0110
0010
0100
0010
,
1000
0001
2000
3200
,
0310
0001
0010
0001
,
1000
0000
0000
0001
0000
0000
0000
0100
,
0000
0000
0000
0001
0000
0000
0000
0000
,
0010
0001
0100
0010
,
1000
0100
0020
0032
,
0103
0001
1000
0100
,
1000
0000
0000
0001
0000
0000
0000
0100
,
0000
0000
0010
0000
,
0100
0000
0001
0000
,
1000
0000
0100
0000
,
1000
0000
0001
0000
,
0100
0000
0002
2003
,
3100
1000
0010
0100
,
0001
0010
0100
1000
,
0001
0000
1000
0000
,
0010
0000
1000
0000
,
0100
0000
1000
0000
,
0001
0000
0200
0320
,
0130
0001
0010
0001
,
1000
0100
0010
0000
,
0100
0000
0000
0000
,
1000
0000
0000
0000
,
0001
0000
0000
0000
,
0100
0000
0000
0000
,
0010
0000
0000
0000
,
1000
0000
0000
0000
,
0002
0000
0000
0000
,
0000
0000
0000
0000
,
0103
0001
0001
0001
,
0000
0001
0001
1000
,
0001
1000
1000
1000
,
0010
1000
0010
0100
,
0001
1000
1000
1000
,
1000
1000
1000
1000
,
0100
0000
0000
1000
0000
0000
0000
0010
,
0000
0000
0000
0100
0000
0000
0000
0000
,
0010
0100
0001
1000
,
0101
0001
0020
0230
,
1300
0000
0000
0000
,
0010
0000
0000
0100
,
0010
0000
0000
0100
0000
0000
0000
0002
,
0000
0000
0000
0000
,
0000
0000
0000
0000
,
1003
0000
0000
0000
;

//---------------dance-single - ----------------
#NOTEDATA:;
#CHARTNAME:;
#STEPSTYPE:dance-single;
#DESCRIPTION:;
#CHARTSTYLE:;
#DIFFICULTY:Beginner;
#METER:1;
#RADARVALUES:0.078694,0.177969,0.000000,0.000000,0.000000,65.000000,65.000000,0.000000,0.000000,0.000000,0.000000,0.000000,0.000000,0.000000,0.078694,0.177969,0.000000,0.000000,0.000000,65.000000,65.000000,0.000000,0.000000,0.000000,0.000000,0.000000,0.000000,0.000000;
#CREDIT:;
#NOTES:
0000
0000
0000
0000
,
0000
0000
0000
0000
,
0000
0000
0000
0000
,
0000
0000
0000
0000
,
0000
0000
0000
0000
,
0000
0000
0000
0000
,
0000
0000
0000
0000
,
0000
0000
0000
0000
,
0000
0000
0000
0000
,
1000
0000
0000
0000
,
1000
0000
0000
0000
,
0001
0000
0000
0000
,
0001
0000
0000
0000
,
0100
0000
0000
0000
,
0010
0000
0000
0000
,
1000
0000
0000
0000
,
0100
0000
0000
0000
,
1000
0000
0000
0000
,
0000
0000
0000
0000
,
1000
0000
0000
0000
,
0000
0000
0000
0000
,
0001
0000
0000
0000
,
0000
0000
0000
0000
,
0100
0000
0000
0000
,
0010
0000
0000
0000
,
1000
0000
0000
0000
,
0001
0000
0000
0000
,
0100
0000
0000
0000
,
0010
0000
0000
0000
,
0000
0000
0000
0000
,
1000
0000
0000
0000
,
0001
0000
0000
0000
,
0100
0000
0000
0000
,
0010
0000
0000
0000
,
1000
0000
0000
0000
,
0001
0000
0000
0000
,
1000
0000
0000
0000
,
0010
0000
0000
0000
,
1000
0000
0100
0100
,
0010
0000
0000
0000
,
0000
0000
0000
0000
,
0001
0000
0000
0000
,
1000
0000
0000
0001
,
0100
0000
0000
0000
,
0010
0000
0000
0000
,
1000
0000
0000
0000
,
0000
0000
0000
0000
,
0010
0000
0000
0000
,
0010
0000
0000
0000
,
0100
0000
0000
0000
,
0100
0000
0000
0000
,
0001
0000
0000
0000
,
0001
0000
0000
0000
,
1000
0000
0000
0000
,
0001
0000
0000
0000
,
0000
0100
0100
0100
,
0000
0100
0100
0000
,
0000
0010
0010
0010
,
0000
0000
0000
1000
,
1000
0000
0001
0000
,
0010
0000
0001
0000
,
1000
0000
0000
0000
,
0000
0000
0000
0000
,
0001
0000
0000
0000
,
0100
0000
0000
0000
,
0010
0000
0000
0000
,
1000
0000
0000
0001
,
1000
0000
0000
0000
0000
0000
0000
0010
,
0000
0000
0000
0000
,
0000
0000
0000
0000
,
0100
0000
0000
0000
;

//---------------dance-single - ----------------
#NOTEDATA:;
#CHARTNAME:;
#STEPSTYPE:dance-single;
#DESCRIPTION:;
#CHARTSTYLE:;
#DIFFICULTY:Challenge;
#METER:9;
#RADARVALUES:0.601705,1.186461,0.372888,0.228817,0.559332,497.000000,453.000000,44.000000,27.000000,0.000000,0.000000,0.000000,0.000000,0.000000,0.601705,1.186461,0.372888,0.228817,0.559332,497.000000,453.000000,44.000000,27.000000,0.000000,0.000000,0.000000,0.000000,0.000000;
#CREDIT:;
#NOTES:
// measure 0
0000
0000
0000
0000
,  // measure 1
0000
0000
0000
0000
,  // measure 2
0000
0000
0000
0000
,  // measure 3
0000
0000
0000
0000
,  // measure 4
0000
0000
0000
0000
,  // measure 5
0000
0000
0000
0000
,  // measure 6
0000
0000
0000
0000
,  // measure 7
2010
0000
3000
0201
0000
0000
0300
0021
,  // measure 8
0000
0000
0030
2010
0000
0000
0000
3000
,  // measure 9
1000
0000
0001
0100
0000
0001
0010
0000
,  // measure 10
0010
0100
0000
0100
1000
0000
0100
0010
,  // measure 11
0001
0000
1000
0010
0000
0100
0001
0000
,  // measure 12
0001
1000
0000
1000
1020
0000
0230
0000
,  // measure 13
0301
0000
1000
0010
0000
0100
0001
0000
,  // measure 14
0010
0000
0100
0000
0000
0000
0010
0000
0001
0000
0000
1000
0000
0000
0100
0000
,  // measure 15
1000
0000
0010
1000
0000
0100
0010
0000
,  // measure 16
0002
0000
0000
0000
,  // measure 17
1003
0001
0000
0100
0010
0000
0000
0110
,  // measure 18
0000
1010
0000
1000
0001
0010
0000
0110
,  // measure 19
0010
0001
0000
1000
0010
0000
0000
1010
,  // measure 20
0000
0101
0000
0001
0010
0001
1000
0000
,  // measure 21
0001
0100
0010
1000
0001
0100
0010
1000
,  // measure 22
0001
0010
0100
1000
0001
0010
0100
1000
,  // measure 23
0020
0000
0000
0000
0000
0000
0000
0030
,  // measure 24
1010
0000
0000
1010
0000
0000
0101
0000
0000
0101
0000
0000
0110
0000
0000
0000
,  // measure 25
1001
0000
0000
0000
0001
0000
0010
0000
0001
0000
0010
0000
0001
0000
0010
0001
0000
0000
1000
0000
0010
0000
1000
0010
1000
0000
0010
0000
1010
0000
0000
0000
,  // measure 26
0101
0000
0000
0000
0001
0000
1000
0000
0001
0000
1000
0000
0001
0000
1000
0001
0100
0000
0010
0000
1000
0000
0100
0010
0000
0001
0010
0100
1000
0001
1000
0000
,  // measure 27
1100
0000
0000
0000
1000
0000
0010
0000
1000
0000
0010
0000
1000
0000
0010
1000
0000
0000
0001
0000
0100
0000
0001
0100
0001
0000
0010
0000
0100
0000
0010
0000
,  // measure 28
1002
0000
0003
1200
0000
0000
0300
0021
,  // measure 29
0000
0000
0030
2010
0000
0000
3000
0000
,  // measure 30
0000
0000
0000
0000
0001
0000
1000
0001
1000
0000
0001
0000
1000
0000
0100
0000
0000
0000
0010
0000
0001
0000
0100
0001
0100
0000
0010
0000
0110
0000
0000
0000
,  // measure 31
1001
0000
0000
0000
1000
0000
0001
0010
0001
0000
0010
0000
0001
1000
0001
1000
0100
0000
1000
0000
0010
0000
0100
0010
0000
0100
0010
1000
0001
0010
0100
0000
,  // measure 32
1100
0000
0000
0000
0100
0000
0010
0001
0100
0000
0010
0000
1000
0000
0001
0000
0000
0000
1000
0000
0001
0000
0100
0001
0010
0000
0100
0000
0020
0000
0000
0000
,  // measure 33
0031
0000
1000
1010
0000
0010
0100
1001
,  // measure 34
0000
0000
0001
0000
0010
0000
0100
1000
0000
0010
0000
0100
0001
0000
1000
0000
,  // measure 35
0001
0000
1000
0001
0000
0001
0100
0000
,  // measure 36
0100
0010
0000
0010
1000
0000
0010
0100
,  // measure 37
0001
0000
1000
0001
0000
0010
0001
0000
,  // measure 38
0100
0010
0000
1000
0002
0000
0023
0000
,  // measure 39
0130
0000
0000
0000
0010
0000
0001
0000
0000
0000
0001
0000
1000
0000
0000
0000
1000
0000
0010
0000
0000
0000
0010
0100
0010
0000
1000
0010
0000
0010
1000
0000
,  // measure 40
0001
0000
1000
0100
0000
0100
1000
0000
1000
0001
0000
0001
0100
0000
0010
0000
,  // measure 41
1000
0000
0010
1000
0000
1000
0001
0000
,  // measure 42
0001
0010
0000
0010
0001
0000
0001
0010
,  // measure 43
0100
0000
0100
0010
0000
0010
0001
0000
,  // measure 44
0001
0100
0000
0100
0020
0000
2030
0000
,  // measure 45
3100
0000
0000
0000
1000
0000
0100
0000
0000
0000
0010
0000
0001
0000
0000
0000
0001
0000
0100
0000
0000
0000
0010
0100
0010
0000
1000
0100
0000
0100
0010
0000
,  // measure 46
0100
0000
0000
0000
1000
0000
0010
0000
0000
0000
0100
0000
0001
0000
0000
0000
0000
0000
0101
0000
0000
1100
0000
0000
0011
0000
0000
1001
0000
0000
0000
0000
,  // measure 47
1000
0001
0010
0001
0010
0100
0000
1000
,  // measure 48
0010
1000
0010
0100
0000
0010
0100
0001
,  // measure 49
1000
0001
0100
0001
0100
0010
0000
0100
,  // measure 50
0001
0010
0001
0010
0100
1000
0001
0000
,  // measure 51
1000
0001
0010
0001
0010
1000
0000
1000
,  // measure 52
0010
0001
0010
0001
0100
0010
1000
0001
,  // measure 53
1000
0010
0001
0010
0001
0010
0000
0100
,  // measure 54
2002
0000
0000
3003
,  // measure 55
0110
0000
0000
0000
1000
0000
0010
0000
0100
0000
0001
0000
0010
0000
0100
0010
,  // measure 56
0000
0000
0100
0000
0010
0000
0001
0010
0001
0000
1000
0000
1010
0000
0000
0000
,  // measure 57
0101
0000
0000
0000
0001
0000
1000
0000
0010
0000
1000
0010
1000
0000
1000
0100
,  // measure 58
1000
0000
0100
0000
1000
0000
0001
0100
0000
0010
0100
0001
1000
0100
0010
0000
,  // measure 59
1100
0000
0000
0000
1000
0000
0100
1000
0010
0000
0100
0001
0010
0000
0100
1000
,  // measure 60
0010
0000
0100
0001
0010
0100
0010
0001
0100
0010
1000
0100
0010
0001
0010
0100
,  // measure 61
0020
0000
0030
1200
0000
0000
0300
0102
,  // measure 62
0000
0000
0003
2001
0000
0000
3000
0000
,  // measure 63
0000
0000
0000
0000
0001
0000
1000
0010
0100
0000
0010
0000
1000
0000
0001
0000
0000
0000
0010
0000
0001
0000
0100
0010
1000
0000
0100
0000
1200
0000
0000
0000
,  // measure 64
0301
0000
0000
0000
0100
0000
1000
0010
0100
0000
0001
0000
1000
0100
0010
0000
0100
0000
1000
0000
0001
0000
0100
0010
0000
0010
0100
0001
1000
0100
0010
0100
,  // measure 65
2000
0000
0000
0000
,  // measure 66
3200
0000
0000
0000
0000
1300
0100
0001
,  // measure 67
1100
0000
0010
0011
0000
0010
0001
0201
,  // measure 68
0000
0000
0000
0000
,  // measure 69
0000
0000
0000
0000
,  // measure 70
0310
0000
0000
0000
;
