#VERSION:0.83;
#TITLE:DORNWALD;
#SUBTITLE:~Junge~;
#ARTIST:DJ TOTTO;
#TITLETRANSLIT:;
#SUBTITLETRANSLIT:;
#ARTISTTRANSLIT:;
#GENRE:;
#ORIGIN:;
#CREDIT:;
#BANNER:DORNWALD -Junge-.png;
#BACKGROUND:DORNWALD -Junge--bg.png;
#PREVIEWVID:;
#JACKET:DORNWALD -Junge--jacket.png;
#CDIMAGE:;
#DISCIMAGE:;
#LYRICSPATH:;
#CDTITLE:;
#MUSIC:DORNWALD -Junge-.mp3;
#OFFSET:-1.065000;
#SAMPLESTART:89.842400;
#SAMPLELENGTH:12.071007;
#SELECTABLE:YES;
#BPMS:0.000=169.000;
#STOPS:;
#DELAYS:;
#WARPS:;
#TIMESIGNATURES:0.000=4=4;
#TICKCOUNTS:0.000=4;
#COMBOS:0.000=1;
#SPEEDS:0.000=1.000=0.000=0;
#SCROLLS:0.000=1.000;
#FAKES:;
#LABELS:0.000=Song Start;
#BGCHANGES:;
#KEYSOUNDS:;
#ATTACKS:
;

//---------------dance-single - ----------------
#NOTEDATA:;
#CHARTNAME:;
#STEPSTYPE:dance-single;
#DESCRIPTION:;
#CHARTSTYLE:;
#DIFFICULTY:Hard;
#METER:8;
#RADARVALUES:0.462187,0.700367,0.125859,0.281331,0.318349,437.000000,420.000000,17.000000,38.000000,0.000000,0.000000,0.000000,0.000000,0.000000,0.462187,0.700367,0.125859,0.281331,0.318349,437.000000,420.000000,17.000000,38.000000,0.000000,0.000000,0.000000,0.000000,0.000000;
#CREDIT:;
#NOTES:
0000
0000
0000
0000
,
0000
0000
0000
0000
,
0000
0000
0000
0000
,
0000
0000
0000
0000
,
1001
0000
0000
0000
0000
0000
0000
0001
0010
0000
0000
0000
0000
0000
0000
0010
,
0001
1000
0100
1000
,
0001
0000
0000
1000
0010
0000
0000
0000
0100
0000
0000
0001
0010
0000
0000
0000
,
0002
0000
0000
0000
,
2000
0000
0000
3003
,
0110
0001
0010
0001
,
1000
0001
1000
0100
,
1100
0001
0100
0001
,
1000
0010
1000
0100
,
0110
0000
0000
1100
0000
0000
0000
0000
,
0011
0000
0000
0101
0000
0000
0000
0010
,
0100
0001
0000
0010
0100
1000
0000
0100
,
0010
0000
0000
0000
0001
0000
0000
0000
1000
0100
0000
0010
0001
0000
1000
0000
,
0010
0000
0000
1000
0100
0000
0000
0100
0010
0000
0000
0010
0001
0000
0000
0001
,
1000
0000
0000
1000
0010
0000
0000
0010
1000
0000
0000
1000
0001
0000
0000
1000
,
0100
0000
0000
0100
0010
0000
0000
0010
0001
0000
0000
0001
1000
0000
0000
0001
,
0100
0000
0000
0100
0001
0000
0000
0001
1000
0000
0000
1000
0100
0000
0000
0100
,
1000
0000
0000
1000
0010
0000
0000
0010
0100
0000
0000
0100
0001
0000
0000
0001
,
1000
0000
0000
1000
0100
0000
0000
0100
0010
0000
0000
0010
0001
0000
0000
0001
,
1000
0000
0000
0010
0100
0000
0000
0001
1000
0000
0000
0010
0100
0000
0000
0001
,
0100
0000
0000
0010
1000
0000
0000
1000
0100
0010
0000
0100
1000
0000
0001
0000
,
2000
0000
3020
0000
,
0230
0000
0302
0000
,
0023
0000
0032
0000
,
2003
0000
3020
2030
,
3200
0000
0320
0000
,
0032
0000
0023
0000
,
0032
0000
0203
0000
,
0320
0000
1030
0000
,
0001
0000
1000
0001
0100
0000
0010
1000
,
0100
0000
0010
0001
1000
0000
0001
1000
,
0100
0000
0010
0001
0100
0000
0010
1000
,
0010
0000
0100
0001
1000
0001
1000
0001
,
1000
0000
0100
0010
0001
0000
0010
0001
,
0100
0000
0010
1000
0100
0000
1000
0001
,
0100
0000
0010
1000
0001
0000
0010
0100
,
1100
0000
0000
0000
0011
0000
0000
0000
0001
0010
0000
0100
1000
0000
0010
0000
,
0200
0000
0310
1000
0002
0000
1003
0001
,
0020
0000
0130
1000
0002
0000
1003
0010
,
0200
0000
0310
1000
0002
0000
0013
0100
,
1000
0000
0001
1000
0000
0010
0000
0100
0001
1000
0000
0010
0100
0000
0001
0000
,
1000
0000
0001
0000
0010
0001
0010
0000
0001
0000
0100
0010
,
1000
0000
0110
0000
,
1000
0000
0001
0100
0001
0000
0100
0010
,
0100
0000
0001
0100
0001
0100
0010
1000
,
0001
0000
1000
0100
1000
0000
0100
0010
,
0100
0000
1000
0100
1000
0100
0010
0100
,
1000
0000
0001
1000
0001
0000
0010
0100
,
0010
0000
0001
1000
0001
0010
0100
0010
,
0001
0000
0100
0001
0100
0000
0100
0010
,
0100
0000
0001
0100
0010
0100
0010
1000
,
0001
0000
1000
0100
0001
0000
0001
0100
,
1000
0000
1000
0100
0010
0001
0010
0100
,
1000
0000
0001
0010
1000
0000
1000
0010
,
0001
0000
0001
0010
0100
0010
0001
1000
,
0020
0000
0000
0000
,
0000
0000
0000
0000
,
0130
0000
0000
0000
,
0001
0000
2000
3002
,
0103
0000
0000
0001
0100
0000
0000
0100
0010
0000
0000
0010
1000
0000
0000
1000
,
0001
0000
0000
0010
0001
0000
0000
0001
0100
0000
0000
0100
0010
0000
0000
0010
,
2000
3100
0020
0032
,
0203
0310
2000
3001
,
1000
0000
0000
0000
0010
0000
0000
1000
0001
0000
0000
0001
1000
0000
0000
0000
,
0001
0000
0000
0000
1000
0000
0000
0100
0010
0000
0000
0010
0100
0000
0000
0000
,
0020
0031
2000
3100
,
1001
0000
0000
0000
0110
0000
0000
0000
1000
0000
0000
0010
0000
0000
0100
0000
,
0001
0000
0000
1000
0001
0000
0000
0001
0010
0000
0000
0001
0100
0000
0000
0100
,
0020
0000
0000
0000
0000
0000
0000
1030
0100
0000
0000
0100
0010
0000
0000
0010
,
0002
0000
0000
0000
0000
0000
0000
1003
0001
0000
0000
0001
0010
0000
0000
0010
,
0200
0000
0320
0000
,
0031
0000
0000
0000
1000
0000
0000
0001
0100
0000
0000
0100
0001
0000
0000
0000
,
1010
0000
0000
0000
1000
0000
0000
0100
0010
0000
0000
0010
0100
0000
0000
0000
,
1001
0000
0000
0001
1000
0000
0000
0000
0110
0000
0000
0100
0010
0000
0000
0000
,
0001
0100
0001
0000
0100
0010
0100
0000
0010
1000
0010
0000
1000
0001
1000
0000
,
0110
0000
1000
0000
,
0010
0000
1000
0000
,
0100
0000
1000
0001
,
1000
0000
0010
0000
,
0100
0000
0000
0000
0000
0000
0000
0001
1000
0000
0000
0000
0000
0000
0000
1000
,
0001
0010
0100
0010
,
0001
0000
1000
0000
,
0110
0000
0000
0000
;

//---------------dance-single - ----------------
#NOTEDATA:;
#CHARTNAME:;
#STEPSTYPE:dance-single;
#DESCRIPTION:;
#CHARTSTYLE:;
#DIFFICULTY:Medium;
#METER:6;
#RADARVALUES:0.343732,0.509358,0.251718,0.459014,0.014807,325.000000,291.000000,34.000000,62.000000,0.000000,0.000000,0.000000,0.000000,0.000000,0.343732,0.509358,0.251718,0.459014,0.014807,325.000000,291.000000,34.000000,62.000000,0.000000,0.000000,0.000000,0.000000,0.000000;
#CREDIT:;
#NOTES:
0000
0000
0000
0000
,
0000
0000
0000
0000
,
0000
0000
0000
0000
,
0000
0000
0000
0000
,
1001
0000
0001
0000
,
0001
0010
0100
1000
,
0100
0000
1000
0000
,
0010
0000
0000
0000
,
0210
0000
0000
0000
,
0301
1000
0010
1000
,
0001
1000
0001
1000
,
0001
1000
0100
1000
,
0001
0001
1000
1000
,
1001
0000
0000
0101
0000
0000
0000
0000
,
1001
0000
0000
1010
0000
0000
0000
0000
,
0100
0010
0000
0000
0100
0010
0000
0000
,
0100
0010
1000
0001
,
1000
0100
0010
0001
,
0010
0100
1000
0001
,
1000
0001
0100
0010
,
1000
0001
1000
0001
,
1001
0001
0010
0001
,
1001
1000
0010
1000
,
1001
0010
1001
0100
,
1001
0110
1001
0110
,
0102
0000
0103
0000
,
0020
0000
1030
0000
,
0200
0000
0310
0000
,
0002
0000
1003
0001
,
0200
0000
0301
0000
,
0020
0000
0130
0000
,
2000
0000
3001
0000
,
0200
0000
0310
0000
,
0200
0310
2000
3010
,
0200
0301
0020
0130
,
2000
3100
0200
0310
,
0020
0000
0031
0000
0100
0010
1000
0001
,
0200
0301
0200
0310
,
0020
1030
0020
0130
,
0002
1003
0002
0013
,
1100
0000
0011
0000
0001
0010
0100
0000
,
0020
0031
0200
0310
,
2000
3001
2000
3100
,
0020
0031
0200
0310
,
0020
0130
0002
0013
,
1001
0000
0001
0000
1000
0000
1000
0000
0001
0000
0100
0000
,
0010
0000
1000
0000
,
0001
0000
1000
0001
1000
0000
0001
1000
,
0001
0000
1000
0001
1000
0000
0001
0000
,
1000
0000
0010
0100
0010
0000
0100
0010
,
0100
0000
0010
0100
0010
0000
0100
0000
,
0001
0000
1000
0010
1000
0000
0010
1000
,
0010
0000
1000
0010
1000
0000
0010
0000
,
1000
0000
0001
0100
0001
0000
0100
0001
,
0100
0000
0001
0100
0001
0000
0100
0000
,
0001
0000
1000
0001
1000
0000
0010
0100
,
0010
0000
1000
0001
0100
0010
1000
0000
,
0001
0000
0100
0001
0100
0000
0010
1000
,
0010
0000
0001
0100
0001
0100
0010
1000
,
0002
0000
0000
0000
,
0000
0000
0000
0000
,
0013
0000
0000
0000
,
0100
0000
0010
0001
,
2000
3200
2300
3020
,
0230
0302
0023
2030
,
3020
0000
0230
0320
,
0032
0000
2000
3003
,
0001
0000
1001
1010
,
0000
0000
1001
0011
,
0001
2000
3200
2300
,
3020
0230
0302
0000
,
0023
0230
2300
3200
,
2300
0000
3200
2300
,
3020
0000
0230
0302
,
2003
0000
0002
3003
,
0001
0010
0011
1100
,
0100
1000
1010
0101
,
1001
0010
1001
0100
,
1001
0110
1001
0110
,
1001
0000
0001
0000
,
0010
0000
0001
0000
,
1000
0000
0100
1000
,
0010
0000
0100
0000
,
0001
0000
1000
0000
,
0010
0100
0001
1000
,
0100
0000
1000
0000
,
0101
0000
0000
0000
;

//---------------dance-single - ----------------
#NOTEDATA:;
#CHARTNAME:;
#STEPSTYPE:dance-single;
#DESCRIPTION:;
#CHARTSTYLE:;
#DIFFICULTY:Easy;
#METER:3;
#RADARVALUES:0.225277,0.318349,0.148069,0.125859,0.000000,213.000000,193.000000,20.000000,17.000000,0.000000,0.000000,0.000000,0.000000,0.000000,0.225277,0.318349,0.148069,0.125859,0.000000,213.000000,193.000000,20.000000,17.000000,0.000000,0.000000,0.000000,0.000000,0.000000;
#CREDIT:;
#NOTES:
0000
0000
0000
0000
,
0000
0000
0000
0000
,
0000
0000
0000
0000
,
0000
0000
0000
0000
,
0000
0000
0000
0000
,
0000
0000
0000
0000
,
0000
0000
0000
0000
,
0000
0000
0000
0000
,
0000
0000
0000
0000
,
1001
0000
0001
0000
,
0010
0000
0001
0000
,
1001
0000
1000
0000
,
0010
0000
1000
0000
,
1001
0000
0001
0000
,
1000
0000
0100
0000
,
1001
0000
0110
0000
,
1001
0001
1000
0010
,
1000
0001
1000
0001
,
0010
0100
0010
0100
,
1000
0001
1000
0001
,
0010
0001
1000
0100
,
1000
0001
1000
0001
,
0010
0100
0010
0100
,
0010
0001
1000
0100
,
1000
0010
0100
0001
,
0010
0000
0001
0000
,
1000
0000
0100
0000
,
1000
0000
0010
0000
,
0100
0000
0010
0100
,
0001
0000
1000
0000
,
0100
0000
1000
0000
,
0010
0000
0100
0000
,
0001
0000
1000
0000
,
0001
0000
0010
0000
,
0001
0000
1000
0000
,
0100
0000
1000
0000
,
0010
0000
0100
0001
,
0100
0000
0010
0000
,
1000
0000
0001
0000
,
0010
0000
0001
0000
,
1000
0001
0100
0100
,
0010
0000
0100
0000
,
0001
0000
1000
0000
,
0100
0000
1000
0000
,
0010
0000
1000
0000
,
2002
0000
0000
0000
,
3003
0000
0000
0000
,
0110
0000
0110
0000
,
0110
0000
0000
0000
,
1001
0000
1001
0000
,
1001
0000
0000
0000
,
0101
0000
0101
0000
,
0101
0000
0000
0000
,
1010
0000
1010
0000
,
1010
0000
0000
0000
,
1000
0001
0010
0001
,
1000
0010
1000
0001
,
1000
0001
0100
0001
,
1000
0100
1000
0010
,
0200
0000
0000
0000
,
0000
0000
0000
0000
,
0310
0000
0000
0000
,
0100
0000
0010
1000
,
0001
0010
0001
1000
,
0100
1000
0010
0100
,
0002
0000
0013
0001
,
2000
0000
3002
0000
,
0203
0300
0020
0030
,
2000
3000
0002
0003
,
1000
0001
0100
0001
,
1000
0100
0020
0000
,
0130
1000
0010
0100
,
0002
0000
0103
0010
,
2000
0000
3001
1000
,
0200
0000
2300
0000
,
3001
0000
1000
0001
,
0000
0000
0001
0100
,
0010
0100
0001
1000
,
0200
0000
0320
0000
,
0031
0000
0100
0000
,
0010
0000
1000
0000
,
0001
0000
1000
0100
,
0010
0000
0100
0000
,
1000
0000
0001
0000
,
1000
0100
0010
0100
,
1000
0000
0001
0000
,
0110
0000
0000
0000
;

//---------------dance-single - ----------------
#NOTEDATA:;
#CHARTNAME:;
#STEPSTYPE:dance-single;
#DESCRIPTION:;
#CHARTSTYLE:;
#DIFFICULTY:Beginner;
#METER:1;
#RADARVALUES:0.106821,0.191009,0.066631,0.000000,0.000000,101.000000,92.000000,9.000000,0.000000,0.000000,0.000000,0.000000,0.000000,0.000000,0.106821,0.191009,0.066631,0.000000,0.000000,101.000000,92.000000,9.000000,0.000000,0.000000,0.000000,0.000000,0.000000,0.000000;
#CREDIT:;
#NOTES:
0000
0000
0000
0000
,
0000
0000
0000
0000
,
0000
0000
0000
0000
,
0000
0000
0000
0000
,
0000
0000
0000
0000
,
0000
0000
0000
0000
,
0000
0000
0000
0000
,
0000
0000
0000
0000
,
0000
0000
0000
0000
,
1000
0000
0000
0000
,
0000
0000
0000
0000
,
0001
0000
0000
0000
,
0000
0000
0000
0000
,
0100
0000
0000
0000
,
0010
0000
0000
0000
,
1000
0000
0001
0000
,
0100
0000
0010
0000
,
1000
0000
0000
0000
,
0010
0000
0000
0000
,
0100
0000
0000
0000
,
0001
0000
1000
0000
,
0001
0000
0000
0000
,
0010
0000
0000
0000
,
0001
0000
1000
0000
,
0010
0000
1000
0000
,
1001
0000
0000
0000
,
0000
0000
0000
0000
,
1001
0000
0000
0000
,
0000
0000
0000
0000
,
0110
0000
0000
0000
,
0000
0000
0000
0000
,
0110
0000
0000
0000
,
0000
0000
0000
0000
,
1000
0000
0000
0000
,
0001
0000
0000
0000
,
0010
0000
0000
0000
,
0001
0000
1000
0000
,
0001
0000
0000
0000
,
0100
0000
0000
0000
,
0010
0000
0000
0000
,
1000
0000
0001
0000
,
0010
0000
0000
0000
,
0001
0000
0000
0000
,
1000
0000
0000
0000
,
0100
0000
0000
0000
,
1001
0000
0000
0000
,
0000
0000
0000
0000
,
0000
0010
0000
0010
,
0000
0010
0000
0000
,
0000
1000
0000
1000
,
0000
1000
0000
0000
,
0000
0001
0000
0001
,
0000
0001
0000
0000
,
0000
0010
0000
0010
,
0000
0010
0000
0000
,
0001
0000
0001
0000
,
0001
0000
0001
0000
,
1000
0000
1000
0000
,
1000
0000
1000
0000
,
0110
0000
0000
0000
,
0000
0000
0000
0000
,
0100
0000
0000
0000
,
0010
0000
0000
0000
,
1001
0000
0000
0000
,
1000
0000
0000
0000
,
0001
0000
0000
0000
,
0100
0000
0000
0000
,
0000
0000
0010
0010
,
0000
0000
0100
0100
,
0000
0000
0000
0000
,
0010
0000
1000
0000
,
0001
0000
0000
0000
,
0100
0000
0000
0000
,
0010
0000
0000
0000
,
1000
0000
0001
0000
,
1000
0000
0010
0010
,
0000
0000
0100
0100
,
0000
0010
0000
1000
,
0000
0001
0000
0000
,
1001
0000
0000
0000
,
0010
0000
0000
0000
,
0100
0000
0000
0000
,
0000
0000
0000
0000
,
0001
0000
0000
0000
,
1000
0000
0000
0000
,
0010
0000
0100
0000
,
1001
0000
0000
0000
;

//---------------dance-single - ----------------
#NOTEDATA:;
#CHARTNAME:;
#STEPSTYPE:dance-single;
#DESCRIPTION:;
#CHARTSTYLE:;
#DIFFICULTY:Challenge;
#METER:11;
#RADARVALUES:0.655735,0.859542,0.207297,0.503435,0.792170,620.000000,592.000000,28.000000,68.000000,0.000000,0.000000,0.000000,0.000000,0.000000,0.655735,0.859542,0.207297,0.503435,0.792170,620.000000,592.000000,28.000000,68.000000,0.000000,0.000000,0.000000,0.000000,0.000000;
#CREDIT:;
#NOTES:
// measure 0
0000
0000
0000
0000
,  // measure 1
0000
0000
0000
0000
,  // measure 2
0000
0000
0000
0000
,  // measure 3
0000
0000
0000
0000
,  // measure 4
1010
0000
0000
0000
0000
0000
0000
0100
0001
0000
0000
0000
0000
0000
0000
0001
,  // measure 5
0010
1000
0010
0001
,  // measure 6
1000
0000
0000
0001
0100
0000
0000
0000
0001
0000
0000
0010
0100
0000
0000
0000
,  // measure 7
2000
0000
0000
0000
,  // measure 8
0020
0000
0000
3030
,  // measure 9
0001
1000
0010
1000
0000
0001
0100
0001
,  // measure 10
0000
0010
0001
0010
0200
0000
2300
0000
,  // measure 11
3001
1000
0010
1000
0000
0010
0100
0010
,  // measure 12
0000
0000
0000
0000
0000
0000
0100
0000
0000
0000
0000
0000
0001
0000
0000
0000
0000
0000
0100
0000
0000
0000
0000
0000
0010
0000
0000
0000
0000
0000
0100
0000
0000
0010
0000
0000
1000
0000
0000
0000
0001
0000
0000
0000
1000
0000
0000
0000
,  // measure 13
0001
0000
0000
1100
0000
0000
0000
0000
,  // measure 14
1001
0000
0000
0101
0000
0000
0000
0000
,  // measure 15
1001
1001
0000
0000
0110
0110
0000
0000
,  // measure 16
1001
0000
0000
0000
0110
0000
0000
0000
1001
0000
0000
0000
0110
0000
0000
1000
,  // measure 17
0010
0000
0000
0100
0001
0000
0000
0010
0100
0000
0000
1000
0010
0000
0000
0100
,  // measure 18
0001
0000
0000
1000
0100
0000
0000
0010
0001
0000
0000
1000
0001
0000
0000
0100
,  // measure 19
0010
0000
0000
1000
0010
0000
0000
0100
0001
0000
0000
0010
0100
0000
0000
0010
,  // measure 20
0001
0000
0000
0010
0100
0000
0000
0010
0001
0000
0000
0001
1000
0000
0000
0001
,  // measure 21
0100
0000
0000
0010
1000
0000
0000
0100
0010
0000
0000
0001
0100
0000
0000
0010
,  // measure 22
1000
0000
0000
0100
0010
0000
0000
0100
1000
0000
0000
0001
0100
0000
0000
0010
,  // measure 23
1000
0000
0000
0001
1000
0000
0000
0100
0010
0000
0000
0001
0010
0000
0000
0100
,  // measure 24
1000
0000
0001
0100
0001
0000
0010
0000
0100
0010
0000
0001
0100
0000
0010
0000
,  // measure 25
2001
0000
3020
0000
,  // measure 26
0230
0000
0302
0000
,  // measure 27
0023
0000
2030
0000
,  // measure 28
3020
0000
0032
0203
,  // measure 29
0310
1000
0010
0100
0010
1000
0001
0010
0100
0010
0001
0100
,  // measure 30
0010
1000
0001
0100
0010
1000
0001
0010
0100
1000
0001
0100
,  // measure 31
0001
0010
0001
0100
0010
1000
0001
0010
0001
0100
0010
1000
,  // measure 32
0001
1000
0010
1000
0001
0010
0100
0000
0000
0000
0000
0000
,  // measure 33
0001
0000
1000
0010
0100
0000
0001
0000
1000
0000
0100
0010
0001
0000
0000
0000
,  // measure 34
1000
0000
0001
0010
0100
0000
0010
0000
0001
0000
1000
0001
0100
0000
0000
0000
,  // measure 35
0010
0000
0100
0001
1000
0000
0100
0000
0010
0000
0100
1000
0001
0000
0000
0000
,  // measure 36
1000
0000
0001
0100
0010
0000
0100
0000
1001
0000
0001
0000
1001
0000
1000
0000
,  // measure 37
1001
0000
0001
0100
0010
0000
0100
0000
0010
0000
1000
0010
0100
0000
0000
0000
,  // measure 38
0010
0000
1000
0100
0010
0000
0001
0000
0100
0000
0010
1000
0001
0000
0000
0000
,  // measure 39
1000
0000
0001
0100
0010
0000
0100
0000
0001
0000
1000
0100
0010
0000
0000
0000
,  // measure 40
0110
0000
0000
0000
0000
0000
0010
0000
0000
0001
0000
0000
0100
0000
0000
0000
0000
0000
0010
0000
0000
0000
0000
0000
1000
0000
0001
0000
1000
0000
0001
0000
0000
1000
0000
0000
0001
0000
0000
0000
0000
0000
1000
0000
0000
0001
0000
0000
,  // measure 41
0200
0000
0301
1000
0002
0000
0013
0100
,  // measure 42
2000
0000
3100
0010
0200
0000
0310
0001
,  // measure 43
2000
0000
3001
0100
0002
0000
0103
0010
,  // measure 44
1000
0000
0010
0100
0000
0001
0000
0010
0001
1000
0000
0001
0100
0000
0010
0000
,  // measure 45
1010
0000
1000
0001
0010
0000
0110
0000
0010
0001
1000
0000
,  // measure 46
1100
0000
0101
0000
,  // measure 47
1001
0000
0000
0000
1000
0010
1000
0010
1000
0000
0000
0000
1000
0010
1000
0010
,  // measure 48
1000
0000
0000
0000
1000
0010
1000
0010
1000
0001
0100
0001
0100
0001
0010
0100
,  // measure 49
1000
0000
0000
0000
0001
0100
0001
0100
0001
0000
0000
0000
0001
0100
0001
0100
,  // measure 50
0001
0000
0000
0000
0001
0100
0001
0100
0001
1000
0010
1000
0010
1000
0100
0010
,  // measure 51
0001
0000
0000
0000
1000
0001
1000
0001
1000
0000
0000
0000
1000
0001
1000
0001
,  // measure 52
1000
0000
0000
0000
1000
0001
1000
0001
0100
0010
0100
0010
1000
0001
0100
0010
,  // measure 53
1000
0000
0000
0000
0001
0010
0001
0010
0001
0000
0000
0000
0001
0010
0001
0010
,  // measure 54
0001
0000
0000
0000
0001
0010
0001
0010
0100
1000
0100
1000
0001
0100
0010
1000
,  // measure 55
0001
0000
0000
0000
1000
0001
0100
0001
0010
0000
0000
0000
0100
0010
0001
1000
,  // measure 56
0010
0000
0000
0000
0100
0001
1000
0100
1000
0001
0100
0010
1000
0001
0010
0100
,  // measure 57
1000
0000
0000
0000
0100
0010
0001
1000
0001
0000
0000
0000
0010
0100
1000
0001
,  // measure 58
0010
0000
0000
0000
0100
0010
0001
0100
0010
1000
0001
0010
0001
1000
0010
0100
,  // measure 59
0001
0000
0000
1000
0100
0010
0001
1000
0100
0010
0100
1000
,  // measure 60
0001
0000
0000
0000
0010
0000
0000
0000
0100
0000
0000
0000
0010
0000
0000
0000
0001
0000
1000
0000
0000
0100
0000
0000
0010
0000
0000
0001
0000
0000
1000
0000
0000
0100
0000
0000
0010
0000
0000
0001
0000
0000
1000
0000
0000
0100
0000
0000
,  // measure 61
0020
0000
0000
0000
,  // measure 62
0230
0000
0320
0032
,  // measure 63
2003
0000
0000
3001
0200
0000
0000
0310
2000
0000
0000
3100
0020
0000
0000
0031
,  // measure 64
2000
0000
0000
3001
0200
0000
0000
0301
0020
0000
0000
0130
2000
0000
0000
3001
,  // measure 65
2000
0000
0000
0000
0010
0000
0000
3001
2000
0000
0000
3100
0020
0000
0000
0031
,  // measure 66
0200
0000
0000
0310
2000
0000
0000
3001
0020
0000
0000
0000
0130
0000
0000
0000
,  // measure 67
1002
0000
0000
0000
0203
0000
0000
0310
0100
0000
0000
0100
0010
0000
0000
0000
,  // measure 68
0020
0000
0000
0000
2030
0000
0000
3001
1000
0000
0000
1000
0001
0000
0000
0000
,  // measure 69
0201
0000
0000
0310
0100
0000
0000
0000
1020
0000
0000
0130
0010
0000
0000
0000
,  // measure 70
1001
0000
0000
0000
0110
0000
0000
0000
0010
0000
0000
0100
0000
0000
0001
0000
,  // measure 71
2000
0000
0000
3001
0020
0000
0000
0130
0020
0000
0000
0031
2000
0000
0000
3010
,  // measure 72
0200
0000
0000
0000
0001
0000
0000
0310
2000
0000
0000
3001
0020
0000
0000
0031
,  // measure 73
0200
0000
0000
0000
0010
0000
0000
0301
0020
0000
0000
0130
2000
0000
0000
3001
,  // measure 74
0200
0010
0302
0010
,  // measure 75
2003
0000
0000
0000
3200
0000
0000
0310
0100
0000
0000
0100
0010
0000
0000
0000
,  // measure 76
0020
0000
0000
0000
0032
0000
0000
1003
0010
0000
0000
0010
1000
0000
0000
0000
,  // measure 77
1000
0000
0010
0100
0001
0000
1000
0001
0010
0000
0100
1000
0001
0000
1000
0000
,  // measure 78
0010
0000
0000
0100
0000
0000
0010
0000
0000
0000
0000
0000
0100
0000
0000
0010
0000
0000
0100
0000
0000
0000
0000
0000
0001
0000
0000
1000
0000
0000
0001
0000
1000
0000
0001
0000
1000
0000
0000
0100
0000
0000
0010
0000
0000
0001
0000
0000
,  // measure 79
0200
0000
0002
0300
,  // measure 80
0020
0003
2000
0030
,  // measure 81
0020
3000
0230
2300
,  // measure 82
3020
0000
0200
0030
,  // measure 83
0301
0000
0000
0000
0000
0000
0000
1000
0100
0000
0000
0000
0000
0000
0000
0100
,  // measure 84
0010
0100
1000
0010
,  // measure 85
0001
0000
0100
0000
,  // measure 86
1001
0000
0000
0000
;
