#TITLE:DAWN OF FALCON;
#SUBTITLE:;
#ARTIST:L.E.D.-G;
#TITLETRANSLIT:;
#SUBTITLETRANSLIT:;
#ARTISTTRANSLIT:;
#GENRE:;
#CREDIT:;
#BANNER:DAWN OF FALCON.png;
#BACKGROUND:DAWN OF FALCON-bg.png;
#LYRICSPATH:;
#CDTITLE:CDtitle.png;
#MUSIC:DAWN OF FALCON.ogg;
#OFFSET:-0.050000;
#SAMPLESTART:40.308064;
#SAMPLELENGTH:12.387100;
#SELECTABLE:YES;
#BPMS:0.000000=155.000000
;
#STOPS:
;
#BGCHANGES:;
#KEYSOUNDS:;
#ATTACKS:;

//---------------dance-single - ----------------
#NOTES:
     dance-single:
     :
     Hard:
     8:
     0.533566,0.630333,0.357502,0.094080,0.413950,397.000000,359.000000,38.000000,10.000000,0.000000,0.000000,0.533566,0.630333,0.357502,0.094080,0.413950,397.000000,359.000000,38.000000,10.000000,0.000000,0.000000:
0000
0000
0000
0000
,
0000
0000
0000
0000
,
0000
0000
0000
0000
,
0000
0000
0000
0000
,
1000
0001
0001
0010
,
0001
1000
0100
1000
,
0010
0100
0100
0010
,
1000
0001
0010
0001
,
1000
1000
1000
0000
0000
0010
0100
0001
,
0010
0100
0010
0100
0000
0010
0001
0000
,
0100
0100
0100
0000
0000
0010
1000
0100
,
0010
0000
0000
0010
0000
0000
0100
0000
0000
0000
0100
0000
1000
0000
0001
0000
,
0010
0010
0010
0000
0000
0001
0100
0001
,
1000
0100
1000
0100
0000
0010
0001
0000
,
0100
0100
0100
0000
0000
0010
0001
1000
,
0100
0000
0000
0100
0000
0000
0010
0000
0000
0010
0000
0000
0001
0000
1000
0000
,
0110
0000
0000
0000
,
0000
0000
0000
0000
,
1010
1010
0011
0011
,
1100
1100
0101
0101
,
1001
1001
1010
1010
,
0101
0000
0101
0000
2001
3010
1002
0013
,
1001
1001
0011
0011
,
0110
0110
1100
1100
,
1000
0000
0001
0000
1000
0000
0010
0000
0100
0000
0001
0000
0010
0000
0100
1000
,
0100
0000
0000
0000
0000
0000
0000
0000
1000
0010
0000
0100
0000
0001
0010
0001
,
0010
0000
0010
0001
0100
0000
0010
1000
,
0000
0100
0000
0001
0000
0100
0010
0001
,
1000
0000
0001
0100
1000
0000
0100
0000
,
0010
0000
0000
0000
1000
0000
0010
0000
0000
0000
0100
0000
0000
0000
0001
1000
,
0001
0000
1000
0100
0001
0000
0001
0010
,
0100
0000
0000
0000
0010
0000
0001
0000
1000
0000
0000
0000
0001
0000
0001
1000
,
0001
0000
0000
0000
1000
0000
0010
0000
0100
0000
0000
0000
0010
0000
1000
0100
,
1000
0000
0001
0000
0010
0000
0001
1000
0020
0000
0000
0000
0230
0000
0000
0000
,
0301
0000
1000
0010
0001
0000
0001
0010
,
0100
0000
0001
0000
1000
0000
0100
0000
0000
0000
0010
0000
0001
0000
1000
0001
,
1000
0000
0001
0010
1000
0000
1000
0010
,
0100
0000
0010
0000
0001
0000
0100
0000
0000
0000
1000
0000
0100
0000
0010
0100
,
0010
1000
0010
1000
0010
1000
0010
1000
,
0001
0100
0001
0100
0001
0100
0001
0100
,
0010
0000
0100
0000
0010
0000
0100
0000
0010
0000
0000
0010
0000
0000
0010
1000
,
0001
0000
0000
0011
0000
0000
0010
0000
0100
0000
0000
1100
0000
0000
1000
0001
,
1001
0000
0000
0000
,
0000
0000
0000
0000
,
0000
0000
0000
0000
,
0000
0000
0000
0000
0000
0000
0001
0100
0010
1000
0001
0100
,
0010
0010
1000
1000
,
0001
0000
0000
0001
0000
0000
1000
0000
0001
0100
0000
0010
,
1000
1000
0100
0100
,
0010
0001
1000
0010
0100
0001
0010
0001
1000
0010
1000
0100
,
0010
0000
0001
0010
0000
0010
0100
0000
0100
1000
0000
0000
,
1000
0000
1000
0100
0000
0100
0010
0000
0010
0001
0000
0000
,
1000
0000
0001
0100
0000
0100
0010
0000
0010
1000
0000
0000
,
1000
0000
0010
1000
0000
0001
0100
0000
0001
0010
0000
0000
,
0110
0110
1001
1001
,
1010
0000
0000
1010
0000
0000
0101
0000
0100
0001
0000
0001
,
0010
0000
0010
0100
0000
0100
1000
0000
1000
0000
0001
0000
,
0101
0000
0000
0000
0000
0000
0002
0000
1003
0020
0000
1030
,
0100
0000
0010
0001
0000
0001
0100
0000
0100
0010
1000
0010
,
0100
0000
0010
1000
0000
1000
0001
1000
0001
0010
0001
1000
,
0100
0000
0010
0001
0000
0001
0100
0000
0100
0010
1000
0001
,
0010
0000
0010
0100
0000
0100
1000
0000
1000
0000
0001
1000
,
0001
0000
0100
0001
0000
0010
0000
0000
0200
0000
0000
1300
,
0001
0000
0100
0010
0000
1000
0000
0000
0002
0000
0000
0000
,
1003
0000
1000
0010
0000
0101
0000
0000
0010
0001
0000
0001
,
1000
0000
0000
0000
0000
0000
0001
0100
0010
1000
0000
0001
,
2002
0000
0000
0000
,
3003
0000
0000
0000
;

//---------------dance-single - ----------------
#NOTES:
     dance-single:
     :
     Medium:
     6:
     0.387070,0.567300,0.225791,0.047040,0.103488,288.000000,264.000000,24.000000,5.000000,0.000000,0.000000,0.387070,0.567300,0.225791,0.047040,0.103488,288.000000,264.000000,24.000000,5.000000,0.000000,0.000000:
0000
0000
0000
0000
,
0000
0000
0000
0000
,
0000
0000
0000
0000
,
0000
0000
0000
0000
,
1000
0000
1000
0000
,
0001
0000
0001
0000
,
0100
0000
0100
0000
,
0010
0000
0010
0000
,
1000
0001
1000
0000
0000
0000
0000
0000
,
0001
0100
0010
0100
0000
0010
1000
0000
,
0001
0100
0001
0000
0000
0000
0001
0000
,
1000
0000
0000
1000
0000
0000
1000
0000
0000
0000
0001
0000
1000
0000
0000
0000
,
0001
0010
0001
0000
0000
1000
0001
0000
,
1000
0100
1000
0010
0000
0100
0001
0000
,
1000
0001
1000
0000
0000
0001
1000
0010
,
0100
0000
0000
0100
0000
0000
0010
0000
0000
0010
0000
0000
1000
0000
0001
0000
,
1001
0000
0000
0000
,
0000
0000
0000
0000
,
1000
0010
0100
0001
,
0010
1000
0010
0001
,
1000
0100
0010
0001
,
0100
0000
1000
0000
0100
0100
0010
0010
,
0100
0010
1000
0010
,
0001
0010
0100
1000
,
0100
0000
0001
0000
0010
0000
0100
1000
,
0001
0000
0000
0000
0000
0000
0000
0000
1000
0001
0000
1000
0000
0001
0000
0000
,
0001
0000
1000
0010
0100
0000
0010
1000
,
0000
0100
0000
1000
0000
0010
0100
0001
,
1000
0000
0001
0010
0100
0000
0010
0000
,
0001
0000
1000
0001
0000
0100
0000
0001
,
0010
0000
0100
0010
0100
0000
0010
0001
,
0010
0000
0001
0100
0001
0000
0100
0010
,
1000
0000
0010
1000
0010
0000
1000
0000
,
1000
0001
0100
0010
2000
0000
3200
0000
,
1300
0000
0001
1000
0010
0000
1000
0001
,
0000
0100
0000
0010
0000
1000
0000
0010
,
0100
0000
0001
0010
1000
0000
0010
0000
,
0100
0000
1000
0100
0000
1000
0000
0010
,
0100
0001
0100
0000
0010
0100
0010
0000
,
1000
0010
1000
0000
0001
0010
0001
0000
,
0010
0000
0100
0000
1000
0000
0100
0000
0010
0000
0000
0010
0000
0000
0010
0000
,
0001
0000
0000
1000
0000
0000
0010
0000
0100
0000
0000
0001
0000
0000
0010
0000
,
1100
0000
0000
0000
,
0000
0000
0000
0000
,
0000
0000
0000
0000
,
0000
0000
0200
0000
,
1300
0001
1000
0001
,
1000
0001
1000
0001
,
0100
0010
0100
0010
,
2000
0000
0000
3000
,
0001
0010
0001
1000
,
0001
0001
1000
0010
,
1000
1000
0100
1000
,
0010
0010
0100
0001
,
1001
0001
0010
0001
,
1001
1000
0100
1000
,
1001
0000
1000
0010
0000
0100
0001
0000
0010
0000
0100
0000
,
1001
0000
0000
0000
0000
0000
0001
0000
1000
0010
0000
0100
,
0001
0011
0010
0110
,
0100
1100
1000
1001
,
1000
1100
0100
0110
,
0010
0011
1001
0110
,
0101
0101
1010
1010
,
1100
1100
0011
0011
,
1001
0000
1000
0010
0000
0100
0000
0000
0010
1000
0000
1000
,
0001
0000
0000
0000
0000
0000
1000
0001
0100
0010
0000
0010
,
0200
0000
0000
0000
,
0300
0000
0000
0000
;

//---------------dance-single - ----------------
#NOTES:
     dance-single:
     :
     Easy:
     4:
     0.299711,0.441233,0.272831,0.094080,0.000000,223.000000,194.000000,29.000000,10.000000,0.000000,0.000000,0.299711,0.441233,0.272831,0.094080,0.000000,223.000000,194.000000,29.000000,10.000000,0.000000,0.000000:
0000
0000
0000
0000
,
0000
0000
0000
0000
,
0000
0000
0000
0000
,
0000
0000
0000
0000
,
1000
0000
1000
0000
,
0001
0000
0001
0000
,
0010
0000
0010
0000
,
0100
0000
0100
0000
,
0010
0010
0000
0001
,
1000
1000
0001
1000
,
0010
0010
0000
1000
,
0100
1000
0001
0100
,
0010
0010
0000
1000
,
0001
0100
0001
0010
,
0100
0100
0000
0010
,
0001
1000
0010
0100
,
2002
0000
0000
0000
,
0000
3000
0003
0000
,
1000
0010
0100
0001
,
0010
0001
1000
0100
,
1000
0010
0100
0001
,
0010
0000
0100
0000
1000
0001
1000
0001
,
1000
0010
0100
0001
,
0010
0001
1000
0100
,
1000
0000
0010
0000
0100
0000
0001
1000
,
0001
0000
1010
0101
,
1001
0001
0010
0001
,
1000
0000
0100
0000
1000
0000
0010
1000
,
0010
0100
0001
0010
,
0100
0000
0100
0000
0010
0000
0100
0010
,
0001
0010
0001
0010
,
0001
0000
0010
0000
0001
0000
0010
0100
,
1000
0100
1000
0010
,
0110
0010
2000
3002
,
0103
0001
0100
0010
,
1000
0000
0010
0000
0100
0000
0010
1000
,
0010
1000
0001
0010
,
0100
0000
0010
0000
0001
0000
1000
0001
,
0100
0001
1010
0001
,
1100
1000
0101
1000
,
0011
0001
1001
0000
,
0110
0000
1010
0000
,
0202
0000
0000
0000
,
0000
0000
0000
0000
,
0303
0000
0000
0000
,
0000
0000
0010
0000
,
0000
0000
0000
0000
,
0000
0000
0000
0000
,
0000
0000
0000
0000
,
1000
0000
0000
0000
,
0100
0000
1000
0000
,
0010
0000
0100
0010
,
0100
0000
0001
0000
,
0010
0000
0100
1000
,
0100
0100
1000
1000
,
0001
0001
0010
0010
,
0001
1000
0010
0100
,
2002
0000
3000
0003
,
1001
0001
0010
0001
,
0101
0100
0010
1000
,
1100
1000
0010
0100
,
0101
0001
0110
1100
,
1001
0001
1000
0010
,
1001
1000
0001
0010
,
1001
0110
0000
0110
,
1001
0000
0101
1010
,
2002
0000
0000
0000
,
3003
0000
0000
0000
;

//---------------dance-single - ----------------
#NOTES:
     dance-single:
     :
     Beginner:
     1:
     0.092736,0.186278,0.047040,0.000000,0.000000,69.000000,64.000000,5.000000,0.000000,0.000000,0.000000,0.092736,0.186278,0.047040,0.000000,0.000000,69.000000,64.000000,5.000000,0.000000,0.000000,0.000000:
0000
0000
0000
0000
,
0000
0000
0000
0000
,
0000
0000
0000
0000
,
0000
0000
0000
0000
,
0000
0000
0000
0000
,
0000
0000
0000
0000
,
0000
0000
0000
0000
,
0000
0000
0000
0000
,
0010
0000
0000
0000
,
1000
0000
0000
0000
,
0001
0000
0000
0000
,
0100
0000
0000
0000
,
0010
0000
0000
0000
,
1000
0000
0000
0000
,
0001
0000
0000
0000
,
1000
0000
0001
0000
,
0110
0000
0000
0000
,
0000
0000
0000
0000
,
0010
0000
0000
0000
,
1000
0000
0000
0000
,
0001
0000
0000
0000
,
1000
0000
0010
0010
,
0010
0000
0000
0000
,
0100
0000
0000
0000
,
0001
0000
1000
0000
,
1001
0000
0000
0000
,
0001
0000
0000
0000
,
1000
0000
0000
0000
,
0010
0000
0000
0000
,
0100
0000
0000
0000
,
0001
0000
0000
0000
,
1000
0000
0000
0000
,
0100
0000
0000
0000
,
1000
0000
0001
1000
,
0001
0000
0000
0000
,
0010
0000
0000
0000
,
0001
0000
0000
0000
,
1000
0000
0000
0000
,
0100
0000
0000
0000
,
1000
0000
0000
0000
,
0010
0000
0100
0000
,
0001
0000
1000
0000
,
1001
0000
0000
0000
,
0000
0000
0000
0000
,
0000
0000
0000
0000
,
0000
0000
0000
0000
,
0000
0000
0000
0000
,
0000
0000
0000
0000
,
0000
0000
0000
0000
,
0000
0000
0000
0000
,
0010
0000
0000
0000
,
1000
0000
0000
0000
,
0001
0000
0000
0000
,
1000
0000
0000
0000
,
0100
0000
0000
0000
,
0010
0000
0000
0000
,
0001
0000
1000
0000
,
0110
0000
0000
0000
,
1000
0000
0000
0000
,
0001
0000
0000
0000
,
0010
0000
0000
0000
,
0001
0000
1000
1000
,
1000
0000
0000
0000
,
0100
0000
0000
0000
,
1000
0000
0000
0001
,
0001
0000
1000
0000
,
0110
0000
0000
0000
;

//---------------dance-single - ----------------
#NOTES:
     dance-single:
     :
     Challenge:
     9:
     0.704253,0.850950,0.639741,0.131711,0.649149,524.000000,456.000000,68.000000,14.000000,0.000000,0.000000,0.704253,0.850950,0.639741,0.131711,0.649149,524.000000,456.000000,68.000000,14.000000,0.000000,0.000000:
// measure 0
0000
0000
0000
0000
,  // measure 1
0000
0000
0000
0000
,  // measure 2
0000
0000
0000
0000
,  // measure 3
0000
0000
0000
0000
,  // measure 4
1000
0000
0000
0000
0001
0100
0010
0100
0001
0000
0000
0000
1000
0000
0100
0000
,  // measure 5
0000
0000
1000
0000
0000
0000
0010
0000
0000
0000
0100
0000
0000
0001
0100
0010
,  // measure 6
1000
0000
0000
0000
1000
0010
0100
0010
1000
0000
0000
0000
0001
0000
1000
0000
,  // measure 7
0100
0010
0100
1000
0000
0001
0100
0010
,  // measure 8
1000
0000
1000
0000
1000
0000
0000
0000
0000
0000
1000
0000
0001
0100
0001
1000
,  // measure 9
0100
0100
0010
0100
0000
0100
0010
0000
,  // measure 10
0001
0000
0001
0000
0001
0000
0000
0000
0000
0000
0001
0000
1000
0010
0100
0001
,  // measure 11
0010
0000
0000
0010
0000
0000
0010
0000
0000
0000
0100
0000
0020
0000
0000
0000
,  // measure 12
0130
0000
0100
0000
0100
0000
0000
0000
0000
0000
0100
0000
0010
0001
0010
0100
,  // measure 13
1000
1000
0001
1000
0000
0100
0010
0000
,  // measure 14
0001
0000
0001
0000
0001
0000
0000
0000
0000
0000
1000
0000
0001
0010
0100
1000
,  // measure 15
0200
0000
0000
0310
0000
0000
0020
0000
0000
0031
0000
0000
0001
0000
0100
0000
,  // measure 16
0120
0000
0000
0000
,  // measure 17
0000
1000
0001
1030
,  // measure 18
1001
0011
1001
1010
,  // measure 19
1001
1100
1001
0101
,  // measure 20
1001
0011
1001
1010
,  // measure 21
1001
0000
0110
0000
2010
3100
0021
0130
,  // measure 22
1001
1010
1001
0011
,  // measure 23
1001
1100
1001
0101
,  // measure 24
0001
0000
0000
0001
0000
0000
1000
0000
0000
1000
0000
0000
0010
0000
0000
0010
0000
0000
0100
0000
0000
0001
1000
0001
,  // measure 25
1000
0000
0000
0000
0000
0000
0000
0000
0001
0100
0000
0100
0000
0100
0010
1000
,  // measure 26
0100
0000
0010
0000
0001
0100
0010
0100
0001
0000
1000
0000
0100
0000
1000
0000
,  // measure 27
0001
0010
1000
0010
0001
0010
1000
0010
,  // measure 28
0100
0000
1000
0000
0010
1000
0100
1000
0010
0000
0100
0000
0001
0000
1000
0000
,  // measure 29
0001
0000
0010
0000
1000
0000
0001
0000
0100
0000
1000
0000
0100
0000
0010
1000
,  // measure 30
0100
0000
0010
0000
0001
0100
0001
1000
0010
0000
0100
0000
0001
0000
0010
0000
,  // measure 31
1000
0000
1000
0000
0010
0000
0001
0000
0001
0000
0010
0000
0100
0000
1000
0100
,  // measure 32
0010
0000
0100
0000
1000
0010
0100
0010
1000
0000
0001
0000
0010
0000
0001
0010
,  // measure 33
0100
0000
0100
0000
1000
0000
1000
0001
0200
0000
0000
0300
0200
0000
0000
0300
,  // measure 34
0010
0000
1000
0000
0001
0010
0100
0010
0001
0000
0010
0000
0100
0000
0010
0000
,  // measure 35
0001
0000
1000
0000
0010
0000
0100
0000
1000
0000
0100
0000
0001
0000
0100
0010
,  // measure 36
1000
0000
0100
0000
0010
0001
0100
0010
1000
0000
0100
0000
1000
0000
0010
0000
,  // measure 37
0100
0000
0001
0000
0010
0000
0001
0000
0100
0000
0010
0000
1000
0000
0001
0010
,  // measure 38
0001
0000
0000
0000
1000
0001
0100
0001
0010
0000
0100
0000
1000
0010
0100
0001
,  // measure 39
0100
0000
0010
0000
1000
0000
0100
0000
0001
0000
0100
0000
0010
0000
0001
1000
,  // measure 40
0001
0000
0101
0000
0001
0100
0010
1000
1100
0000
0000
0110
0000
0000
0010
0001
,  // measure 41
0011
0000
0000
0110
0000
0000
0100
1000
1100
0000
0000
0011
0000
0000
0001
1000
,  // measure 42
1001
0001
0001
0001
,  // measure 43
0001
0000
0000
0001
0000
0000
0001
0000
1000
0001
0000
1000
,  // measure 44
0001
0000
0000
0001
0000
0000
0001
0000
0000
0001
0000
1000
,  // measure 45
0001
0000
0000
0001
0000
0000
0100
0010
1000
0100
0010
0001
,  // measure 46
1000
1000
1000
1000
,  // measure 47
1000
0000
0000
1000
0000
0000
1000
0000
0001
1000
0000
0001
,  // measure 48
1000
0000
0000
1000
0000
0000
1000
0000
0000
1000
0000
0001
,  // measure 49
1000
0100
0010
0100
1000
0001
0010
0100
0010
0001
1000
0100
,  // measure 50
0010
0000
0100
1000
0000
1000
0010
0000
0100
0001
0100
0010
,  // measure 51
1000
0000
0001
1000
0000
1000
0100
0010
0100
1000
0010
0100
,  // measure 52
0001
0000
0100
0001
0000
0001
0010
0000
0010
0001
0100
0010
,  // measure 53
1000
0000
0001
1000
0000
1000
0001
0010
0001
0100
0001
0010
,  // measure 54
0110
0011
0101
1010
,  // measure 55
1100
0000
0000
1010
0000
0000
0110
0000
1000
1001
0000
0001
,  // measure 56
1001
0000
0001
0101
0000
0100
0110
0000
1010
0000
0011
0000
,  // measure 57
1100
0000
0000
0000
0000
0000
0002
0000
1000
2003
0000
3010
,  // measure 58
0110
0000
0100
0101
0000
0001
0011
0000
0001
0010
0001
0100
,  // measure 59
0101
0000
0100
0110
0000
0010
1000
0010
1000
0001
0010
0001
,  // measure 60
1001
0000
1000
1010
0000
0010
0110
0000
0100
0001
0010
0100
,  // measure 61
0110
0000
0100
1100
0000
1000
1001
0000
0110
0000
0001
1000
,  // measure 62
1001
0000
0001
0201
0000
0010
0000
0000
0320
0000
0000
1030
,  // measure 63
1001
0000
0001
2001
0000
0010
0000
0000
3010
0100
0000
0100
,  // measure 64
0110
0000
0000
0110
0000
1010
0000
0000
0001
0101
0000
1000
,  // measure 65
1001
0000
0000
0000
0000
0000
0000
0000
0000
0000
0000
0000
0001
0000
0000
1000
0001
1000
0001
0000
0000
1000
0001
1000
,  // measure 66
0020
0000
0000
0000
,  // measure 67
0030
0000
0000
0000
;
