#VERSION:0.83;
#TITLE:Cytokinesis;
#SUBTITLE:;
#ARTIST:Hommarju;
#TITLETRANSLIT:;
#SUBTITLETRANSLIT:;
#ARTISTTRANSLIT:;
#GENRE:;
#ORIGIN:;
#CREDIT:;
#BANNER:Cytokinesis.png;
#BACKGROUND:Cytokinesis-bg.png;
#PREVIEWVID:;
#JACKET:Cytokinesis-jacket.png;
#CDIMAGE:;
#DISCIMAGE:;
#LYRICSPATH:;
#CDTITLE:;
#MUSIC:Cytokinesis.mp3;
#OFFSET:-0.541998;
#SAMPLESTART:16.452999;
#SAMPLELENGTH:12.468000;
#SELECTABLE:YES;
#BPMS:0.000=111.000,
18.000=116.000,
20.000=123.000,
22.000=132.000,
24.000=140.000,
28.000=154.000,
70.000=160.000,
72.000=170.000,
74.000=175.000,
78.000=180.000,
86.000=200.000,
90.000=188.000,
92.000=182.000,
206.000=191.000,
210.000=205.000,
214.000=212.000,
218.000=225.000,
222.000=233.000,
226.000=250.000,
230.000=255.000,
234.000=267.000,
238.000=280.000,
242.000=310.000,
246.000=330.000,
250.000=350.000,
254.000=360.000,
258.000=380.000,
262.000=425.000,
270.000=500.000,
296.000=464.000,
304.000=444.000,
432.000=111.000;
#STOPS:44.000=0.390,
59.000=0.390,
432.000=0.270,
432.500=0.270,
433.000=0.270,
433.500=0.270;
#DELAYS:;
#WARPS:;
#TIMESIGNATURES:0.000=4=4;
#TICKCOUNTS:0.000=4;
#COMBOS:0.000=1;
#SPEEDS:0.000=1.000=0.000=0;
#SCROLLS:0.000=1.000;
#FAKES:;
#LABELS:0.000=Song Start;
#BGCHANGES:;
#KEYSOUNDS:;
#ATTACKS:
;

//---------------dance-single - ----------------
#NOTEDATA:;
#CHARTNAME:;
#STEPSTYPE:dance-single;
#DESCRIPTION:;
#CHARTSTYLE:;
#DIFFICULTY:Hard;
#METER:10;
#RADARVALUES:0.683877,1.142289,0.243129,0.159292,0.230554,571.000000,542.000000,29.000000,19.000000,0.000000,0.000000,2.000000,0.000000,0.000000,0.683877,1.142289,0.243129,0.159292,0.230554,571.000000,542.000000,29.000000,19.000000,0.000000,0.000000,2.000000,0.000000,0.000000;
#CREDIT:;
#NOTES:
// measure 0
0000
0000
0000
0000
,  // measure 1
0000
0000
0000
0000
,  // measure 2
0000
0000
0000
0000
,  // measure 3
0000
0000
0000
0000
,  // measure 4
2002
0000
3003
0000
,  // measure 5
0000
0000
0000
0000
,  // measure 6
0000
0000
0000
0000
,  // measure 7
0000
0000
0000
0000
0001
0100
0010
1000
,  // measure 8
0001
0000
0010
0000
0000
0000
1000
0000
0000
0000
0010
0001
1000
0000
0001
0000
,  // measure 9
0000
0000
1000
0000
0000
0000
0100
0000
0000
0000
0001
0010
0100
1000
0001
0000
,  // measure 10
0000
0000
1000
0000
0000
0000
0010
0000
0000
0000
0001
0010
1000
0000
0001
0000
,  // measure 11
1001
0000
0000
0000
0001
0000
0001
1000
0010
1000
0100
0010
0100
0000
1000
0000
,  // measure 12
0000
0000
1001
0000
0000
0000
0001
1000
0010
0000
0100
0000
0000
0000
0100
0000
,  // measure 13
0000
0000
0101
0000
0000
0000
0001
1000
0010
1000
0100
0000
0000
0000
0010
0000
,  // measure 14
0000
0000
1001
0000
0000
0000
0001
0010
0100
0000
1000
0000
1001
0000
0000
0000
,  // measure 15
0001
0010
0001
1000
0001
0000
1000
0100
,  // measure 16
0000
0100
0020
0000
0130
0000
1000
0100
,  // measure 17
0000
0010
0200
0000
1300
0000
0001
0010
,  // measure 18
0000
0010
0200
0000
0310
0000
0001
0010
,  // measure 19
0001
0100
0001
0100
0001
0000
1000
0001
,  // measure 20
0020
0000
0031
1000
0020
0000
1030
0001
,  // measure 21
0020
0000
0031
1000
0001
0010
0100
1000
,  // measure 22
0001
0010
0100
1000
2002
0000
0000
0000
,  // measure 23
0000
0000
0000
0000
3003
0000
0000
0000
0001
0000
1000
0000
0010
0000
1000
0010
,  // measure 24
0000
1000
0010
0000
0100
0000
0001
0000
1000
0000
0100
0000
0010
0000
0100
1000
,  // measure 25
0000
0100
1000
0000
0100
0000
1000
0000
0010
0000
0100
0000
0001
0000
0010
0100
,  // measure 26
0000
0010
0100
0000
1000
0000
0001
0000
0000
0000
1000
0000
0020
0000
0000
0130
,  // measure 27
0000
0001
0010
0000
0100
0000
1000
0000
0001
0000
1000
0000
0010
0000
1000
0000
,  // measure 28
0001
0000
0010
0100
0010
0000
0100
0000
1000
0000
0001
0000
0010
0000
0100
0010
,  // measure 29
0000
0100
0010
0000
0001
0000
1000
0000
0010
0000
0100
0000
0001
0000
0010
0100
,  // measure 30
0000
0010
0100
0000
1000
0000
0001
0000
0000
0000
1000
0000
0020
0000
0000
0130
,  // measure 31
0000
0100
0010
0000
1000
0000
0001
0000
0010
0000
0000
0000
1100
0000
0000
1100
,  // measure 32
0000
1000
0100
0000
0010
0000
0001
0000
1001
0000
0000
0000
0101
0000
0000
1010
,  // measure 33
0000
1000
0001
0000
0011
0000
0010
0000
0100
0000
0100
0000
1000
0000
1000
0000
,  // measure 34
0010
0000
0010
0000
0100
0000
0100
0000
0001
1000
0001
1000
0001
1000
0001
1000
,  // measure 35
0001
1000
0001
1000
0001
1000
0001
1000
0001
0000
1000
0000
0100
0000
0000
0000
,  // measure 36
1000
0001
0000
1000
0000
0001
0100
0000
,  // measure 37
0001
1000
0000
0001
0000
1000
0100
0000
,  // measure 38
1000
0010
0000
0100
0000
0001
1000
0000
,  // measure 39
0001
0100
0000
0001
1001
1000
0010
0000
,  // measure 40
1000
0001
0000
0010
0000
0001
0100
0000
,  // measure 41
0010
1000
0000
0001
0000
0010
0100
0000
,  // measure 42
0010
0001
0000
1000
0000
0100
0010
0000
,  // measure 43
0100
0000
1000
0000
0000
0000
0001
0000
1001
0000
0001
1000
0010
0000
0000
0000
,  // measure 44
1000
0100
0010
0000
0001
0000
1000
0000
0000
0000
0001
0100
0010
0000
0000
0000
,  // measure 45
0100
0001
1000
0000
0100
0000
0010
0000
0000
0000
0100
1000
0010
0000
0000
0000
,  // measure 46
0100
0001
0010
0000
0100
0000
0010
0000
0000
0000
0100
1000
0010
0000
0000
0000
,  // measure 47
0100
0001
1000
0000
0001
0000
0010
0000
1100
0000
1000
0010
0100
0000
0010
0000
,  // measure 48
1000
0001
0010
0000
0100
0000
1000
0000
0010
0000
0100
0010
1000
0000
0001
0000
,  // measure 49
0010
0100
1000
0000
0001
1000
0010
0000
0100
0000
0010
1000
0001
0000
0010
0000
,  // measure 50
0100
1000
0010
0000
0100
0000
0001
0000
0010
0000
0100
1000
0010
0000
0100
0000
,  // measure 51
0010
1000
0001
0000
0000
0000
1000
0000
1001
0000
0000
0000
0000
0000
0000
0000
,  // measure 52
0010
0000
1001
0000
,  // measure 53
0100
0000
1001
0000
,  // measure 54
0010
0000
0101
0000
,  // measure 55
0010
0000
1100
0000
,  // measure 56
0010
0000
0101
0000
,  // measure 57
0100
0000
1010
0000
,  // measure 58
0001
0000
1001
0000
,  // measure 59
1000
0000
0001
0100
,  // measure 60
0010
1000
0001
1000
,  // measure 61
0001
1000
0001
0010
,  // measure 62
0100
1000
0001
1000
,  // measure 63
0001
1000
0010
1000
,  // measure 64
0001
0100
0001
1000
,  // measure 65
0001
1000
0001
0010
,  // measure 66
0100
1000
0001
1000
,  // measure 67
0001
0100
0001
1000
,  // measure 68
0001
1000
0001
1000
,  // measure 69
0001
1000
0001
1000
,  // measure 70
0001
1000
0001
1000
,  // measure 71
0001
1000
0001
4000
,  // measure 72
0004
0000
0000
0000
,  // measure 73
0000
0000
0000
0000
,  // measure 74
0000
0000
0000
0000
,  // measure 75
0000
0000
0000
3003
,  // measure 76
1000
0001
0010
0001
,  // measure 77
1000
0001
0100
0010
,  // measure 78
1000
0001
1000
0010
,  // measure 79
0100
0000
0001
0000
1000
0000
0010
1000
,  // measure 80
0010
1000
0001
1000
,  // measure 81
0001
0100
0001
0100
,  // measure 82
0010
0000
1000
0000
0100
0010
0100
0010
,  // measure 83
0100
0000
0010
0000
0001
1000
0001
1000
,  // measure 84
0001
1000
0010
1000
,  // measure 85
0001
1000
0100
0010
,  // measure 86
0100
0010
0001
0100
,  // measure 87
0010
0000
1000
0000
0001
0000
1000
0010
,  // measure 88
1000
0001
0100
0010
,  // measure 89
1000
0100
0010
0001
,  // measure 90
0010
0000
0100
1000
0100
1000
0100
0000
,  // measure 91
2000
3002
0000
0013
,  // measure 92
0000
0100
0010
0001
,  // measure 93
1000
0001
1000
0001
,  // measure 94
0010
0001
0100
0010
,  // measure 95
1000
0000
0010
0000
0100
0000
0001
0010
,  // measure 96
0001
0100
0010
1000
,  // measure 97
0010
0100
0001
0010
,  // measure 98
0100
0000
1000
0001
1000
0000
0100
0000
,  // measure 99
0010
0001
0010
0001
0020
0000
0030
0000
,  // measure 100
0001
0000
0010
0001
1000
0000
0100
0000
,  // measure 101
0010
0000
0001
0000
2000
0000
3001
1000
,  // measure 102
0100
0000
0010
0000
0001
0000
1000
0001
,  // measure 103
1000
0000
0002
0000
0013
0000
0100
1000
,  // measure 104
0100
0010
0001
0010
,  // measure 105
0100
1000
0010
0100
,  // measure 106
0001
1000
0001
1000
0001
1000
0001
1000
,  // measure 107
0001
1000
0001
1000
0001
1000
0001
0000
,  // measure 108
1001
0110
1001
0110
2002
0000
0000
0000
,  // measure 109
3003
0000
0000
0000
;

//---------------dance-single - ----------------
#NOTEDATA:;
#CHARTNAME:;
#STEPSTYPE:dance-single;
#DESCRIPTION:;
#CHARTSTYLE:;
#DIFFICULTY:Medium;
#METER:8;
#RADARVALUES:0.470689,0.731065,0.360502,0.159292,0.000000,393.000000,350.000000,43.000000,19.000000,0.000000,0.000000,0.000000,0.000000,0.000000,0.470689,0.731065,0.360502,0.159292,0.000000,393.000000,350.000000,43.000000,19.000000,0.000000,0.000000,0.000000,0.000000,0.000000;
#CREDIT:;
#NOTES:
0000
0000
0000
0000
,
0000
0000
0000
0000
,
0000
0000
0000
0000
,
0000
0000
0000
0000
,
2002
0000
3003
0000
,
0000
0000
0000
0000
,
0000
0000
0000
0000
,
0000
0000
0000
0000
0001
0010
0100
1000
,
0000
0100
0000
1000
0000
0100
0010
0001
,
0000
0010
0000
0100
0000
1000
1000
0100
,
0000
1000
0000
0010
0000
0100
0010
1000
,
1001
0000
0000
0001
0010
0100
0000
0010
,
0000
0001
0000
1000
1000
0001
0000
0100
,
0000
0010
0000
1000
0010
1000
0000
0010
,
0000
0100
0000
0010
1000
0001
1001
0000
,
0001
0010
0100
1000
0001
0000
1000
0001
,
0000
1000
0002
0000
1003
0000
0001
1000
,
0000
0001
2000
0000
3001
0000
1000
0001
,
0000
1000
0002
0000
1003
0000
0001
0000
,
0100
0010
0100
0010
0100
0000
1010
0000
,
0010
0110
0100
0101
,
0001
1001
1001
0110
,
1001
0110
1001
0000
,
0000
0000
0001
0101
,
0001
0100
0001
0000
0100
0000
0110
0000
,
0010
0100
0010
0000
1000
0000
1010
0000
,
0010
1000
0010
0000
0100
0000
0110
0000
,
0100
0101
0001
1000
,
0100
0100
0100
0000
1000
0000
0010
0000
,
0100
0001
0100
0000
0010
0000
1000
0000
,
0010
0100
0001
0000
1000
0000
0001
0000
,
0010
0000
0100
1000
0010
0000
0100
0000
,
0001
0000
1000
0100
0001
0000
0100
0000
,
1000
0000
0010
0001
0010
0000
0100
0000
,
0010
0000
1000
0000
0001
0100
0001
0100
,
0001
0100
0001
0100
0001
1000
0010
0000
,
1000
0010
0000
1000
0000
0010
0100
0000
,
0010
0100
0000
0010
0000
0100
0001
0000
,
0100
0001
0000
0100
0000
0001
1000
0000
,
0001
1000
0000
0001
0000
0001
0100
0000
,
0100
0001
0000
1000
0000
1000
0100
0000
,
0100
0010
0000
0001
0000
0001
0010
0000
,
0010
0100
0000
1000
0000
0100
1000
0000
,
1000
0010
0000
0010
0100
0000
0001
0000
,
1001
0000
0001
0100
0001
0100
0001
0000
,
1001
0000
1000
0100
,
0010
0000
0001
0010
0001
0010
0001
0000
,
0110
0000
1001
1000
,
0010
0000
1000
0010
1000
0010
1000
0000
,
0010
0000
0100
0001
,
1000
0000
0001
0100
0001
0100
0001
0000
,
0100
0010
0000
1000
1001
0000
0000
0000
,
0000
0000
1001
0000
,
0000
0000
1001
0000
,
0000
0000
1001
0000
,
0000
0000
1001
0000
,
0000
0000
1001
0000
,
0000
0000
1001
0000
,
0000
0000
1001
0000
,
0000
0000
0201
0000
,
0301
0000
0102
0000
,
0103
0000
2010
0000
,
3010
0000
1020
0000
,
1030
0000
2001
0000
,
3001
0000
1002
0000
,
1003
0000
0210
0000
,
0310
0000
0120
0000
,
0130
0000
0001
0000
,
0100
0000
0010
0000
,
1000
0000
0001
0000
,
0100
0000
0010
0000
,
1000
0000
0001
0000
,
0010
0000
0100
0000
,
1000
0000
0001
0000
,
2002
0000
0000
0000
,
0000
0000
0000
3003
,
0001
1000
0010
0000
,
1000
0010
0000
0100
,
0000
0001
0100
0000
,
0100
0001
0000
0010
,
0000
0100
1000
0000
,
0100
1000
0000
0100
,
0000
1000
0001
0000
,
0001
1000
0000
0010
,
0000
0100
0001
0000
,
0001
0100
0000
0010
,
0000
1000
0010
0000
,
0010
0100
0000
0001
,
0000
1000
0100
0000
,
0010
0001
0000
0100
,
0000
0010
1000
0000
,
0001
0020
0000
0130
,
0000
0100
1000
0000
,
0100
0010
0000
0001
,
0000
0010
0100
0000
,
0100
1000
0010
0100
,
0000
0001
1000
0000
,
1000
0010
0000
0100
,
0000
0010
1000
0000
,
0001
0010
0200
0000
,
1300
0100
0100
1000
,
0010
0100
0000
0000
,
0010
0100
0100
0001
,
1000
0001
0010
0001
,
1000
0001
0010
0000
,
0001
0100
0000
0010
,
0000
0100
0010
1000
,
0001
0010
0100
1000
,
1001
1001
0110
0110
2002
0000
0000
0000
,
3003
0000
0000
0000
;

//---------------dance-single - ----------------
#NOTEDATA:;
#CHARTNAME:;
#STEPSTYPE:dance-single;
#DESCRIPTION:;
#CHARTSTYLE:;
#DIFFICULTY:Easy;
#METER:5;
#RADARVALUES:0.309002,0.548299,0.201211,0.058686,0.000000,258.000000,234.000000,24.000000,7.000000,0.000000,0.000000,0.000000,0.000000,0.000000,0.309002,0.548299,0.201211,0.058686,0.000000,258.000000,234.000000,24.000000,7.000000,0.000000,0.000000,0.000000,0.000000,0.000000;
#CREDIT:;
#NOTES:
0000
0000
0000
0000
,
0000
0000
0000
0000
,
0000
0000
0000
0000
,
0000
0000
0000
0000
,
2002
0000
3003
0000
,
0000
0000
0000
0000
,
0000
0000
0000
0000
,
0000
0000
0000
0000
,
0001
1000
0010
0010
,
1000
0001
0100
0100
,
0001
1000
0100
0100
,
1001
0001
1000
0010
,
1000
0001
0001
1000
,
0010
0100
0100
0010
,
1000
0001
0001
1001
,
1000
0001
1001
0000
,
0010
0000
1001
0000
,
0100
0000
1001
0000
,
0010
0000
1001
0000
,
0100
0010
1000
0010
,
0100
0001
1000
0010
,
0100
0001
1000
0100
,
0010
0001
1001
0000
,
0000
0000
0001
0100
,
0000
0001
0000
0100
,
0000
1000
0010
0100
,
0000
0010
0000
0100
,
0000
0001
1000
0100
,
1000
1000
0000
0100
,
0000
1000
0000
0010
,
0000
0100
0000
0001
,
0000
1000
0010
0100
,
0100
0100
0010
1000
,
1000
1000
0001
0010
,
0100
1000
0020
0000
,
0000
0030
1001
0000
,
0001
0000
1000
0000
,
0010
0000
1000
0000
,
0100
0000
1000
0000
,
0010
0000
1001
0000
,
0001
0000
1000
0000
,
0100
0000
1000
0000
,
0010
0000
0100
0000
,
0001
0000
1001
0000
,
0001
0000
0010
0100
,
0010
0000
0100
0000
,
1000
0000
0010
1000
,
0010
0000
1001
0000
,
0001
0000
0100
0010
,
1000
0000
0001
0000
,
0010
0000
0100
0010
,
0001
0000
1001
0000
,
0000
0000
1001
0000
,
0000
0000
1001
0000
,
0000
0000
1001
0000
,
0000
0000
1001
0000
,
0000
0000
1001
0000
,
0000
0000
1001
0000
,
0000
0000
1001
0000
,
0000
0000
1001
0000
,
0000
0000
0001
0000
,
0000
0000
1000
0000
,
0000
0000
0001
0000
,
0000
0000
1000
0000
,
0000
0000
0001
0000
,
0000
0000
1000
0000
,
0000
0000
0001
0000
,
0000
0000
1000
0000
,
0001
0000
1000
0000
,
0001
0000
1000
0000
,
0001
0000
1000
0000
,
0001
0000
1000
0000
,
2002
0000
0000
0000
,
0000
0000
0000
0000
,
3003
0000
0000
0000
,
0000
0000
0000
0000
,
0001
0000
0100
0000
,
0010
0000
1000
0000
,
0010
0000
0100
0000
,
0001
0000
1000
0100
,
1000
0000
0010
0000
,
0100
0000
0001
0000
,
0010
0000
0100
1000
,
0100
1000
0100
0010
,
0001
0000
1000
0000
,
0010
0000
1000
0000
,
0001
0000
0100
0000
,
0001
0000
1000
0001
,
1000
0000
0001
0000
,
0010
0000
0001
0000
,
1000
0000
0010
0000
,
0100
0001
0000
0011
,
0000
0000
0001
0000
,
0010
0000
0001
0000
,
1000
0000
0100
0000
,
1000
0000
0010
0100
,
0010
0000
0100
0000
,
0001
0000
0010
0000
,
0100
0010
0001
1000
,
0001
1000
0001
0000
,
1000
0010
0100
0001
,
1000
0001
0000
0000
,
1000
0001
0100
0010
,
1000
0001
0000
0000
,
1000
0000
0100
0000
,
0010
0000
0001
0000
,
1000
0100
0010
0001
,
1000
0100
0010
0001
,
0100
0010
0100
0010
2002
0000
0000
0000
,
3003
0000
0000
0000
;

//---------------dance-single - ----------------
#NOTEDATA:;
#CHARTNAME:;
#STEPSTYPE:dance-single;
#DESCRIPTION:;
#CHARTSTYLE:;
#DIFFICULTY:Beginner;
#METER:3;
#RADARVALUES:0.132943,0.318374,0.100605,0.016768,0.000000,111.000000,99.000000,12.000000,2.000000,0.000000,0.000000,0.000000,0.000000,0.000000,0.132943,0.318374,0.100605,0.016768,0.000000,111.000000,99.000000,12.000000,2.000000,0.000000,0.000000,0.000000,0.000000,0.000000;
#CREDIT:;
#NOTES:
0000
0000
0000
0000
,
0000
0000
0000
0000
,
0000
0000
0000
0000
,
0000
0000
0000
0000
,
1001
0000
0000
0000
,
0000
0000
0000
0000
,
0000
0000
0000
0000
,
0000
0000
0000
0000
,
1000
0000
0000
0000
,
0001
0000
0000
0000
,
0100
0000
0000
0000
,
0010
0000
0000
0100
,
0000
0000
0000
0010
,
0000
0000
0000
1000
,
0000
0000
0000
0000
,
0001
0000
1001
0000
,
0000
0000
1001
0000
,
0000
0000
1001
0000
,
0000
0000
1001
0000
,
0010
0000
1000
0000
,
0000
0000
0001
0000
,
0000
0000
0100
0000
,
0010
0000
1001
0000
,
0000
0000
1000
0000
,
0000
0000
0010
0000
,
0000
0000
0100
0000
,
0000
0000
0001
0000
,
0000
0000
1000
0000
,
0001
0001
0000
1000
,
0000
0000
0010
0000
,
0000
0000
0100
0000
,
0000
0000
0020
0000
,
0000
0030
0200
0000
,
0000
0300
0001
0000
,
1000
0000
0010
0000
,
0100
0010
1001
0000
,
0000
0000
1000
0000
,
0000
0000
0001
0000
,
0000
0000
0100
0000
,
0000
0000
0110
0000
,
0000
0000
0010
0000
,
0000
0000
1000
0000
,
0000
0000
0100
0000
,
0000
0000
1001
0000
,
0000
0000
0001
0000
,
0000
0000
1000
0000
,
0000
0000
0010
0000
,
0000
0000
0110
0000
,
0000
0000
0100
0000
,
0000
0000
0010
0000
,
0000
0000
1000
0000
,
0000
0000
1001
0000
,
0000
0000
1000
0000
,
0000
0000
0001
0000
,
0000
0000
1000
0000
,
0000
0000
0001
0000
,
0000
0000
1000
0000
,
0000
0000
0001
0000
,
0000
0000
1000
0000
,
0000
0000
0001
0000
,
0000
0000
1000
0000
,
0000
0000
0001
0000
,
0000
0000
1000
0000
,
0000
0000
0001
0000
,
0000
0000
1000
0000
,
0000
0000
0001
0000
,
0000
0000
1000
0000
,
0000
0000
0001
0000
,
0000
0000
0000
0000
,
0000
0000
0000
0000
,
0000
0000
0000
0000
,
0000
0000
0000
0000
,
1000
0000
0000
0000
,
0000
0000
0000
0000
,
0000
0000
0000
0000
,
0000
0000
0000
0000
,
0010
0000
0000
0000
,
0000
0000
0000
0000
,
0100
0000
0000
0000
,
0000
0000
0000
0000
,
0001
0000
0000
0000
,
0000
0000
0000
0000
,
1000
0000
0000
0000
,
0001
0000
0000
0000
,
0100
0000
0000
0000
,
0000
0000
0000
0000
,
0010
0000
0000
0000
,
0000
0000
0000
0000
,
1000
0000
0000
0000
,
0000
0000
0000
0000
,
0010
0000
0000
0000
,
0100
0000
0000
0000
,
0010
0000
0000
0000
,
0000
0000
0000
0000
,
1000
0000
0000
0000
,
0000
0000
0001
0000
,
0001
0000
0000
0000
,
0000
0000
0000
0000
,
1000
0000
0000
0000
,
0010
0000
0000
0000
,
0100
0000
0100
0000
,
0100
0000
0000
0000
,
0010
0000
0010
0000
,
0010
0000
0000
0000
,
1000
0000
0000
0000
,
0001
0000
0000
0000
,
1000
0000
0001
0000
,
0100
0000
0010
0000
,
0000
0000
1001
0000
;
