#VERSION:0.82;
#TITLE:Critical Crystal;
#SUBTITLE:;
#ARTIST:青龍;
#TITLETRANSLIT:;
#SUBTITLETRANSLIT:;
#ARTISTTRANSLIT:Seiryu;
#GENRE:;
#ORIGIN:;
#CREDIT:;
#BANNER:Critical Crystal.png;
#BACKGROUND:Critical Crystal-bg.png;
#PREVIEWVID:;
#JACKET:Critical Crystal-jacket.png;
#CDIMAGE:;
#DISCIMAGE:;
#LYRICSPATH:;
#CDTITLE:;
#MUSIC:10. Critical Crystal.ogg;
#OFFSET:0.706000;
#SAMPLESTART:23.160000;
#SAMPLELENGTH:12.000000;
#SELECTABLE:YES;
#BPMS:0.000=191.000,
114.000=382.000,
116.000=191.000,
123.000=382.000,
125.000=191.000,
132.000=382.000,
134.000=191.000,
218.000=382.000,
220.000=191.000,
222.000=382.000,
224.000=191.000,
226.000=382.000,
228.000=191.000,
230.000=382.000,
232.000=191.000,
257.000=382.000,
259.000=191.000,
287.000=382.000,
291.000=191.000,
315.000=382.000,
316.000=191.000,
317.000=382.000,
318.000=191.000,
319.000=382.000,
322.500=191.000;
#STOPS:185.000=0.314,
218.000=0.079,
218.500=0.079,
219.000=0.079,
219.500=0.079,
222.000=0.079,
222.500=0.079,
223.000=0.079,
223.500=0.079,
226.000=0.079,
226.500=0.079,
227.000=0.079,
227.500=0.079,
230.000=0.157,
231.000=0.079,
231.500=0.079,
287.000=0.079,
287.500=0.079,
288.000=0.039,
288.250=0.039,
288.500=0.079,
289.000=0.079,
289.500=0.079,
290.000=0.079,
290.500=0.079,
315.000=0.039,
315.250=0.039,
315.500=0.039,
315.750=0.039,
317.000=0.039,
317.250=0.039,
317.500=0.039,
317.750=0.039,
319.000=0.079,
319.500=0.079,
320.000=0.236,
320.500=0.079,
321.000=0.079,
321.500=0.079,
322.000=0.079;
#DELAYS:;
#WARPS:;
#TIMESIGNATURES:0.000=4=4;
#TICKCOUNTS:0.000=4;
#COMBOS:0.000=1;
#SPEEDS:0.000=1.000=0.000=0;
#SCROLLS:0.000=1.000;
#FAKES:;
#LABELS:0.000=Song Start;
#BGCHANGES:0.000=Critical Crystal BGA.avi=1.000=1=0=0=StretchNoLoop==CrossFade==,
99999=-nosongbg-=1.000=0=0=0 // don't automatically add -songbackground-
;
#KEYSOUNDS:;
#ATTACKS:
;

//---------------dance-single - ----------------
#NOTEDATA:;
#CHARTNAME:;
#STEPSTYPE:dance-single;
#DESCRIPTION:;
#CHARTSTYLE:;
#DIFFICULTY:Hard;
#METER:10;
#RADARVALUES:0.721482,1.000000,0.138842,0.303717,0.229957,531.000000,16.000000,35.000000,0.000000,0.000000,0.000000,0.000000,0.000000,0.721482,1.000000,0.138842,0.303717,0.229957,531.000000,16.000000,35.000000,0.000000,0.000000,0.000000,0.000000,0.000000;
#CREDIT:;
#NOTES:
0000
0000
0000
0000
,
0000
0000
0000
0000
,
0000
0000
0000
0000
,
0001
0000
0000
0100
0000
0000
0001
0000
1000
0000
0100
0000
0010
0000
0001
0000
,
1000
0000
0000
0010
0000
0000
1000
0000
0100
0000
0100
0000
0100
0010
0100
0010
,
0001
0000
1000
0000
0010
0000
0010
1000
0002
0000
0000
0000
1003
0000
0001
0000
,
0010
0010
0010
0000
0100
1000
0100
0001
,
0100
0000
0000
0010
0000
0000
0100
0000
1000
0000
0001
0000
1000
0000
0010
0000
,
0100
0000
0000
0001
0000
0000
0010
0000
0100
0000
0100
0000
0100
0010
0100
0010
,
0100
0000
0010
0001
0100
0000
0010
1000
0001
0000
0010
0100
1000
0000
0100
0000
,
1000
0001
0100
0001
1000
0100
1000
0001
0100
0000
0000
0000
1001
0000
0000
0000
,
0001
1000
0001
0100
0000
0010
0100
1000
,
0100
0010
1000
0010
0100
0001
1000
0100
,
0010
0001
1000
0010
0000
0100
0001
1000
,
0001
0100
0001
1000
0001
1000
0001
0100
,
0010
1000
0010
1000
0010
0100
0010
0100
,
0010
0001
0010
0001
0010
0100
0010
0100
,
0020
1030
0200
0301
0200
0310
0002
0103
,
0001
0010
0100
0010
0001
1000
0100
0010
,
0001
0010
1000
0010
0000
0100
0010
0001
,
0100
1000
0100
0010
1000
0001
0010
0100
,
0010
0001
0010
0100
0000
1000
0100
1000
,
0001
0100
0001
1000
0010
0100
0001
1000
,
0100
1000
0100
0001
0000
0001
0100
1000
,
0001
0100
1000
0100
0001
1000
0100
1000
,
0001
1000
0001
0100
0000
0001
0100
0010
,
1000
0001
0010
0100
1000
0100
0010
0001
,
1000
0001
0100
0001
,
0010
0100
0020
0000
,
0130
1000
0001
0000
0100
0000
0001
0000
,
0010
0001
1000
0010
,
1000
0000
0100
0010
0011
0000
0010
0000
,
0100
1000
0010
0100
,
0002
0000
0000
0000
1003
0001
0100
1000
,
0100
0001
0010
0100
0010
0001
0000
0001
,
0000
1000
0000
1000
0000
0010
0200
0000
,
0000
0000
0002
0000
,
0000
0000
0303
0002
,
0000
0000
2000
0000
,
0000
0000
3003
2000
,
0000
0000
0200
0000
,
0000
0000
3300
0200
,
0000
0000
0020
0000
,
0000
0000
0330
0100
,
0100
0000
0100
1000
0100
0010
0000
0010
,
0000
0010
0000
0000
0000
0000
0000
0000
,
0000
0000
0000
0000
0001
0100
0001
0100
,
0001
0000
1000
0002
0000
0000
0000
0000
0013
0000
0001
0000
0010
0000
0001
0000
,
1000
0000
0000
0010
0000
0000
0100
0000
0010
0000
1000
0000
0010
0000
1000
0000
,
0010
0000
1000
0002
0000
0000
0000
0000
0013
0000
0100
0000
0010
0000
0100
0000
,
1000
0000
0000
0010
0000
0000
0100
0000
0001
0000
0100
0000
1000
0000
0100
0000
,
0010
0000
1000
0002
0000
0000
0000
0000
1003
0000
0100
0000
0010
0000
0100
0000
,
1000
0000
0000
0100
0000
0000
0001
0000
0100
0000
0010
0000
0001
0000
1000
0000
,
0010
0000
0100
0020
0000
0000
0000
0000
0130
0000
0000
0000
0010
0000
0000
1000
,
0000
0000
0000
0001
0000
0000
1000
0000
0001
0000
0100
0000
0001
0000
0100
0000
,
0101
0000
0101
0000
0100
0010
0100
0010
,
0110
0000
0110
0000
0010
1000
0010
1000
,
1010
0000
1010
0000
1000
0000
0001
0100
,
0010
0000
0100
0100
0001
0010
0100
0010
,
0001
0100
0010
1000
0100
0001
0100
0010
,
0001
0010
1000
0010
0100
0010
0001
0100
,
0010
0000
1000
0000
0001
0000
0010
0000
0001
0000
0001
0100
0010
0000
1000
0010
,
0100
0000
0001
0010
0100
0000
1000
0000
0100
0000
0120
0000
0032
1003
0002
0000
,
0203
0000
0310
1000
0020
0000
0001
0000
0130
0010
1000
0001
0010
0001
1000
0010
,
1000
0000
2002
0000
0000
3003
0001
0010
,
0100
0000
0010
0000
0001
0000
0100
0001
0000
0001
0100
0000
0010
0000
1000
0000
,
0100
0000
1000
0000
0010
0000
1000
0010
0000
0010
0100
0000
0010
0000
1000
0000
,
0001
0000
0010
0000
0001
0000
0100
0010
0000
0010
0100
0000
0010
0000
1000
0000
,
0100
0000
1000
0000
0001
0000
0100
0010
0000
0010
1000
0000
0100
0000
1000
0000
,
0001
0000
0100
0000
0010
0000
1000
0010
0000
1000
0010
0000
0100
0000
0001
0000
,
1000
0000
0100
0000
0010
0000
0001
0010
0000
0010
0100
0000
0010
0000
0001
0000
,
1000
0000
0010
0000
0100
0000
0001
0100
0000
0010
1000
0000
0001
0000
0001
0000
,
1000
0010
1000
0000
0001
0000
0001
0000
1000
0000
1000
0000
0011
0000
0010
0000
,
0100
1100
0000
1000
0100
0010
0001
0010
,
1000
0010
0100
0010
0001
1000
1010
0010
,
0100
0110
0000
0100
0001
0100
0010
1000
,
0100
1000
0010
0001
0010
0100
0110
0010
,
1000
1100
0000
0100
1000
0100
0001
0100
,
0010
0000
0001
0000
0100
0000
1000
0000
0100
0000
0010
0000
1000
0001
1000
0001
,
1000
0000
0100
0000
0010
0100
0010
0100
0010
0000
0001
0000
1000
0000
0100
0000
,
2000
3001
1000
0100
0010
0200
0000
0000
,
0000
0000
0000
2000
0000
0000
0000
0000
,
0000
0000
0000
3300
0000
0200
0000
0000
,
0000
0000
0000
0020
0000
0000
0000
0000
,
0000
0000
0000
0330
0000
0200
0000
0000
,
0000
0000
0000
2000
0000
0000
0000
0000
,
0000
0000
0000
3300
0000
0200
0000
0000
,
0000
0000
0000
0020
0000
0000
0000
0000
,
0000
0000
0000
0330
0000
0010
0000
0010
,
0000
0100
1000
0001
0010
0000
0010
0000
,
0010
0000
0000
0000
;

//---------------dance-single - ----------------
#NOTEDATA:;
#CHARTNAME:;
#STEPSTYPE:dance-single;
#DESCRIPTION:;
#CHARTSTYLE:;
#DIFFICULTY:Easy;
#METER:5;
#RADARVALUES:0.348344,0.585739,0.069421,0.425203,0.000000,224.000000,8.000000,49.000000,0.000000,0.000000,0.000000,0.000000,0.000000,0.348344,0.585739,0.069421,0.425203,0.000000,224.000000,8.000000,49.000000,0.000000,0.000000,0.000000,0.000000,0.000000;
#CREDIT:;
#NOTES:
0000
0000
0000
0000
,
0000
0000
0000
0000
,
0000
0000
0000
0000
,
0001
1000
0010
0010
,
1000
0001
0020
0230
,
1300
0100
0020
0130
,
1000
0001
0200
0000
,
0301
0100
0020
0000
,
0130
0001
2000
0000
,
3001
0100
1000
0100
,
0010
0010
0010
0100
,
0001
0000
1000
0000
,
0010
0000
0100
0000
,
0010
0000
1000
0000
,
0001
0000
1000
0000
,
0100
0100
0010
0010
,
0001
0001
1000
1000
,
0010
1000
0010
0100
,
0010
0001
0010
0100
,
0001
1000
0000
0100
,
1000
0010
0100
0001
,
1000
0100
0000
1000
,
0010
0100
0001
0010
,
0100
1000
0000
0100
,
1000
0010
0100
0001
,
0010
0100
0000
0010
,
0001
1000
0010
0100
,
0001
0000
1000
0000
,
0010
0000
0100
0000
,
0010
1000
0000
0001
,
0000
0100
0000
0010
,
0000
1000
0100
0000
,
0010
0000
0001
0000
,
1000
0000
0001
0100
,
0000
0001
0000
1000
,
0000
0100
0000
0020
,
0000
0000
0200
0000
,
0000
0000
0330
0200
,
0000
0000
2000
0000
,
0000
0000
3300
2000
,
0000
0000
0002
0000
,
0000
0000
3003
0002
,
0000
0000
0200
0000
,
0000
0000
0303
0002
,
0000
0000
0000
0000
,
0000
0003
0000
0000
0000
0000
0000
0000
,
0000
0000
0001
1000
,
0200
0000
1300
0010
,
0200
0000
0310
1000
,
0002
0000
1003
0100
,
0010
0001
0010
0100
,
0020
0000
0130
1000
,
0002
0000
0103
0010
,
2000
0000
3010
0100
,
0001
0000
1000
0000
0002
0000
0000
0003
,
0100
0010
2000
0000
,
3010
0100
0002
0000
,
0103
0010
2000
0000
,
3010
0100
0010
0010
,
2000
0000
3010
0100
,
0002
0000
1003
0100
,
0010
0001
0011
0011
,
1100
1100
2002
0000
,
0000
0000
0000
0000
,
0000
3003
0000
0001
,
0100
0020
0000
0130
,
0001
2000
0000
3100
,
1000
0020
0000
0130
,
0100
0010
0010
0100
,
0001
2000
0000
3100
,
1000
0020
0000
0130
,
0001
1000
0010
0200
,
0000
0000
0000
0310
,
1000
0000
0010
0100
,
0001
0010
0100
0010
,
0001
0000
0010
0100
,
1000
0010
0100
0001
,
1000
0000
0001
0100
,
0010
1000
0001
0202
,
0303
2200
3300
2002
,
0000
0000
0000
0000
3003
0002
0000
0000
,
0000
0000
0000
0200
0000
0000
0000
0000
,
0000
0000
0000
0303
0000
0002
0000
0000
,
0000
0000
0000
2000
0000
0000
0000
0000
,
0000
0000
0000
3003
0000
0002
0000
0000
,
0000
0000
0000
0200
0000
0000
0000
0000
,
0000
0000
0303
0000
0000
0002
0000
0000
,
0000
0000
0000
2000
0000
0000
0000
0000
,
0000
0000
0000
0000
3003
0001
0000
0010
,
0000
0100
0000
0000
0010
0000
0010
0000
,
0010
0000
0000
0000
;

//---------------dance-single - ----------------
#NOTEDATA:;
#CHARTNAME:;
#STEPSTYPE:dance-single;
#DESCRIPTION:;
#CHARTSTYLE:;
#DIFFICULTY:Medium;
#METER:7;
#RADARVALUES:0.535533,0.624788,0.173552,0.208263,0.000000,388.000000,20.000000,24.000000,0.000000,0.000000,0.000000,0.000000,0.000000,0.535533,0.624788,0.173552,0.208263,0.000000,388.000000,20.000000,24.000000,0.000000,0.000000,0.000000,0.000000,0.000000;
#CREDIT:;
#NOTES:
0000
0000
0000
0000
,
0000
0000
0000
0000
,
0000
0000
0000
0000
,
1000
0000
1001
0000
0001
0100
0001
0100
,
0001
0000
0110
0000
0100
0100
0001
1000
,
0100
0100
1000
0000
0010
0010
0001
0000
,
1000
0001
0100
0000
0001
0100
0010
1000
,
0001
0000
0101
0000
0100
0010
0100
0010
,
0100
0000
0101
0000
1000
0001
1000
0001
,
0020
0130
0200
1300
,
0200
0310
0002
1003
0002
0003
2010
0000
,
3010
0100
0010
1000
0000
0000
0001
0000
,
1000
0010
1000
0001
,
0010
0100
0010
1000
0000
0000
0100
0000
,
0010
0001
1000
0010
,
0100
0010
0100
0000
0001
0100
0001
0000
,
0100
0010
0100
0000
0010
1000
0010
0000
,
0001
0100
0001
0000
0100
0010
0100
0000
,
1000
0100
0010
0001
1000
0100
0010
0001
,
1000
1001
0001
1001
,
0001
0100
0010
1000
0001
0100
0010
1000
,
0001
0101
0100
0101
,
0001
0010
0100
1000
0001
0010
0100
1000
,
0100
1100
0100
1100
,
0100
0010
0001
0010
0100
1000
0010
0100
,
0001
0110
0100
0110
,
0200
0310
0020
1030
,
0001
1000
0010
1000
,
0001
0100
1001
0000
,
0001
1000
0010
0000
1000
0000
0100
0000
,
0001
0100
1000
0010
,
0000
0000
0100
0001
1000
0000
0100
0000
,
1000
0010
0100
0001
,
1001
0000
0000
0000
0001
1000
0010
0000
,
1000
0000
0100
0000
0010
0100
0000
0010
,
0000
0001
0000
1000
0000
0010
0200
0000
,
0000
0000
0002
0000
,
0000
0000
0303
0002
,
0000
0000
2000
0000
,
0000
0000
3003
2000
,
0000
0000
0200
0000
,
0000
0000
3300
2000
,
0000
0000
0002
0000
,
0000
0000
3003
0001
,
0100
0000
0010
0000
0000
0100
0000
0100
,
0000
0100
0000
0000
0000
0000
0000
0000
,
0000
0000
0010
1000
,
0001
1000
0001
0000
0100
0000
0010
0000
,
1000
0100
0010
0000
0100
0000
1000
0000
,
0010
0100
0001
0000
0100
0000
0100
0000
,
0010
0010
0100
0001
,
1000
0001
1000
0000
0001
0000
0010
0000
,
0100
0010
0100
0000
0010
0000
0001
0000
,
1000
0001
1000
0000
0001
0000
0100
0000
,
0010
0000
1000
0000
0001
0100
0001
0100
,
0001
0000
0100
0000
0010
1000
0010
1000
,
0010
0000
1000
0000
0001
1000
0001
1000
,
0001
0000
1000
0000
0100
0000
1000
0010
,
0100
0000
0010
0010
0100
0000
0001
0000
,
1000
0100
0010
0000
0100
0000
1000
0000
,
0010
0100
0001
0000
1000
0001
1000
0000
,
0001
0100
0001
0000
0001
0100
0010
1000
,
0001
0100
0010
0000
0001
0100
0010
1000
,
0001
0100
0010
1000
0001
0001
1000
1000
,
0001
1001
0000
0001
,
0100
0000
0010
1000
0100
0000
0010
0000
,
0001
0000
0010
0100
1000
0010
0100
0000
,
0010
0000
0100
0001
1000
0000
1001
0000
,
1001
0000
0110
0000
0110
0000
0001
0100
,
0010
0000
0100
0010
1000
0000
0010
0100
,
0001
0000
1000
0100
0010
0001
0010
0000
,
0001
0000
0100
0000
0010
0000
1000
0001
,
1000
0001
1000
0001
1000
0001
1000
0001
,
0100
0010
0000
0010
0100
0001
1000
0000
,
1000
0000
0001
0000
0001
0000
0010
0100
,
1000
0100
0000
0100
1000
0010
0100
0000
,
0100
0010
0010
1000
,
0001
0100
0010
1000
,
0001
0000
0100
0000
0010
0000
0001
0100
,
0001
0000
0100
0010
0100
0000
0010
1000
,
0001
0010
0100
1000
0010
0200
0000
0000
,
0000
0000
0000
0002
0000
0000
0000
0000
,
0000
0000
0303
0000
0000
0002
0000
0000
,
0000
0000
0000
2000
0000
0000
0000
0000
,
0000
0000
0000
3003
0000
2000
0000
0000
,
0000
0000
0000
0200
0000
0000
0000
0000
,
0000
0000
0000
3300
0000
2000
0000
0000
,
0000
0000
0000
0002
0000
0000
0000
0000
,
0000
0000
0000
3003
0000
0001
0000
0100
,
0000
0010
1000
0010
1000
0000
1000
0000
,
1000
0000
0000
0000
;

//---------------dance-single - ----------------
#NOTEDATA:;
#CHARTNAME:;
#STEPSTYPE:dance-single;
#DESCRIPTION:;
#CHARTSTYLE:;
#DIFFICULTY:Challenge;
#METER:13;
#RADARVALUES:1.000000,1.000000,0.329749,0.581400,0.702887,767.000000,38.000000,67.000000,0.000000,0.000000,0.000000,0.000000,0.000000,1.000000,1.000000,0.329749,0.581400,0.702887,767.000000,38.000000,67.000000,0.000000,0.000000,0.000000,0.000000,0.000000;
#CREDIT:;
#NOTES:
// measure 0
0000
0000
0000
0000
,  // measure 1
0000
0000
0000
0000
,  // measure 2
0000
0000
0000
0000
,  // measure 3
0001
0000
0100
0010
0000
0100
0010
0000
1000
0000
0001
0000
0010
0000
0001
0000
,  // measure 4
1000
0000
0100
1000
0000
0100
1000
0000
0010
0000
0010
0000
0100
0010
0100
0010
,  // measure 5
1000
0000
1000
0000
0002
0000
0013
0100
1000
0000
1000
0000
0001
0000
0001
0000
,  // measure 6
0010
0010
0010
0000
0100
1000
0100
0010
,  // measure 7
0001
0000
0100
0001
0000
0100
0001
0000
1001
0000
1001
0000
1001
0000
1001
0000
,  // measure 8
1000
0000
0001
0010
0000
0010
0100
0000
1000
0000
1000
0000
0001
0100
0001
0100
,  // measure 9
0001
0000
0100
0010
2000
0000
3001
0010
0200
0000
0310
0001
2000
0000
3010
1000
,  // measure 10
0200
0301
0200
1300
0200
0301
0200
1300
0010
0000
0000
0000
2002
0000
3003
0000
,  // measure 11
0101
0001
0011
0010
0000
0100
1000
0010
,  // measure 12
0100
0001
1000
0100
1000
0010
0100
0001
,  // measure 13
1001
0001
0011
0010
0000
0010
0001
1000
,  // measure 14
0001
0100
0001
1000
0100
0010
0100
1000
,  // measure 15
0001
0001
0100
0100
0010
0010
1000
1000
,  // measure 16
0100
0100
0001
0001
0100
0100
0010
0010
,  // measure 17
0001
0001
0010
0010
0100
0100
1000
1000
,  // measure 18
0001
0010
0100
1000
0100
0010
0100
1000
,  // measure 19
1001
1000
1100
0100
0000
0100
1100
1000
,  // measure 20
0010
0001
0010
0100
0010
1000
0001
0010
,  // measure 21
0110
0100
1100
1000
0000
0100
1000
0001
,  // measure 22
0100
0001
1000
0100
0010
0100
1000
0001
,  // measure 23
0101
0100
0110
0010
0000
0100
0010
1000
,  // measure 24
0001
1000
0010
1000
0001
0100
0001
0010
,  // measure 25
0110
0010
0011
0001
0000
0010
0100
1000
,  // measure 26
0001
0000
0020
0000
0130
0010
0001
1000
0010
0000
0000
0000
0202
0000
0303
0000
,  // measure 27
0001
0000
1000
0001
1000
0000
0001
0000
0100
0000
0010
0000
1000
0000
0100
0000
,  // measure 28
0000
0000
0100
0000
0000
0000
1000
0000
0001
0200
0000
0000
0300
0000
0000
0000
,  // measure 29
0010
0100
0010
1000
0001
0000
1000
0010
0100
0000
0010
0000
0100
0000
0001
0000
,  // measure 30
1000
0001
0000
0001
0000
1000
0001
0100
,  // measure 31
0010
0000
1000
0000
0001
0010
0100
1000
0001
0000
1000
0100
1000
0000
0100
0010
,  // measure 32
0100
0010
0001
1000
0000
1000
0000
0001
,  // measure 33
0010
0000
0000
0000
0000
0000
0100
0000
1000
0001
1000
0100
1000
0000
1001
0000
,  // measure 34
0001
1000
0010
1000
0001
0000
0010
0100
1000
0000
0001
0000
0100
0000
0001
0000
,  // measure 35
0010
0001
0100
0001
0010
0001
2000
0000
,  // measure 36
3001
0100
1000
0100
0020
0100
0000
0100
,  // measure 37
0000
0100
0000
0130
0010
1000
0020
0000
,  // measure 38
0130
0010
1000
0001
0020
0100
0000
0100
,  // measure 39
0000
0100
0000
0130
0010
0001
0020
0000
,  // measure 40
0130
0010
0001
1000
0020
0100
0000
0100
,  // measure 41
0000
0100
0000
0130
0010
1000
0020
0000
,  // measure 42
0130
0010
1000
0001
0020
0100
0000
0100
,  // measure 43
0000
0100
0000
0130
0010
0001
0100
0000
,  // measure 44
0100
0010
1000
0001
0010
0100
0000
0100
,  // measure 45
0000
0100
0000
0000
0000
0000
0000
0000
,  // measure 46
0000
0000
0000
0000
0000
0000
0000
0000
0001
0000
1000
0100
1000
0000
1000
0010
,  // measure 47
0100
0001
0010
0100
1000
0100
1000
0100
1000
0000
0001
0100
0010
0000
0100
0010
,  // measure 48
1000
0000
0001
0100
0000
0001
0100
0000
0001
0000
1000
0010
1000
0000
0010
0100
,  // measure 49
0001
0010
0100
1000
0001
1000
0001
1000
0001
0000
1000
0001
0010
0000
0001
1000
,  // measure 50
0010
0000
0100
0010
0000
0100
0010
0000
1000
0000
0001
0010
0001
0000
0001
0100
,  // measure 51
0010
1000
0100
0010
0001
0010
0001
0010
0001
0000
1000
0010
0100
0000
0010
0100
,  // measure 52
0001
0000
1000
0010
0000
1000
0010
0000
1000
0000
0001
0100
0001
0000
0100
0010
,  // measure 53
1000
0100
0010
0001
1000
0001
1000
0001
1000
0000
0001
1000
0100
0000
1000
0001
,  // measure 54
0100
0000
0010
0100
0000
0010
0100
0000
0002
0000
0203
0000
2300
0000
3200
0000
,  // measure 55
0310
0100
0001
1000
0100
1000
0100
1000
0200
0000
0320
0000
0032
0000
2003
0000
,  // measure 56
3001
0100
0010
1000
0001
1000
0001
1000
0002
0000
0203
0000
0320
0000
2030
0000
,  // measure 57
3010
0100
0001
1000
0001
0100
0001
0100
0002
0000
0003
0000
2000
0000
3200
0000
,  // measure 58
0310
0000
0000
0010
0200
0300
0200
0300
1000
0000
0001
0100
0010
0000
0100
0010
,  // measure 59
1000
0001
0010
0100
1000
0001
1000
0001
1000
0000
0001
0100
0001
0000
0100
0010
,  // measure 60
0100
0000
0010
1000
0000
0010
1000
0000
0001
0100
0001
0100
0001
0100
0001
0100
,  // measure 61
0001
0100
0001
0100
0001
0100
0001
0100
0001
0000
0100
0010
2000
0000
3001
0010
,  // measure 62
0200
0000
1300
0100
0020
0000
0032
0000
1003
0000
1001
0000
0001
0100
0001
0010
,  // measure 63
0100
0000
0100
0010
0001
0000
1000
0000
0001
0020
1030
0020
0031
0020
1030
0020
,  // measure 64
0031
0000
0000
0000
2002
0000
0000
0000
0000
0000
3003
0000
1000
0010
1000
0001
,  // measure 65
0010
0001
1000
0010
0100
0001
0010
0100
1000
0100
1000
0100
1000
0000
0001
0100
,  // measure 66
0001
0000
0100
0010
0100
0000
0010
1000
0000
0010
1000
0000
0001
0000
1000
0001
,  // measure 67
0100
0000
0100
0010
1000
0001
0010
0100
1000
0100
1000
0100
1000
0000
0001
0100
,  // measure 68
0010
0000
0100
0001
0010
0000
0000
0100
0000
0000
1000
0000
0001
0100
0001
1000
,  // measure 69
0100
1000
0001
0100
0010
1000
0100
0010
0001
0010
0001
0010
0001
0000
1000
0010
,  // measure 70
1000
0000
0010
0100
0010
0000
0100
0001
0000
0100
0001
0000
1000
0000
0001
1000
,  // measure 71
0010
0000
0010
0100
0001
1000
0100
0010
0001
0010
0001
0010
0002
0000
0203
0000
,  // measure 72
0320
2030
3020
0000
0230
0000
0302
0000
2003
0000
3100
0000
0110
0000
0010
0000
,  // measure 73
0011
1001
0000
0001
0011
0110
0100
1000
,  // measure 74
0010
0100
0001
0010
1000
0010
0110
0100
,  // measure 75
1100
1001
0000
0001
0101
0100
0010
1000
,  // measure 76
0001
0010
0100
0010
0001
1000
1001
0001
,  // measure 77
0101
0011
0000
0001
0011
0010
1000
0010
,  // measure 78
0001
0000
0100
0000
0010
0000
1000
0000
0001
0000
1000
0000
0001
0100
0010
1000
,  // measure 79
0001
0000
0100
0000
0010
1000
0100
0010
0001
0000
0010
0000
1100
0000
1001
0000
,  // measure 80
0202
0303
0001
0000
0100
0000
0010
0000
1000
0000
0020
0000
0000
0000
0130
0000
,  // measure 81
1000
0010
1000
0002
1000
0000
1000
0000
,  // measure 82
1000
0000
1003
0001
0010
0002
0000
1003
,  // measure 83
0001
0010
0100
2000
0100
0000
0100
0000
,  // measure 84
0100
0000
3100
0010
0001
2000
0000
3001
,  // measure 85
0100
0010
1000
0002
1000
0000
1000
0000
,  // measure 86
1000
0000
1003
0001
0010
0002
0000
1003
,  // measure 87
0001
0010
0100
2000
0100
0000
0100
0000
,  // measure 88
0100
0000
3100
0010
0001
1000
0000
1000
,  // measure 89
0001
0010
0100
1000
0010
0000
0010
0000
,  // measure 90
0010
0000
0000
0000
;

//---------------dance-single - ----------------
#NOTEDATA:;
#CHARTNAME:;
#STEPSTYPE:dance-single;
#DESCRIPTION:;
#CHARTSTYLE:;
#DIFFICULTY:Beginner;
#METER:3;
#RADARVALUES:0.220659,0.273345,0.034710,0.112809,0.000000,161.000000,4.000000,13.000000,0.000000,0.000000,0.000000,0.000000,0.000000,0.220659,0.273345,0.034710,0.112809,0.000000,161.000000,4.000000,13.000000,0.000000,0.000000,0.000000,0.000000,0.000000;
#CREDIT:;
#NOTES:
0000
0000
0000
0000
,
0000
0000
0000
0000
,
0000
0000
0000
0000
,
1000
0000
0001
0001
,
0001
0000
1000
0000
,
0001
0000
0100
0000
,
0010
0010
0100
0000
,
0010
0000
1000
1000
,
0010
0000
1000
1000
,
0001
0000
1000
0000
,
0010
0010
0000
1001
,
0000
0001
0000
1000
,
0001
0000
0100
0000
,
0010
0000
0000
0100
,
0010
0000
1000
0000
,
0001
0000
0001
0000
,
1000
0000
1000
0000
,
0010
0000
0100
0000
,
0002
0000
0000
0003
,
1000
1000
0000
0001
,
0001
0000
0100
0000
,
0010
0010
0000
0100
,
0001
0000
0100
0000
,
0010
0010
0000
1000
,
0001
0000
1000
0000
,
0010
0010
0000
0100
,
0010
0000
1000
0000
,
0001
0000
0000
0000
,
1000
0000
0001
0000
,
0000
0100
0000
0000
,
0000
0010
0000
0100
,
0000
0000
0010
0000
,
0000
0000
1000
0000
,
0001
0000
0000
1000
,
0000
0001
0000
0100
,
0000
0000
0000
0020
,
0000
0000
0000
0000
,
0000
0000
0030
0200
,
0000
0000
0000
0000
,
0000
0000
0300
0002
,
0000
0000
0000
0000
,
0000
0000
0003
2000
,
0000
0000
0000
0000
,
0000
0000
3000
0002
,
0000
0000
0000
0000
,
0000
0003
0000
0000
,
0000
0000
1000
1000
,
2000
3000
0001
0001
,
0002
0003
0100
0100
,
0200
0300
0010
0000
,
0100
0000
0010
0010
,
0020
0030
0100
0100
,
0200
0300
0010
0010
,
0020
0030
0100
0000
,
0010
0000
1000
0000
,
0000
0000
0001
0000
,
0000
0000
1000
0000
,
0000
0000
0001
0000
,
0000
1000
0001
0000
,
1000
0000
0010
0000
,
0100
0000
0010
0000
,
1000
0000
0001
0001
,
1000
1000
0010
0000
,
0100
0000
0010
0010
,
0010
1001
0000
0001
,
0000
1000
0000
0100
,
0000
1000
1000
0100
,
0000
1000
0000
0010
,
0000
0100
0100
0001
,
0000
0100
0000
0010
,
0000
1000
1000
0001
,
0000
1000
0000
0010
,
0000
0100
0000
0010
,
0010
0000
0100
0100
,
0000
0001
0000
1000
,
1000
0000
0001
1000
,
0000
0001
0000
0100
,
0100
0000
0010
0010
,
0000
1000
0000
1001
,
0000
0110
0000
0001
,
0001
1000
0000
1000
0000
0001
0000
0000
,
0000
0000
0000
0000
,
0000
0000
0000
0000
0000
1000
0000
0000
,
0000
0000
0000
0000
,
0000
0000
0000
0000
0000
0010
0000
0000
,
0000
0000
0000
0000
,
0000
0000
0000
0000
0000
0100
0000
0000
,
0000
0000
0000
0000
,
0000
0000
0000
0000
0000
0020
0000
0000
,
0000
0000
0000
0000
,
0030
0000
0000
0000
;
