#TITLE:Crazy on Emotion;
#SUBTITLE:;
#ARTIST:Ace;
#TITLETRANSLIT:;
#SUBTITLETRANSLIT:;
#ARTISTTRANSLIT:;
#GENRE:;
#CREDIT:;
#BANNER:Crazy on Emotion.png;
#BACKGROUND:Crazy on Emotion-bg.png;
#LYRICSPATH:;
#CDTITLE:;
#MUSIC:Crazy on Emotion.ogg;
#OFFSET:-2.070999;
#SAMPLESTART:67.669998;
#SAMPLELENGTH:12.799995;
#SELECTABLE:YES;
#BPMS:0.000000=150.000000
;
#STOPS:64.000000=1.200000
;
#BGCHANGES:;
#KEYSOUNDS:;
#ATTACKS:;

//---------------dance-single - ----------------
#NOTES:
     dance-single:
     :
     Hard:
     7:
     0.449475,0.439879,0.155487,0.146341,0.109755,344.000000,327.000000,17.000000,16.000000,0.000000,0.000000,0.449475,0.439879,0.155487,0.146341,0.109755,344.000000,327.000000,17.000000,16.000000,0.000000,0.000000:
0000
0000
0000
0000
,
0000
0000
0000
0000
,
0000
0000
0000
0000
,
0000
0000
0000
0000
,
2000
0000
0000
0002
0000
0000
3003
1000
,
0000
0010
0100
0001
0010
0000
0100
0000
,
0010
0001
0010
0001
0000
1000
0000
0002
,
0000
0000
0000
0003
,
0100
0001
0010
0001
,
1000
0000
0100
0000
0010
0100
1000
0010
,
0100
0001
0010
0001
,
1000
0000
0100
0000
0010
0001
1000
0010
,
0100
0010
1000
0100
,
0010
0000
0100
0000
0010
0001
0100
0010
,
1000
0100
0010
0001
,
0010
0000
0100
0000
1000
0100
1000
0010
,
0000
0000
0000
0000
1001
0000
0000
1000
0000
0000
0010
0000
0000
0010
0000
0000
,
0100
0000
0010
0000
1000
0000
0000
1000
0000
0000
0001
0000
1000
0000
0100
0000
,
1000
0000
0010
0000
0100
0000
0000
0100
0000
0000
0001
0000
0000
1000
0000
0000
,
0001
0000
0100
0000
0001
0000
0000
0001
0000
0000
1000
0000
0010
0000
0001
0000
,
0010
0000
1000
0000
0100
0000
0000
0100
0000
0000
0010
0000
0000
0001
0000
0000
,
0010
0000
0001
0000
0100
0000
0000
0100
0000
0000
0010
0000
1000
0000
0100
0000
,
1000
0000
0001
0000
0100
0000
0000
0100
0000
0000
0010
0000
0000
1000
0000
0000
,
0010
0000
1000
0000
0100
0000
0000
0100
0000
0000
0010
0000
0001
0000
0010
0000
,
1000
0010
0100
0000
1000
0000
0010
1000
,
0001
0100
0010
0000
1000
0000
0001
0010
,
0001
1000
0100
0000
1000
0000
0010
0000
,
1000
0002
0000
0013
1000
0010
0100
0010
,
0001
0100
0010
0000
1000
0000
0001
0100
,
0001
1000
0010
0000
0100
0000
0010
0100
,
0010
1000
0001
0000
1000
0000
0100
0000
,
0010
0200
0000
1300
0001
0010
0001
1000
,
0001
0000
2000
0000
3010
0200
0000
0301
,
0020
0000
0032
0000
0103
0020
0000
1030
,
0200
0000
0310
0000
0100
1000
0000
0001
,
0000
0100
0010
0100
0010
1000
0100
0010
,
0001
1000
0100
0000
0100
0000
1000
0000
,
1000
0001
0001
0010
,
0010
0000
0000
0001
0101
0000
1000
1010
,
0000
0000
0000
1000
1100
0000
0011
0000
,
1010
0000
1001
0000
0001
0100
0000
0001
,
0100
0020
0000
1030
0010
0001
0010
0000
,
1001
0000
1000
0000
0001
0100
0000
0100
,
0010
2000
0000
3100
0001
0100
0010
0001
,
1000
0000
1001
0000
1000
0010
0000
1000
,
0010
0200
0000
0301
0100
1000
0100
0000
,
1001
0000
0001
0010
0001
1000
0000
0001
,
0000
0010
0100
0010
0100
0010
0001
0000
,
0000
0000
1001
0000
0001
0100
0000
0100
,
0010
1000
0000
1000
0010
0100
0001
0000
,
0101
0000
0001
0000
1000
0100
0000
1000
,
0001
0200
0000
0310
1000
0100
0001
0100
,
0010
0001
0000
0101
0000
0001
0000
1001
,
0000
1000
0000
1000
0010
0100
0001
0000
,
1001
0000
0000
0000
1010
0000
1000
0010
,
0100
0002
0000
0000
0000
0000
0000
0000
,
0003
0000
0000
0000
1001
0000
0000
0001
0000
0000
0100
0000
0000
0100
0000
0000
,
0010
0000
0100
0000
0001
0000
0000
0001
0000
0000
1000
0000
0001
0000
0010
0000
,
0001
0000
0100
0000
0010
0000
0000
0010
0000
0000
1000
0000
0000
0001
0000
0000
,
1000
0000
0010
0000
1000
0000
0000
1000
0000
0000
0001
0000
0100
0000
1000
0000
,
0100
0000
0001
0000
0010
0000
0000
0010
0000
0000
0100
0000
0000
1000
0000
0000
,
0100
0000
1000
0000
0010
0000
0000
0010
0000
0000
0100
0000
0001
0000
0010
0000
,
0001
0000
1000
0000
0010
0000
0000
0010
0000
0000
0100
0000
0000
0001
0000
0000
,
0100
0000
0001
0000
0010
0000
0000
0010
0000
0000
0001
0000
1000
0000
0100
0000
,
0001
0010
0000
0000
0000
0000
0000
0000
;

//---------------dance-single - ----------------
#NOTES:
     dance-single:
     :
     Easy:
     2:
     0.164633,0.234145,0.027439,0.082317,0.000000,126.000000,123.000000,3.000000,9.000000,0.000000,0.000000,0.164633,0.234145,0.027439,0.082317,0.000000,126.000000,123.000000,3.000000,9.000000,0.000000,0.000000:
0000
0000
0000
0000
,
0000
0000
0000
0000
,
0000
0000
0000
0000
,
0000
0000
0000
0000
,
1000
0000
0000
0000
,
0001
0000
0000
0000
,
0100
0000
0010
0000
,
0200
0000
0000
0300
,
0001
0000
0000
0000
,
1000
0000
0100
0000
,
1000
0000
0000
0000
,
0020
0000
0000
0030
,
0100
0000
0000
0000
,
0010
0000
0000
0000
,
1000
0000
0000
0000
,
0001
0000
1000
0000
,
0000
0001
0000
0100
,
0000
0010
0000
1000
,
0010
0100
0000
0001
,
0000
1000
0000
0100
,
1000
0010
0000
0100
,
0000
0001
0000
1000
,
0001
1000
0000
0010
,
0000
0100
0000
0010
,
1000
0001
0000
1000
,
0000
0100
0000
1000
,
0010
1000
0000
0010
,
0000
0100
0100
0010
,
0010
1000
0000
0001
,
0000
1000
0000
0100
,
1000
0100
0000
1000
,
0000
0010
0100
0100
,
0010
2000
0000
0000
,
3000
0002
0000
0000
,
0003
0100
0000
0010
,
0000
0100
0000
0000
,
0000
1001
0000
0001
,
0000
1000
0000
0010
,
0000
2000
0000
0000
,
0000
0000
0000
0000
0000
3000
0000
0000
,
0000
0001
0000
1000
,
0000
0100
1000
0010
,
0100
0001
0000
1000
,
0000
0200
0000
0300
,
0000
0010
0000
0001
,
0000
0100
0001
0100
,
0001
1000
0000
0001
,
0000
0020
0000
0000
,
0030
0100
0000
0010
,
0000
0001
1000
0010
,
1000
0100
0000
1000
,
0000
0002
0000
0003
,
0000
1000
0000
0001
,
0000
0100
0000
0010
,
0010
0000
0100
0010
,
1000
0002
0000
0000
,
0003
1000
0000
0010
,
0000
0100
0000
0001
,
1000
0010
0000
1000
,
0000
0100
0000
1000
,
0001
1000
0000
0010
,
0000
0100
0000
0001
,
0100
0010
0000
0100
,
0000
0001
0000
1001
,
0110
0000
0000
0000
;

//---------------dance-single - ----------------
#NOTES:
     dance-single:
     :
     Medium:
     5:
     0.304441,0.351903,0.018293,0.137194,0.000000,233.000000,231.000000,2.000000,15.000000,0.000000,0.000000,0.304441,0.351903,0.018293,0.137194,0.000000,233.000000,231.000000,2.000000,15.000000,0.000000,0.000000:
0000
0000
0000
0000
,
0000
0000
0000
0000
,
0000
0000
0000
0000
,
0000
0000
0000
0000
,
0020
0000
0000
0200
0000
0000
0000
0000
,
0000
0000
0000
0330
,
0100
0000
0000
0010
0000
1000
0000
0002
,
0000
0000
0000
0003
,
1000
0001
1000
0001
,
0100
0010
0100
0100
,
0010
1000
0010
1000
,
0002
0000
0000
0023
0000
0000
0230
0000
,
0310
0001
0010
0001
,
0010
0100
0010
0010
,
0100
1000
0100
1000
,
0100
0000
1000
0000
0010
0100
0001
1000
,
0000
0001
0100
0010
,
1000
0000
0100
0000
1000
0000
0001
1000
,
0100
1000
0001
0000
0100
0000
0010
0000
,
1000
0000
0010
0000
0100
0000
0010
1000
,
0010
0100
0010
0000
1000
0000
0001
0000
,
0010
0000
0100
0000
0010
0000
0001
1000
,
0001
0100
0001
0000
0100
0000
0010
0000
,
1000
0000
0010
0000
0100
0000
0001
0100
,
1000
0100
0010
0000
1000
0000
0010
0000
,
0000
0000
0100
0001
,
0010
0000
0200
0000
0000
0320
0000
0000
,
0000
0130
0000
1000
0100
0000
1000
0000
,
0001
0100
0010
0100
,
0010
1000
0001
1000
,
0001
0000
0100
0000
0000
0020
0000
0000
,
0000
1030
0000
0001
1000
0000
0100
0000
,
1000
0000
0010
0000
0000
0100
0000
0000
,
0001
0000
0100
0000
0000
0010
0000
0000
,
1000
0000
0001
0000
1000
0100
0000
1000
,
0000
0020
0000
0000
0000
0000
0000
0000
,
0030
0110
0010
0100
,
0010
1000
0001
1000
,
0001
0000
0000
1000
0010
0000
0100
0001
,
0000
0000
0000
1000
0010
0000
0100
0000
,
0001
0000
1000
0000
0001
0100
0000
0000
,
0000
0001
0000
0010
0100
1000
0100
0000
,
1000
0000
0100
0000
1000
0010
0000
0000
,
0100
0001
0000
0000
0000
0000
0000
0000
,
0000
0000
0100
0000
0010
1000
0000
0000
,
0000
0010
0000
0100
0010
1000
0001
0000
,
0010
0000
0100
0010
0001
0010
0000
0001
,
0000
2000
0000
0000
0000
0000
3000
0000
,
0000
0000
1001
0000
0001
1000
0000
0000
,
0000
0010
0000
1000
0010
0100
0001
0000
,
1000
0000
0001
0000
1000
0100
0000
0000
,
0100
1000
0000
0000
0000
0000
0000
0100
,
1000
0010
0000
0100
0000
0010
0000
0100
,
0000
0001
0000
1000
0001
0100
0001
0000
,
1000
0000
0000
0000
0010
0000
0100
0010
,
1000
0002
0000
0000
0000
0000
0000
0003
,
0000
1000
0001
0100
,
0001
0000
1000
0000
0100
0000
0010
0100
,
1000
0001
0100
0000
0010
0000
1000
0000
,
0001
0000
0200
0000
0000
0320
0000
0000
,
2030
3100
1000
0010
,
0100
0000
0001
0000
0010
0000
0100
0010
,
0001
1000
0100
0000
1000
0000
0010
0000
,
0100
0000
0001
0000
0100
0000
0010
0100
,
1000
0001
0000
0000
0000
0000
0000
0000
;

//---------------dance-single - ----------------
#NOTES:
     dance-single:
     :
     Beginner:
     1:
     0.103222,0.204877,0.027439,0.000000,0.000000,79.000000,76.000000,3.000000,0.000000,0.000000,0.000000,0.103222,0.204877,0.027439,0.000000,0.000000,79.000000,76.000000,3.000000,0.000000,0.000000,0.000000:
// measure 0
0000
0000
0000
0000
,  // measure 1
0000
0000
0000
0000
,  // measure 2
0000
0000
0000
0000
,  // measure 3
0000
0000
0000
0000
,  // measure 4
0000
0000
0000
0000
,  // measure 5
0000
0000
0000
0000
,  // measure 6
0000
0000
0000
0000
,  // measure 7
0000
0000
0000
0000
,  // measure 8
1000
0000
0000
0000
,  // measure 9
0001
0000
0000
0000
,  // measure 10
1000
0000
0000
0000
,  // measure 11
0001
0000
0000
0000
,  // measure 12
0100
0000
0000
0000
,  // measure 13
0010
0000
0000
0000
,  // measure 14
0100
0000
0000
0000
,  // measure 15
0001
0000
1000
0000
,  // measure 16
0000
0010
0000
0000
,  // measure 17
0000
1000
0000
0001
,  // measure 18
0000
1000
0000
0000
,  // measure 19
0000
0010
0000
0100
,  // measure 20
0000
0001
0000
0000
,  // measure 21
0000
1000
0000
0001
,  // measure 22
0000
0100
0000
0000
,  // measure 23
0000
0010
0000
0100
,  // measure 24
0100
0000
0000
0010
,  // measure 25
0000
0000
0000
1000
,  // measure 26
0000
0000
0000
0001
,  // measure 27
0000
0000
0000
0000
,  // measure 28
0000
1000
0000
0000
,  // measure 29
0000
0001
0000
0000
,  // measure 30
0000
0100
0000
0000
,  // measure 31
0000
0010
0000
0010
,  // measure 32
0000
1000
0000
0000
,  // measure 33
0000
0001
0000
0000
,  // measure 34
0000
0100
0000
0010
,  // measure 35
0000
0100
0000
0000
,  // measure 36
0000
1001
0000
0000
,  // measure 37
0000
0000
0000
0000
,  // measure 38
0000
0001
0000
0000
,  // measure 39
0000
0000
0000
0000
,  // measure 40
0000
1000
0000
0000
,  // measure 41
0000
0001
0000
1000
,  // measure 42
0000
0010
0000
0000
,  // measure 43
0000
0100
0000
0000
,  // measure 44
0000
0010
0000
0000
,  // measure 45
0000
1000
0000
0001
,  // measure 46
0000
0100
0000
0000
,  // measure 47
0000
0010
0010
0010
,  // measure 48
0000
1001
0000
0000
,  // measure 49
0000
0001
0000
0000
,  // measure 50
0000
1000
0000
0001
,  // measure 51
0000
1000
0000
0000
,  // measure 52
0000
0010
0000
0010
,  // measure 53
0000
0010
0000
0100
,  // measure 54
0100
0000
0001
1000
,  // measure 55
1000
1000
0000
0000
,  // measure 56
0000
1001
0000
0000
,  // measure 57
0000
1000
0000
0010
,  // measure 58
0000
1000
0000
0000
,  // measure 59
0000
0001
0000
0100
,  // measure 60
0000
0001
0000
0000
,  // measure 61
0000
0010
0000
0001
,  // measure 62
0000
0010
0000
0000
,  // measure 63
0000
0100
0000
1000
,  // measure 64
1000
0000
0000
0000
;
