#VERSION:0.83;
#TITLE:Caterpillar;
#SUBTITLE:;
#ARTIST:Eagle;
#TITLETRANSLIT:;
#SUBTITLETRANSLIT:;
#ARTISTTRANSLIT:;
#GENRE:;
#ORIGIN:;
#CREDIT:;
#BANNER:Caterpillar.png;
#BACKGROUND:Caterpillar-bg.png;
#PREVIEWVID:;
#JACKET:Caterpillar-jacket.png;
#CDIMAGE:;
#DISCIMAGE:;
#LYRICSPATH:;
#CDTITLE:;
#MUSIC:Caterpillar.mp3;
#OFFSET:-2.549999;
#SAMPLESTART:46.300705;
#SAMPLELENGTH:11.294121;
#SELECTABLE:YES;
#BPMS:0.000=170.000;
#STOPS:;
#DELAYS:;
#WARPS:;
#TIMESIGNATURES:0.000=4=4;
#TICKCOUNTS:0.000=4;
#COMBOS:0.000=1;
#SPEEDS:0.000=1.000=0.000=0;
#SCROLLS:0.000=1.000;
#FAKES:;
#LABELS:0.000=Song Start;
#BGCHANGES:;
#KEYSOUNDS:;
#ATTACKS:
;

//---------------dance-single - ----------------
#NOTEDATA:;
#CHARTNAME:;
#STEPSTYPE:dance-single;
#DESCRIPTION:;
#CHARTSTYLE:;
#DIFFICULTY:Hard;
#METER:9;
#RADARVALUES:0.581305,0.729886,0.183871,0.319775,0.295792,509.000000,486.000000,23.000000,40.000000,0.000000,0.000000,0.000000,0.000000,0.000000,0.581305,0.729886,0.183871,0.319775,0.295792,509.000000,486.000000,23.000000,40.000000,0.000000,0.000000,0.000000,0.000000,0.000000;
#CREDIT:;
#NOTES:
0000
0000
0000
0000
,
0000
0000
0000
0000
,
0000
0000
0000
0000
,
0000
0000
0000
0000
,
0000
0000
0000
0000
,
0000
0000
0000
0000
,
0000
0000
0000
0000
,
0000
0000
0001
0010
0001
1000
0100
0000
,
1000
0000
0010
0000
0001
0000
0010
1000
,
0100
0000
1000
0001
,
0000
0010
0000
0010
1000
0000
0000
0000
,
0000
0000
0100
0010
0001
1000
0001
0000
,
1000
0000
0010
0000
0001
0000
0010
1000
,
0100
0000
0010
0001
,
2000
0000
3200
0000
0320
0000
0032
0000
0023
0000
0230
0000
2300
0002
0000
0000
,
3003
1000
0010
0001
0010
0100
0001
0010
,
1000
0010
0001
0100
0002
0023
0230
0320
,
0032
0003
1000
0001
0100
0001
0010
1000
,
0010
0000
0100
0000
0010
0001
1000
0000
0001
0000
0010
0000
0100
0000
1000
0000
,
0001
0000
0001
0000
1000
0001
0010
0001
,
1000
0100
0010
0100
2000
3002
0023
0032
,
1003
0000
0100
0010
0001
0010
0100
1000
,
0001
0000
0000
0100
0001
0000
0000
0001
0010
0000
0000
0100
1000
0000
0001
0000
,
1000
0000
0010
0000
0100
0001
0010
0000
,
0100
1000
0010
0000
0200
0302
0023
0230
,
2300
0000
3010
1000
0100
0000
0010
0000
,
0100
0000
1000
0000
0001
1000
0001
0000
0010
0000
0000
0000
0100
0000
1000
0000
,
1100
0000
0001
0000
0010
0100
1000
0000
,
0100
1000
0010
0000
0200
0302
0023
0032
,
1003
0000
0001
1000
0010
1000
0001
0000
,
1000
0000
0010
0000
0001
0010
1001
0000
,
1010
0000
0000
0000
1000
0000
0010
0000
0100
0001
0000
1000
0000
0100
0010
0000
,
0100
1000
0000
0010
0000
0100
0001
0000
1000
0000
0000
0000
0011
0000
0000
0000
,
1001
0000
0000
0000
0000
0000
0000
0000
0001
0100
0000
0010
0000
1000
0100
0000
,
0010
0100
0000
1000
0000
0010
0100
0000
0001
0000
0000
0000
1000
0000
0100
0000
,
1000
0010
1000
0100
1000
0010
1000
0100
,
1000
0001
0010
0100
0010
0001
1000
0010
,
1000
0001
1000
0000
0001
0000
0100
0000
0010
0100
0010
0000
0100
0000
0001
0000
,
1000
0001
0100
0000
0010
1000
0100
0000
0010
0001
0100
0000
0010
0000
0000
0000
,
1001
0000
1000
0001
0010
0001
1000
0000
,
0001
0000
0100
0000
1000
0000
0100
0001
,
0010
0000
0100
1000
,
0000
0010
0000
0010
0100
0000
0000
0000
,
0000
0000
1000
0001
0100
0001
1000
0000
,
0100
0000
0001
0000
0100
0000
0010
0001
,
0100
0000
0010
1000
,
0000
0001
0000
0001
1000
0000
0100
0000
,
1100
0000
0000
0000
0000
0000
1000
0000
0001
0000
0000
0001
0000
0000
0001
0000
,
0000
0000
1000
0000
0000
0010
0000
0000
0100
0000
0000
0001
0000
0000
0010
0000
,
0000
0000
0100
0000
0000
0000
1000
0000
0010
0000
0000
0010
0000
0000
0010
0000
,
0000
1000
0000
0001
0010
0000
0000
0000
,
1100
0100
1000
0010
,
1010
0000
0101
0000
1010
0000
0001
0010
,
0110
0100
1100
0110
,
0000
0011
0000
0010
0110
0000
1100
0000
,
1001
0000
0001
0100
1000
0100
0001
0000
,
1001
0000
1000
0010
0001
0010
1000
0000
,
0001
1000
0001
0010
1000
0010
0001
1000
,
0002
0000
0023
0000
0230
0000
2300
0000
3200
0000
0320
0000
0032
2000
0000
3003
,
1001
0000
0000
0000
0001
0000
0010
0000
0100
0010
0000
0001
0000
0100
0010
0000
,
1000
0001
0000
0010
0000
0100
0010
0000
0001
1000
0000
0010
0000
0000
0000
0000
,
0001
0100
0000
0010
0000
1000
0010
0000
0100
0001
0000
1000
0000
0010
0100
0000
,
0001
1000
0000
1000
0000
1000
0001
0000
0100
0000
0000
0000
0010
0000
1000
0000
,
0100
0000
0000
0000
0010
0000
0001
0000
0100
0010
0000
1000
0000
0001
0010
0000
,
0100
0010
0000
0001
0000
0100
0010
0000
1000
0010
0000
0100
0000
0000
0000
0000
,
0010
1000
0000
0001
0000
0010
0100
0000
0010
0001
0000
1000
0000
0010
0100
0000
,
0001
0100
0000
0100
0000
0100
0010
0000
0100
0000
0010
0000
1000
0000
0001
0000
,
1000
0000
0001
0100
1000
0000
1000
0100
,
0001
0000
0001
0010
1000
0000
1000
0010
,
0001
0000
0001
0100
1000
0000
1000
0100
,
0001
0000
0001
0010
1000
0010
0011
0000
,
0010
0000
0001
0010
1000
0000
1000
0010
,
0001
0000
0001
0100
1000
0000
1000
0100
,
0001
0000
0001
0010
1000
0000
1000
0010
,
0001
0000
0010
0000
0100
0000
1000
0001
,
1001
0000
0000
0001
0100
0000
0010
0000
1000
0000
0100
0000
0020
0000
0000
0000
,
0130
0000
0000
0010
0001
0000
0100
0000
0010
0000
1000
0000
0002
0000
0000
0000
,
1003
0000
0000
0100
1000
0000
0010
0000
0100
0000
0001
0000
0020
0000
0000
0000
,
0130
0000
0000
0010
0001
0000
0100
0000
0001
0000
1000
0000
0100
0000
1000
0000
,
0001
0000
0000
1000
0010
0000
0100
0000
0001
0000
0010
0000
0200
0000
0000
0000
,
0310
0000
0000
0100
1000
0000
0010
0000
0100
0000
0001
0000
2000
0000
0000
0000
,
3100
0000
0000
1000
0010
0000
0100
0000
0001
0000
0010
0000
0200
0000
0000
0000
,
0310
0001
1000
0100
0010
0001
1000
0100
0010
0001
1000
0000
0001
0000
0000
0000
,
0110
0000
0000
0000
;

//---------------dance-single - ----------------
#NOTEDATA:;
#CHARTNAME:;
#STEPSTYPE:dance-single;
#DESCRIPTION:;
#CHARTSTYLE:;
#DIFFICULTY:Medium;
#METER:7;
#RADARVALUES:0.480804,0.597180,0.407713,0.191865,0.000000,421.000000,370.000000,51.000000,24.000000,0.000000,0.000000,0.000000,0.000000,0.000000,0.480804,0.597180,0.407713,0.191865,0.000000,421.000000,370.000000,51.000000,24.000000,0.000000,0.000000,0.000000,0.000000,0.000000;
#CREDIT:;
#NOTES:
0000
0000
0000
0000
,
0000
0000
0000
0000
,
0000
0000
0000
0000
,
0000
0000
0000
0000
,
0000
0000
0000
0000
,
0000
0000
0000
0000
,
0000
0000
0000
0000
,
0000
0000
1000
0100
0010
0100
1000
0000
,
0100
0000
1000
0000
0010
0000
0100
0001
,
0010
0000
0100
0010
,
0000
0001
0000
0001
1000
0000
0000
0000
,
0000
0000
0001
0100
0010
1000
0100
0000
,
1000
0000
0010
0000
0100
0000
0001
0100
,
0001
0000
0001
1000
,
0001
0010
0100
1000
0100
0010
0001
0000
,
1000
0000
0001
0100
0001
0000
0010
0000
,
0001
0000
1000
0000
1000
0001
1000
0010
,
1000
0100
1000
0010
,
0100
0000
0001
0000
0010
0001
1000
0100
,
0010
0010
0100
1000
,
0010
0000
0100
0000
0001
1000
0100
1000
,
0010
1000
0001
0010
,
0002
0003
0020
0030
0200
0300
2000
3002
,
0203
0300
0000
0000
0010
1000
0001
0000
,
0010
0000
0001
0000
1000
0010
0001
0100
,
0120
0000
1030
0000
0001
0010
0001
0000
,
1000
0000
0001
0100
0000
0000
0100
0010
,
1000
1000
0001
0010
,
0001
0000
1000
0000
0010
0100
0001
0010
,
0100
0000
0010
0001
1000
0010
0100
0000
,
0001
0000
1000
0000
0010
0100
1001
0000
,
0001
0011
0010
0110
,
0100
1100
1001
0101
,
0001
1001
1000
1010
,
0100
0110
1010
1001
,
0001
0100
0001
0000
0100
0010
0100
0000
,
0010
1000
0010
0000
1000
0001
1000
0000
,
0001
0100
1000
0000
1000
0100
0010
0000
,
0100
0010
1000
0001
1000
0010
0001
0000
,
0010
0000
0100
0001
0010
0001
0100
0000
,
0001
0000
1000
0000
0100
0000
0010
0001
,
0010
0000
0001
1000
,
0000
0100
0000
0100
1000
0000
0000
0000
,
0000
0000
0100
1000
0010
0100
0001
0000
,
1000
0000
0001
0000
0010
0000
0001
0100
,
0010
0000
0100
0010
,
0000
0100
0000
0100
0010
0000
1000
0000
,
1001
0000
0000
0001
1000
0000
1000
0000
,
0001
0000
1000
0000
0010
0000
1000
0001
,
0010
0000
0100
1000
,
0000
1000
0000
0001
0010
0000
0000
0000
,
0001
1000
0010
1000
,
1100
0011
1100
0001
,
0101
0001
1001
1100
,
0001
1000
0000
1000
0001
0000
0100
0000
,
0000
0000
0010
0100
0001
1000
0010
0000
,
0000
0000
0010
0100
0001
1000
0010
0000
,
0000
0000
0010
0100
0001
1000
0010
0000
,
1000
0100
0010
0001
0010
0100
1000
0000
,
1001
1001
0101
0101
,
0011
0011
1100
1001
,
1100
1100
1001
1001
,
0001
0000
0100
0000
0010
0000
1000
0010
,
0200
0000
0320
0030
1001
0000
1001
0000
,
1010
1010
0101
0101
,
0011
0011
1100
1100
,
1002
0000
0013
0000
2001
0000
3010
0100
,
0001
0000
1000
0010
0100
0000
0001
0000
,
0101
0000
0001
0010
0100
0000
1000
0000
,
1100
0000
1000
0010
0100
0000
0001
0000
,
1001
0000
0001
0010
1000
0000
1010
0000
,
0010
0000
0001
0100
0010
0000
1000
0000
,
1010
0000
1000
0001
0100
0000
0001
0000
,
0011
0000
0010
0100
1000
0000
1100
0000
,
2000
3000
0200
0300
0020
0030
0002
2003
,
3020
0030
0100
0001
1000
0010
0200
0000
,
0301
0000
1000
0010
0100
0001
0020
0000
,
0130
0000
0010
0001
1000
0100
2000
0000
,
3100
0000
1000
0010
0100
0010
0002
0000
,
0013
0000
0010
1000
0001
0100
0020
0000
,
1030
0000
1000
0010
0001
0010
0200
0000
,
0301
0000
0010
0100
1000
0001
0200
0000
,
0310
0100
0001
1000
0010
0100
0001
0000
,
0110
0000
0000
0000
;

//---------------dance-single - ----------------
#NOTEDATA:;
#CHARTNAME:;
#STEPSTYPE:dance-single;
#DESCRIPTION:;
#CHARTSTYLE:;
#DIFFICULTY:Easy;
#METER:5;
#RADARVALUES:0.334622,0.398120,0.103927,0.023983,0.000000,293.000000,280.000000,13.000000,3.000000,0.000000,0.000000,0.000000,0.000000,0.000000,0.334622,0.398120,0.103927,0.023983,0.000000,293.000000,280.000000,13.000000,3.000000,0.000000,0.000000,0.000000,0.000000,0.000000;
#CREDIT:;
#NOTES:
0000
0000
0000
0000
,
0000
0000
0000
0000
,
0000
0000
0000
0000
,
0000
0000
0000
0000
,
0000
0000
0000
0000
,
0000
0000
0000
0000
,
0000
0000
0000
0000
,
0000
1000
0001
0100
,
0001
0010
0001
0010
,
0100
0000
0010
0001
,
0000
1000
0000
0001
0100
0000
0000
0000
,
0000
0010
0100
0001
,
1000
0001
1000
0001
,
0010
0000
0001
1000
,
0001
0010
0100
1001
,
0000
0001
0100
0001
,
1000
0001
0010
0100
,
1000
0100
1000
0010
,
1000
0001
0100
0001
,
0010
0010
0001
0100
,
0001
1000
0100
1000
,
0010
0100
0001
0010
,
0100
0000
0010
0000
0001
0000
1000
0001
,
1000
0000
0001
1000
,
0010
1000
0001
0100
,
2002
3003
0001
0010
,
0001
0000
1000
0100
0010
0000
0001
0000
,
0100
0100
0010
1000
,
0010
0100
0001
0010
,
0000
0100
0010
0001
,
1000
0010
0100
1001
,
1000
0001
0100
0001
,
0010
0001
1000
1100
,
0100
1000
0010
0100
,
0001
0010
0100
0110
,
0010
0001
0100
0010
,
1000
0001
0100
0010
,
1000
0001
0010
0001
,
1000
0100
0010
0001
,
1001
0001
1000
0010
,
1000
0100
1000
0100
,
0010
0000
0100
1000
,
0000
0010
0000
0100
0001
0000
0000
0000
,
0000
0010
0001
1000
,
0010
1000
0100
1000
,
0001
0000
0010
0001
,
0000
0100
0000
0010
1000
0000
0001
0000
,
1000
0000
0001
0000
,
0100
0001
0100
0010
,
1000
0000
0100
1000
,
0000
0100
0000
0010
0001
0000
0000
0000
,
0010
0001
0100
0010
,
1000
0001
1000
0001
,
0010
0001
0100
0001
,
1000
0100
1000
0010
,
0000
0100
0010
1000
,
0000
0010
0100
0001
,
0000
1000
0001
0100
,
0001
0010
0100
1000
,
0001
0001
1000
1000
,
0010
0010
0100
0010
,
1000
1000
0001
0001
,
0100
0010
1000
0001
,
0010
0010
0001
0001
,
1000
1000
0100
0100
,
1000
1000
0001
0001
,
0100
0001
0010
0001
,
0000
0000
1000
0001
1000
0000
0000
0000
,
0000
0000
0010
0100
0010
0000
0000
0000
,
0000
0000
1000
0010
1000
0000
0000
0000
,
0000
0000
0001
0100
0001
0000
0010
0000
,
0100
0000
1000
0100
0010
0000
0000
0000
,
0000
0000
0010
0001
0100
0000
0000
0000
,
0000
0000
0100
0010
1000
0000
0000
0000
,
0001
0010
0100
1000
,
0001
0000
1000
0010
1000
0000
1100
0000
,
0000
0000
1000
0001
0100
0000
0101
0000
,
0000
0000
0001
0010
0100
0000
1100
0000
,
0000
0000
0100
0010
0001
0000
1001
0000
,
0000
0000
0001
1000
0010
0000
1001
0000
,
0000
0000
0001
1000
0100
0000
0110
0000
,
0000
0000
0010
0001
0100
0000
0110
0000
,
0200
0000
0000
0000
,
0310
0000
0000
0000
;

//---------------dance-single - ----------------
#NOTEDATA:;
#CHARTNAME:;
#STEPSTYPE:dance-single;
#DESCRIPTION:;
#CHARTSTYLE:;
#DIFFICULTY:Beginner;
#METER:2;
#RADARVALUES:0.146183,0.232237,0.047966,0.000000,0.000000,128.000000,122.000000,6.000000,0.000000,0.000000,0.000000,0.000000,0.000000,0.000000,0.146183,0.232237,0.047966,0.000000,0.000000,128.000000,122.000000,6.000000,0.000000,0.000000,0.000000,0.000000,0.000000,0.000000;
#CREDIT:;
#NOTES:
// measure 0
0000
0000
0000
0000
,  // measure 1
0000
0000
0000
0000
,  // measure 2
0000
0000
0000
0000
,  // measure 3
0000
0000
0000
0000
,  // measure 4
0000
0000
0000
0000
,  // measure 5
0000
0000
0000
0000
,  // measure 6
0000
0000
0000
0000
,  // measure 7
0000
1000
0000
0000
,  // measure 8
0010
0010
0010
0000
,  // measure 9
0100
0000
0000
0000
,  // measure 10
0010
0000
1000
0000
,  // measure 11
0000
0001
0000
0000
,  // measure 12
0010
0010
0010
0000
,  // measure 13
0100
0000
1000
0000
,  // measure 14
1001
0000
0000
0000
,  // measure 15
0000
0010
0000
0000
,  // measure 16
0000
0000
1000
1000
,  // measure 17
0001
0000
0000
0000
,  // measure 18
0000
0100
0000
0010
,  // measure 19
0010
0000
1000
0000
,  // measure 20
0000
0000
0001
0001
,  // measure 21
0000
1000
0000
0000
,  // measure 22
0001
0000
1000
0000
,  // measure 23
0110
0000
0010
0000
,  // measure 24
0000
0000
1000
1000
,  // measure 25
0001
0000
0000
0000
,  // measure 26
0000
0010
0000
0000
,  // measure 27
0001
0001
0000
0000
,  // measure 28
0000
0000
1000
1000
,  // measure 29
0000
0001
0000
0000
,  // measure 30
0100
0010
0100
0000
,  // measure 31
0010
0000
0010
0000
,  // measure 32
0010
0000
1000
0001
,  // measure 33
0000
0000
1000
0000
,  // measure 34
1000
0000
1000
0001
,  // measure 35
0100
0000
0100
0000
,  // measure 36
0100
0000
0100
0000
,  // measure 37
0010
0000
0010
0000
,  // measure 38
1000
0000
0001
0000
,  // measure 39
0110
0000
0000
0000
,  // measure 40
0000
0000
0000
0000
,  // measure 41
0000
0000
0000
0000
,  // measure 42
0000
0000
0000
0000
,  // measure 43
0000
0000
0000
0000
,  // measure 44
0000
0000
0000
0000
,  // measure 45
0000
0000
0000
0000
,  // measure 46
0000
0000
0000
0000
,  // measure 47
0010
0000
0000
0000
,  // measure 48
1000
1000
1000
0000
,  // measure 49
0001
0000
0000
0000
,  // measure 50
0100
0000
0010
0000
,  // measure 51
1000
0000
0000
0000
,  // measure 52
0100
0010
0100
0000
,  // measure 53
0010
0000
0000
0000
,  // measure 54
0001
0000
0000
0000
,  // measure 55
0000
1000
0001
1000
,  // measure 56
0000
0001
1000
0001
,  // measure 57
0000
1000
0001
1000
,  // measure 58
0010
0000
0000
0000
,  // measure 59
0100
0000
0100
0000
,  // measure 60
0100
0000
0100
0000
,  // measure 61
0010
0000
0010
0000
,  // measure 62
1001
0000
0000
0000
,  // measure 63
1000
0000
0001
0000
,  // measure 64
0001
0000
0001
0000
,  // measure 65
0100
0000
0100
0000
,  // measure 66
0110
0000
0000
0000
,  // measure 67
0000
0010
0000
0000
,  // measure 68
0000
1000
0000
0000
,  // measure 69
0000
0100
0000
0000
,  // measure 70
0000
1000
0000
0000
,  // measure 71
0000
0001
0000
0000
,  // measure 72
0000
0010
0000
0000
,  // measure 73
0000
0001
0000
0000
,  // measure 74
1000
0000
0001
0000
,  // measure 75
0000
0100
0100
0000
,  // measure 76
0000
0010
0010
0000
,  // measure 77
0000
1000
1000
0000
,  // measure 78
0000
0001
0001
0000
,  // measure 79
0000
1000
0001
0000
,  // measure 80
0000
0100
0010
0000
,  // measure 81
0000
1000
0010
0000
,  // measure 82
0000
0100
0001
0000
,  // measure 83
1001
0000
0000
0000
;
