#VERSION:0.83;
#TITLE:Catastrophic Dance;
#SUBTITLE:;
#ARTIST:the wandering bard feat. 志方あきこ;
#TITLETRANSLIT:;
#SUBTITLETRANSLIT:;
#ARTISTTRANSLIT:;
#GENRE:;
#ORIGIN:;
#CREDIT:;
#BANNER:Catastrophic Dance.png;
#BACKGROUND:Catastrophic Dance-bg.png;
#PREVIEWVID:;
#JACKET:Catastrophic Dance-jakcet.png;
#CDIMAGE:;
#DISCIMAGE:;
#LYRICSPATH:;
#CDTITLE:;
#MUSIC:Catastrophic Dance.ogg;
#OFFSET:-6.921393;
#SAMPLESTART:33.388756;
#SAMPLELENGTH:13.241379;
#SELECTABLE:YES;
#BPMS:0.000=72.500,
8.000=145.000,
40.000=72.500,
48.000=145.000,
128.000=72.500,
144.000=145.000,
192.000=72.500,
200.000=145.000;
#STOPS:;
#DELAYS:;
#WARPS:;
#TIMESIGNATURES:0.000=4=4;
#TICKCOUNTS:0.000=4;
#COMBOS:0.000=1;
#SPEEDS:0.000=1.000=0.000=0;
#SCROLLS:0.000=1.000;
#FAKES:;
#LABELS:0.000=Song Start;
#BGCHANGES:;
#KEYSOUNDS:;
#ATTACKS:
;

//---------------dance-single - ----------------
#NOTEDATA:;
#CHARTNAME:;
#STEPSTYPE:dance-single;
#DESCRIPTION:;
#CHARTSTYLE:;
#DIFFICULTY:Hard;
#METER:8;
#RADARVALUES:0.498882,0.608314,0.181974,0.346617,0.324954,403.000000,382.000000,21.000000,40.000000,0.000000,0.000000,0.000000,0.000000,0.000000,0.498882,0.608314,0.181974,0.346617,0.324954,403.000000,382.000000,21.000000,40.000000,0.000000,0.000000,0.000000,0.000000,0.000000;
#CREDIT:;
#NOTES:
2000
3100
0002
0013
0200
0320
0032
1003
,
0002
0013
2000
3100
0020
0230
2300
3001
,
0110
0110
0100
0001
0010
0001
1000
0000
,
0001
1000
0010
1000
0100
1000
0001
0000
,
1001
1001
1000
0001
0010
0100
0010
0000
,
0001
1000
0100
0010
0100
0010
0001
0000
,
1000
0100
0000
0001
0100
0000
0010
0001
,
0100
0010
1000
0001
,
0011
0000
0000
0000
0000
0000
0000
0000
0100
0000
0000
0100
0000
0000
0010
0000
,
0001
0000
0000
0001
0000
0000
1000
0000
0100
0000
0000
0000
0000
0000
0000
0000
,
1000
0000
0000
0001
0000
0000
0100
0000
0000
0100
0000
0000
0010
0000
0010
0000
0000
0000
0100
0000
0001
0000
0010
0000
0001
0000
0000
1000
0000
0000
0001
0000
,
0100
0000
0000
0000
0000
0000
0000
0000
0000
0000
0000
0000
0000
0000
0000
0000
0000
0000
0100
0000
0000
0000
0000
0000
0000
0000
0000
0000
0000
0000
0000
0000
0000
0000
0000
0000
0010
0000
0000
0000
0000
0000
0000
0000
0000
0000
0000
0000
0000
0000
0000
0000
0000
0000
0010
0000
0000
0000
0000
0000
0000
0000
0000
0000
0000
0000
0000
0000
0000
0000
0000
0000
0100
0000
0000
0000
0000
0000
0000
0000
0000
0000
0000
0000
0001
0000
0000
0000
0000
0000
0000
0000
0000
0000
0000
0000
0000
0000
0000
0000
0000
0000
0000
0000
0000
0000
0000
0000
1000
0000
0000
0000
0000
0000
0000
0000
0000
0000
0000
0000
0100
0000
0000
0000
0000
0000
0000
0000
0000
0000
0000
0000
0001
0000
0000
0000
0000
0000
0000
0000
0000
0000
0000
0000
0100
0000
0000
0000
0000
0000
0000
0000
0000
0000
0000
0000
0000
0000
0000
0000
0000
0000
0000
0000
0000
0000
0010
0000
0001
0000
0000
0000
0000
0000
0000
0000
0000
0000
0000
0000
0000
0000
0000
0000
0000
0000
0000
0000
0000
0000
0000
0000
,
1200
1000
0010
1000
,
0320
0032
0203
0320
,
2030
0010
0001
0010
,
3002
1003
0002
0023
,
0230
0310
0001
0100
,
0010
0000
0100
0001
0010
0001
1000
0100
,
0010
0000
0000
0000
0100
0000
1000
0000
1010
0000
0000
0100
0001
0000
0010
0000
,
0110
0000
0100
0000
1000
0000
0010
0000
0100
0001
0000
0001
0010
0000
0001
0000
,
1000
0010
1000
0001
0010
0100
0010
0001
,
1000
0010
0100
0001
0010
0100
1000
0100
,
0010
0100
1000
0010
0100
0001
0010
0001
,
1000
0000
0010
0000
0100
0000
0001
0000
0010
0000
0100
0000
1000
0001
1000
0001
,
0200
0000
0000
0000
0310
0000
0000
0100
0001
0000
0000
0001
1000
0000
0000
1000
,
0200
0000
0000
0000
0310
0000
0000
0000
0001
0000
0000
0000
0100
0000
0000
0010
,
2000
0000
0000
0000
3100
0000
0000
0000
0010
0000
0000
0000
0100
0000
0000
1000
,
0001
0000
0000
0001
0010
0000
0000
0001
0100
0000
0000
0100
0010
0000
0000
0010
,
0200
0000
0010
0000
0001
0000
0310
1000
,
0100
0000
0000
0010
0001
0000
0000
0010
0100
0000
0000
0010
0001
0000
0000
0001
,
1000
0010
1000
0010
0100
0001
0100
0001
,
0010
0100
0010
0100
0010
0100
0010
0100
0010
0100
0010
0100
0010
0000
0100
0000
,
1001
0000
0000
0110
0000
0000
0000
0000
0000
0000
0000
0000
0000
0000
0000
0000
0000
1000
0000
1000
0000
0000
0000
0000
0001
0000
0000
0000
0100
0000
0000
0000
,
0001
0000
0000
0000
0000
0000
0000
0000
1000
0000
0000
0000
0000
0000
0000
0000
0100
0000
0000
0010
0001
0000
0000
0001
0100
0000
0000
0000
0000
0000
0000
0000
,
1001
0001
0000
0001
1000
0000
0100
0010
0002
0000
0013
0000
0002
0000
0103
0000
,
0010
0000
0000
0000
0000
0000
0000
0000
1000
0000
0000
1000
0000
0000
0001
0000
0100
0000
0000
0100
0000
0000
0010
0000
1000
0000
0000
0000
0000
0000
0000
0000
,
0001
0100
0010
0100
0001
0010
0100
1000
,
0100
1000
0010
1000
0100
0010
0001
1000
,
0001
0100
0010
1000
0100
0010
0001
1000
,
0001
0100
0010
0100
0001
0010
0100
1000
,
0001
0000
0000
1000
0100
0000
0000
0100
0010
0000
0000
0010
0001
0000
0000
0001
,
1000
0000
0000
1000
0010
0000
0000
0010
0100
0000
0000
0100
0001
0000
0000
0001
,
1000
0000
0000
1000
0010
0000
0000
0010
0100
0000
0000
0100
0001
0000
0000
0001
,
1000
1000
0100
1000
0101
0000
0011
0000
,
1200
1000
0010
1300
,
1020
0130
0102
0013
,
0100
0000
1000
0000
0100
0000
1000
0000
0001
0100
0001
0100
0001
0100
0001
0100
,
0001
0000
0000
1100
0000
0000
0010
0000
0000
0101
0000
0000
0100
0000
0010
0000
,
2001
3200
0302
0203
,
0320
0032
2003
3020
,
1030
0010
0100
0001
0010
1000
0010
0001
,
0100
1000
0100
0010
1000
0100
0010
0001
,
1000
0010
1000
0000
0001
0100
0001
0000
1000
0100
1000
0000
0001
0010
0001
0000
,
2001
3010
1002
0200
,
0303
0000
0000
0000
;

//---------------dance-single - ----------------
#NOTEDATA:;
#CHARTNAME:;
#STEPSTYPE:dance-single;
#DESCRIPTION:;
#CHARTSTYLE:;
#DIFFICULTY:Medium;
#METER:5;
#RADARVALUES:0.354045,0.421140,0.320621,0.294625,0.017331,286.000000,249.000000,37.000000,34.000000,0.000000,0.000000,0.000000,0.000000,0.000000,0.354045,0.421140,0.320621,0.294625,0.017331,286.000000,249.000000,37.000000,34.000000,0.000000,0.000000,0.000000,0.000000,0.000000;
#CREDIT:;
#NOTES:
1000
0010
0100
0001
0010
0100
1000
0001
,
1000
0010
0100
0001
0010
0100
1000
0001
,
1000
0001
1000
0000
0001
0000
0010
0000
,
0001
1000
0100
1000
,
0010
0100
0010
0000
1000
0000
0001
0000
,
0010
0000
0001
0000
1000
0100
1000
0000
,
1000
0010
0000
0010
1000
0000
0010
0000
,
0100
0001
0010
0001
,
1001
0000
0000
0000
0000
0000
0000
0000
0001
0000
0000
0001
0000
0000
1000
0000
,
0010
0000
0000
0100
0000
0000
0100
0000
0001
0000
0000
0000
0000
0000
0000
0000
,
1000
0001
0100
0001
,
0010
0000
0001
0000
1000
0000
0010
1001
,
0101
0001
0010
0001
,
1100
0100
0010
0001
,
1001
0001
0010
0001
,
0101
0001
0101
1010
,
1001
1000
0100
1000
,
1010
0010
0100
0001
,
1002
0013
2001
3100
,
1001
0110
1001
0110
,
0001
0000
0100
0000
0010
0000
1000
0010
,
0100
0000
0001
0000
0010
0100
1000
0001
,
0100
0000
0001
0000
0010
0000
0100
1000
,
0100
0000
1000
0000
0010
0000
0100
0001
,
0020
0031
0020
0230
,
2300
3001
1000
0010
,
0200
0310
0100
0010
,
2000
3020
0032
0023
,
0200
0000
0000
0000
0330
0000
0010
0100
,
0001
0020
0230
2300
,
3002
0000
0103
0000
0200
0000
0310
1000
,
0100
0010
0001
1000
0100
0010
0001
1000
,
2002
0000
0000
3003
0000
0000
0000
0000
1000
0000
0000
0000
0000
0000
0000
0000
0001
0000
0000
0000
0000
0000
0000
0000
0010
0000
0000
0000
0000
0000
0000
0000
,
0001
0000
0100
0000
0001
1000
0001
0000
,
1000
0000
0010
0000
0100
0010
1000
0100
,
0010
0000
0100
0010
0001
1000
0110
0000
,
0002
0000
0103
0000
0010
1000
0100
0000
,
0020
0000
0130
0000
0100
0010
0001
0000
,
2000
0000
3100
0000
1000
0010
0100
0000
,
0002
0000
1003
0000
0100
1000
0010
0000
,
1010
0010
0110
0100
,
0101
0001
0011
0010
,
0110
0100
1100
1000
,
0001
0010
0100
1000
0100
0000
1000
0000
,
1020
0100
1000
0100
,
2030
3200
2300
3002
,
0023
0000
0230
0000
,
0310
0000
0000
0001
0000
0000
0100
0000
0000
1000
0000
0000
0100
0000
0010
0000
,
1000
0010
0100
0010
,
0100
0001
0010
0100
,
0110
1001
0101
1010
,
1100
0011
1100
1010
,
0011
1010
1100
0101
,
0002
0023
0230
2300
,
3000
0000
0000
0000
;

//---------------dance-single - ----------------
#NOTEDATA:;
#CHARTNAME:;
#STEPSTYPE:dance-single;
#DESCRIPTION:;
#CHARTSTYLE:;
#DIFFICULTY:Easy;
#METER:3;
#RADARVALUES:0.200543,0.374347,0.129982,0.277294,0.000000,162.000000,147.000000,15.000000,32.000000,0.000000,0.000000,0.000000,0.000000,0.000000,0.200543,0.374347,0.129982,0.277294,0.000000,162.000000,147.000000,15.000000,32.000000,0.000000,0.000000,0.000000,0.000000,0.000000;
#CREDIT:;
#NOTES:
1000
0000
0001
0000
,
0010
0000
0001
0000
,
1000
0001
0000
0000
1000
0000
0000
0000
,
0010
0000
1000
0000
,
0001
1000
0000
0000
0001
0000
0000
0000
,
0010
0000
0001
0000
,
1000
0000
0010
0000
,
0100
0010
1000
0100
,
1000
0000
0001
0010
,
0001
0100
0010
0000
,
1000
0001
0010
0001
,
1000
0000
0010
0000
0100
0000
0010
1001
,
0002
0000
0000
0000
,
0023
0100
0100
0100
,
0230
0000
0000
0000
,
2300
3000
0001
1000
,
0020
0000
0000
0000
,
2000
0000
0000
3030
,
1010
0100
0101
0001
,
0011
1100
0101
1010
,
1001
0000
0001
0010
,
1100
0000
1000
0010
,
0102
0000
0000
1000
,
2000
0000
0000
3003
,
0002
0000
0013
0100
,
0020
0000
0000
0030
,
0200
0000
0000
0300
,
1000
0100
0010
0001
,
2001
0000
0000
0000
0000
0000
3001
0100
,
0001
0001
0010
0001
,
2000
0000
0000
0000
,
3002
0000
0103
0000
,
1001
0000
0000
0000
,
0000
0000
0000
0000
,
0010
1000
0001
0010
,
0001
0000
1000
0000
2002
0000
0000
3003
,
0001
0100
0010
1000
,
0010
0100
0001
0010
,
0001
1000
0100
1000
,
0001
0010
0001
0100
,
0010
0010
1000
1000
,
0001
0001
0100
0100
,
0010
0010
1000
1000
,
0001
0010
0100
1000
,
1002
0000
0000
0000
,
1003
0100
1000
0010
,
0200
0000
0302
0000
,
0023
0000
0000
0030
,
1001
0000
0000
0000
,
0000
0000
0000
0000
,
2000
3010
0200
0301
,
0002
0013
0200
1300
,
0002
0000
0023
0000
0230
2300
0000
0000
,
3020
0230
0302
2000
,
3003
0000
0000
0000
;

//---------------dance-single - ----------------
#NOTEDATA:;
#CHARTNAME:;
#STEPSTYPE:dance-single;
#DESCRIPTION:;
#CHARTSTYLE:;
#DIFFICULTY:Beginner;
#METER:2;
#RADARVALUES:0.123792,0.232884,0.086654,0.000000,0.000000,100.000000,90.000000,10.000000,0.000000,0.000000,0.000000,0.000000,0.000000,0.000000,0.123792,0.232884,0.086654,0.000000,0.000000,100.000000,90.000000,10.000000,0.000000,0.000000,0.000000,0.000000,0.000000,0.000000;
#CREDIT:;
#NOTES:
0000
0000
0000
0000
,
0000
0000
0000
0000
,
0010
0000
0000
0000
,
0000
0000
0000
0000
,
0010
0000
0000
0000
,
0000
0000
0000
0000
,
1000
0000
0000
0000
,
0001
0000
1000
0000
,
0010
0000
0100
0000
,
0010
0010
0010
0000
,
1001
0000
0000
0000
,
0010
0000
0000
0000
,
1001
0000
0000
0000
,
1000
0000
0000
0000
,
0010
0000
0000
0000
,
1000
0000
0001
0001
,
0001
0000
0000
0000
,
1000
0000
0000
0000
,
0110
0000
1001
0000
,
0010
0010
0100
0100
,
1001
0000
0000
0001
,
0001
0000
1000
1000
,
1000
0000
0000
0000
,
0010
0000
0000
0000
,
0100
0000
0010
0010
,
0010
0000
0000
0000
,
1000
0000
0000
0000
,
0001
0001
1000
1000
,
0110
0000
0000
0000
,
0000
0100
0100
0000
,
0010
0000
0000
0000
,
1000
0000
0001
0000
,
0110
0000
0000
0000
,
0000
0000
0000
0000
,
0010
0000
1000
0000
,
0001
0000
1001
0000
,
0010
0000
0000
0000
,
1000
0000
0000
0000
,
0001
0000
0000
0000
,
0010
0000
0000
0000
,
0001
0000
1000
0000
,
0010
0000
0100
0000
,
0010
0000
1000
0000
,
0001
0001
1000
0001
,
1001
0000
0000
0000
,
0010
0000
0100
0000
,
0001
0000
1000
0000
,
0010
0000
0000
0000
,
1001
0000
0000
0000
,
0000
0000
0000
0000
,
1000
1000
1000
1000
,
0001
0001
0001
0001
,
0100
0100
0100
0100
,
0010
0010
0010
0010
;

//---------------dance-single - ----------------
#NOTEDATA:;
#CHARTNAME:;
#STEPSTYPE:dance-single;
#DESCRIPTION:;
#CHARTSTYLE:;
#DIFFICULTY:Challenge;
#METER:11;
#RADARVALUES:0.722945,1.029454,0.268629,0.095320,0.961863,584.000000,553.000000,31.000000,11.000000,0.000000,0.000000,0.000000,0.000000,0.000000,0.722945,1.029454,0.268629,0.095320,0.961863,584.000000,553.000000,31.000000,11.000000,0.000000,0.000000,0.000000,0.000000,0.000000;
#CREDIT:;
#NOTES:
// measure 0
0000
0000
0000
0000
,  // measure 1
0000
0000
0000
0000
,  // measure 2
1001
0000
1001
0000
0001
0100
0001
0100
0010
1000
0100
1000
0001
1000
0001
0000
,  // measure 3
0000
0000
1000
0010
1000
0010
0100
0010
1000
0001
0010
0001
1000
0100
0010
0000
,  // measure 4
0110
0000
0110
0000
0100
0010
0001
1000
0010
0100
0010
0100
0001
1000
0001
0000
,  // measure 5
0000
0000
1000
0010
1000
0001
0100
0001
0010
0000
1000
0000
0010
0000
0000
0000
,  // measure 6
0100
2000
0000
3010
0200
0000
0310
1000
,  // measure 7
0100
0011
0001
1010
,  // measure 8
1001
0000
0000
0000
0000
0000
0000
0000
0001
0000
0000
0100
0000
0000
1000
0000
,  // measure 9
0010
0000
0000
0001
0000
0000
1000
0000
0100
0000
0000
0000
0000
0000
0000
0000
,  // measure 10
1000
0000
0000
0001
0000
0000
0100
0000
0000
0010
0000
0000
1000
0000
1000
0000
0000
0000
0010
0000
0100
0000
0010
0000
1000
0000
0000
0001
0000
0000
0010
0000
,  // measure 11
0001
0000
0000
0000
0000
0000
0000
0000
0000
0000
0000
0000
0000
0000
0000
0000
0000
0000
1000
0000
0000
0000
0000
0000
0000
0000
0000
0000
0000
0000
0000
0000
0000
0000
0000
0000
0100
0000
0000
0000
0000
0000
0000
0000
0000
0000
0000
0000
0000
0000
0000
0000
0000
0000
0001
0000
0000
0000
0000
0000
0000
0000
0000
0000
0000
0000
0000
0000
0000
0000
0000
0000
0100
0000
0000
0000
0000
0000
0000
0000
0000
0000
0000
0000
0100
0000
0000
0000
0000
0000
0000
0000
0000
0000
0000
0000
0000
0000
0000
0000
0000
0000
0000
0000
0000
0000
0000
0000
0010
0000
0000
0000
0000
0000
0000
0000
0000
0000
0000
0000
0100
0000
0000
0000
0000
0000
0000
0000
0000
0000
0000
0000
1000
0000
0000
0000
0000
0000
0000
0000
0000
0000
0000
0000
0001
0000
0000
0000
0000
0000
0000
0000
0000
0000
0000
0000
0000
0000
0000
0000
0000
0000
0000
0000
1000
0000
0000
0000
0010
0000
0000
0000
0000
0000
0000
0000
0000
0000
0000
0000
0000
0000
0000
0000
0000
0000
0000
0000
0000
0000
0000
0000
,  // measure 12
0100
0010
1000
0001
0010
0001
0100
1000
,  // measure 13
0100
0010
1000
0001
0010
0100
0010
0001
,  // measure 14
1000
0010
0100
0001
0010
1000
0010
0100
,  // measure 15
1100
0000
0000
0000
0010
0000
0000
0001
0010
0000
0000
0100
1000
0000
0000
1000
,  // measure 16
0002
0000
0010
0000
0100
0000
1003
0100
,  // measure 17
0002
0000
0103
0000
0100
1000
0010
0100
,  // measure 18
1001
0000
0000
0000
0101
0000
0100
0000
1010
0000
0000
1000
0100
0000
1000
0001
,  // measure 19
0100
0000
0101
0000
0001
0000
0011
0000
0010
0100
0000
0100
1000
0000
0010
0000
,  // measure 20
1000
0001
1000
0000
0001
0100
0001
0000
0010
0100
0010
0000
0100
1000
0100
0000
,  // measure 21
1000
0010
1000
0000
0100
0010
0100
0000
0010
0001
0010
0000
0001
0100
0001
0000
,  // measure 22
0100
0010
0100
0000
0010
1000
0010
0000
1000
0001
1000
0000
0001
0010
0001
0000
,  // measure 23
1000
0000
0000
0010
0100
0000
0001
0000
1000
0001
0100
0010
1000
0100
0010
0001
,  // measure 24
0100
0000
0000
0001
0010
0000
0001
0000
1000
0000
0000
0100
1000
0000
0000
1000
,  // measure 25
0010
0000
0000
0100
0001
0000
0010
0000
0100
0000
0010
0000
0001
0000
1000
0000
,  // measure 26
0010
0000
0000
0100
0001
0000
0010
0000
1100
0000
0000
1000
0010
0000
0100
0000
,  // measure 27
0101
0000
0000
0001
1000
0000
0000
1000
0010
0000
0000
0010
0100
0000
0000
0100
,  // measure 28
0002
0000
0010
0000
0103
0000
0001
1000
,  // measure 29
0100
0000
0000
0010
0001
0000
0000
0001
1000
0000
0000
1000
0010
0000
0000
0010
,  // measure 30
0100
0001
0100
0001
1000
0010
1000
0010
,  // measure 31
0100
0010
1000
0001
0010
1000
0010
0001
0100
1000
0100
0010
1000
0001
0010
0001
,  // measure 32
1001
0000
0000
0101
0000
0000
0000
0000
1000
0000
0000
0101
0000
0000
0000
0000
0000
0010
0000
0010
0000
0010
0100
0001
1000
0000
0000
0000
0100
0000
0000
0000
,  // measure 33
1100
0000
0000
0000
0000
0000
0000
0000
0101
0000
0000
0000
0000
0000
0000
0000
1001
0000
0000
1000
0010
0000
0000
0100
0001
0000
0000
0000
0010
0000
0000
0000
,  // measure 34
0100
0010
0001
1000
0000
0010
0100
0001
0000
1000
0000
0100
0000
1000
0000
0001
0100
0010
0100
0001
0000
0000
0000
1000
0100
0010
0100
1000
0001
0000
0100
0010
,  // measure 35
0100
0010
0001
1000
0000
0010
0000
0000
0100
0010
1000
0001
0010
0100
1000
0000
1001
0000
0000
0100
0000
0000
0010
0000
1001
0000
0000
0000
0000
0000
0000
0000
,  // measure 36
0001
0100
0001
1000
0001
0010
0001
1000
0100
0010
0001
0010
0100
1000
0001
0000
,  // measure 37
1000
0010
0100
0010
1000
0001
1000
0100
0010
0001
0010
0100
1000
0001
1000
0010
,  // measure 38
0100
1000
0010
0100
0001
0010
0001
0010
0100
1000
0100
0010
0100
1000
0001
0000
,  // measure 39
1000
0001
0010
0001
1000
0100
1000
0100
0010
0001
0010
0100
0010
0001
1000
0010
,  // measure 40
1000
0000
0001
1000
0010
0000
1000
0001
0100
0000
0001
1000
0010
0000
1000
0001
,  // measure 41
0100
0000
0001
0010
0100
0000
0100
0010
0001
0000
0001
1000
0100
0000
0010
0100
,  // measure 42
1000
0000
1000
0010
0100
0000
0010
1000
0001
0000
0010
0100
1000
0000
0100
0010
,  // measure 43
0001
0100
1000
0010
0002
0000
2003
0000
,  // measure 44
3100
0000
1000
0000
0010
0100
0001
0010
0001
0000
1000
0000
0010
1000
0100
1000
,  // measure 45
0001
0000
0010
0000
0100
0010
0001
1000
0010
0000
0100
0000
0010
1000
0001
0010
,  // measure 46
0001
0000
0100
0000
0100
0000
0010
0000
1000
0100
1000
0100
1000
0100
1000
0100
,  // measure 47
1000
0000
0000
0101
0000
0000
1010
0000
0000
1001
0001
0010
0001
0000
1000
0000
,  // measure 48
0110
0000
0000
0000
0000
0000
0000
0000
0000
0000
0000
0000
0000
0000
0000
0000
1000
0000
0000
0000
0000
0000
0000
0000
0000
0000
0000
0000
0000
0000
0000
0000
0010
0000
0000
0000
0000
0000
0000
0000
0000
0000
0000
0000
0000
0000
0000
0000
0110
0000
0000
0000
0000
0000
0000
0000
0000
0000
0000
0000
0000
0000
0000
0000
0100
0000
0000
0000
0000
0000
0000
0000
0000
0000
0000
0000
0000
0000
0000
0000
0001
0000
0000
0000
0000
0000
0000
0000
0000
0000
0000
0000
0000
0000
0000
0000
0011
0000
0000
0000
0000
0000
0000
0000
0000
0000
0000
0000
0000
0000
0000
0000
0010
0000
0000
0000
0000
0000
0000
0000
0000
0000
0000
0000
0000
0000
0000
0000
0100
0000
0000
0000
0000
0000
0000
0000
0000
0000
0000
0000
0000
0000
0000
0000
1100
0000
0000
0000
0000
0000
0000
0000
0000
0000
0000
0000
0000
0000
0000
0000
0000
0000
0100
0000
0000
0000
0000
0000
0000
0000
0000
0000
0000
0000
1000
0000
0000
0000
0000
0000
0000
0000
0000
0000
0000
0000
0000
0000
0000
1000
0000
0000
,  // measure 49
0001
0000
0000
0000
0000
0000
0000
0000
0000
0000
0000
0000
0000
0000
0000
0001
1000
0000
0000
0000
0000
0000
0000
0000
0000
0000
0000
0000
0000
0000
0000
0010
0100
0000
0000
0000
0000
0000
0000
0000
0000
0000
0000
0000
0000
0000
0000
0100
0010
0000
0000
0000
0000
0000
0000
0000
1001
0000
0000
0000
0000
0000
0000
0000
,  // measure 50
0001
0100
0001
0100
0010
0100
0010
0100
0010
1000
0010
1000
0010
0100
0010
0100
,  // measure 51
0001
0010
0100
1000
0100
0010
0001
0100
0010
1000
0001
0010
0001
1000
0100
1000
,  // measure 52
0001
1000
0001
1000
0001
1000
0001
1000
0001
1000
0001
1000
0001
1000
0001
1000
0001
1000
0001
1000
0001
1000
0001
1000
,  // measure 53
0002
0203
2300
3020
,  // measure 54
0030
0000
0000
0000
;
