#TITLE:COLOSSEUM;
#SUBTITLE:;
#ARTIST:劇団レコード;
#TITLETRANSLIT:;
#SUBTITLETRANSLIT:;
#ARTISTTRANSLIT:Gekidan Record;
#GENRE:;
#CREDIT:;
#BANNER:COLOSSEUM.png;
#BACKGROUND:COLOSSEUM-bg.png;
#LYRICSPATH:;
#CDTITLE:cdtitle.png;
#MUSIC:COLOSSEUM.mp3;
#OFFSET:-1.720998;
#SAMPLESTART:78.829544;
#SAMPLELENGTH:13.928574;
#SELECTABLE:YES;
#BPMS:0.000000=140.000000
;
#STOPS:
;
#BGCHANGES:;
#KEYSOUNDS:;
#ATTACKS:;

//---------------dance-single - ----------------
#NOTES:
     dance-single:
     :
     Hard:
     9:
     0.494942,0.655751,0.116082,0.303599,0.861684,388.000000,375.000000,13.000000,34.000000,0.000000,0.000000,0.494942,0.655751,0.116082,0.303599,0.861684,388.000000,375.000000,13.000000,34.000000,0.000000,0.000000:
0000
0000
0000
0000
,
0000
0000
0000
0000
,
0000
0000
0000
0000
,
0000
0000
0000
0000
,
1001
0000
1000
0010
0100
0001
0010
0100
0010
0001
0100
0010
,
1000
0001
0010
0001
1000
0010
0200
0000
0000
0001
0000
0000
,
0310
0000
0100
0001
1000
0100
1000
0100
0010
0100
1000
0001
,
0100
0010
1000
0100
1000
0001
0020
0000
0031
0010
0100
1000
,
0200
0000
0000
0000
,
0000
0000
0000
0000
,
0310
0001
0100
0010
,
1000
0001
1000
0000
,
1001
0000
0000
0001
0100
0001
1000
0000
0000
0010
0000
0000
,
1010
0000
0000
1000
0100
1000
0010
0000
0000
0000
0000
0000
,
0101
0000
0000
0100
0001
0100
0010
0000
0000
1000
0000
0000
,
1100
0000
0000
0100
0010
0001
1000
0000
0001
0100
0010
1000
,
0002
0000
0103
0002
0000
0013
0002
0000
1003
0002
0000
0103
,
0010
0000
0010
0000
1010
0000
0010
0000
0010
0000
0010
0100
,
0020
0000
0000
0000
,
0030
0000
0000
0000
,
0100
0000
0000
0001
1000
0000
0100
0000
0000
0010
0001
0000
,
0010
0001
2000
0000
0000
0000
0000
0000
0000
3001
0000
1000
,
0100
0000
0000
0010
0001
0000
0100
0000
0000
0010
1000
0000
,
0002
0000
0000
0103
,
0010
1000
0000
0100
0000
0010
0001
0000
0000
1000
0010
1000
,
0100
0010
0000
0001
0000
0100
0010
1000
0000
0001
0000
1000
,
0010
0000
0000
0100
0000
0001
1000
0000
0000
0100
0000
0000
,
1000
0001
1000
0000
0010
0000
0100
0000
0000
0000
0000
0000
,
0101
0000
0000
0001
0100
0010
1000
0000
0000
1000
0010
0100
,
0001
0010
1000
0000
0010
0000
0001
0000
0000
0100
0000
0010
,
1000
0000
0000
0100
0010
0001
1000
0000
1000
0100
0001
0100
,
0010
0000
0001
0000
0100
0010
1000
0000
0100
0010
0000
0000
,
0001
0100
0010
0100
0000
0010
1000
0100
0010
0001
0000
0010
,
0001
0100
0010
1000
0100
1000
0001
1000
0000
1000
0000
0001
,
0100
0000
0010
1000
0100
0001
0100
0000
0010
0001
0000
0001
,
0100
0000
0010
0000
1000
0000
0001
0000
0000
1000
0000
0001
,
0200
0001
0320
2030
,
3200
0000
0000
0010
0000
0000
2300
0000
0000
3001
1000
0001
,
0200
0001
0320
0230
,
0302
0000
0000
0010
0000
0000
0203
0000
0000
0310
1000
0010
,
0200
0000
0302
0023
,
2030
0000
0000
0000
0000
0000
3020
0000
0000
0130
1000
0100
,
0010
0000
0001
0100
0000
0100
0010
0000
0010
1000
0000
1000
,
0200
0000
0310
0200
0000
1300
0200
0000
0310
0200
0000
1300
,
1100
0000
0011
0000
1001
1001
1001
0000
0000
0000
0000
0001
,
1000
0000
0010
1000
0100
1000
0001
0000
0010
0001
0100
0010
,
1000
0100
1000
0001
0010
0001
1000
0010
1000
0100
0000
0010
,
0001
0000
0010
0100
1000
0010
0100
0000
0010
0100
0001
1000
,
0100
1000
0010
0100
0001
0010
0100
1000
0100
1000
0010
1000
,
0001
0000
1000
0100
1000
0010
0100
0000
0010
0100
0001
0010
,
1000
0010
0100
1000
0010
0001
0010
0100
0001
1000
0100
0010
,
0001
0010
1000
0010
0100
1000
0001
0100
1000
0100
0001
0100
,
1000
0100
0001
1000
0000
0010
2000
0000
0000
3200
0000
0000
,
0320
0000
0000
0000
,
0030
0000
0000
0000
,
1001
0000
1000
0100
0001
0100
0010
0001
0100
1000
0100
0010
,
1000
0100
1000
0001
1000
0010
2000
0000
0000
0001
0000
0000
,
3010
0000
0100
0001
0010
0100
0010
0001
0100
0010
0100
0001
,
1000
0100
0010
0001
1000
0001
0020
0000
0000
0130
0000
0000
;

//---------------dance-single - ----------------
#NOTES:
     dance-single:
     :
     Medium:
     7:
     0.366104,0.419680,0.241093,0.080364,0.316993,287.000000,260.000000,27.000000,9.000000,0.000000,0.000000,0.366104,0.419680,0.241093,0.080364,0.316993,287.000000,260.000000,27.000000,9.000000,0.000000,0.000000:
0000
0000
0000
0000
,
0000
0000
0000
0000
,
0000
0000
0000
0000
,
0000
0000
0000
0000
,
1001
0000
1000
0010
0000
0010
0100
0000
0100
0001
0000
0001
,
1000
0000
1000
0001
0000
0001
0200
0000
0000
0300
0000
0000
,
0010
0000
1000
0010
0000
0010
0100
0000
0100
0001
0000
0001
,
0010
0000
0010
0001
0000
0001
2000
0000
0000
3001
0000
0000
,
0100
0000
0010
1000
,
0010
0100
0100
0000
,
0001
1000
0010
1000
,
0100
1000
1000
0000
,
1001
0001
0010
0001
,
1001
0001
1000
0000
,
1001
0010
1001
0100
,
1001
0110
1001
0010
,
0101
1010
0101
1010
,
0001
0000
0100
0000
0010
0000
1000
0000
0001
0000
0100
0010
,
1000
0000
0000
0000
,
0000
0000
0000
0000
,
0001
1100
1000
0101
,
0001
1000
0010
0000
0000
0000
0000
0000
0000
0100
0000
0001
,
0010
1100
0100
0110
,
0100
0000
0000
0010
,
0001
0100
0000
0010
0000
1000
0010
0000
0000
0100
0000
0001
,
1000
0000
0000
0010
0000
0100
0001
0000
0000
1000
0000
0100
,
1000
0000
0000
0010
0000
0100
0001
0000
0000
1000
0000
0000
,
0001
0000
1000
0000
0010
0000
0100
0000
0000
0000
0000
0000
,
0010
1000
0010
0100
,
0001
1000
0010
0000
0100
0000
0001
0000
0000
1000
0000
0100
,
1000
0010
0100
0001
,
1001
0000
0001
0000
1000
0000
0001
0000
0000
1000
0000
0000
,
0100
1000
0000
0010
0000
0100
0001
0000
0000
1000
0000
0010
,
1000
0000
0000
0010
0000
0100
0001
0000
0000
0100
0000
0010
,
1000
0000
0000
0001
0000
0010
0100
0000
0000
1000
0000
0000
,
0100
0000
1000
0000
0010
0000
0100
0000
0000
0001
0000
0000
,
1000
0010
0100
0001
,
0010
0000
0000
0100
0000
0000
0010
0000
0000
0001
0100
0010
,
1000
0001
0100
0001
,
0010
0000
0000
0001
0000
0000
1000
0000
0000
0100
1000
0010
,
0200
0301
0100
0010
,
2000
3100
1000
0010
,
0200
0301
0200
0310
,
0101
1010
0101
1010
,
0001
0000
0100
0000
0010
1000
0001
0000
0000
0000
0000
0000
,
1000
0000
0100
1000
0000
0000
0010
0000
0100
0001
0000
0000
,
0100
0000
0010
1000
0000
1000
0010
0000
0010
0100
0000
0000
,
0100
0000
0001
0100
0000
0000
0100
0000
0100
0010
0000
0000
,
0010
0000
0010
1000
0000
1000
0001
0000
0000
1000
0000
0000
,
0100
0000
1000
0010
0000
0000
0010
0000
0010
0100
0000
0000
,
0100
0000
0100
0001
0000
0001
1000
0000
1000
0100
0000
0000
,
1000
0000
0010
0100
0000
0000
0100
0000
0100
0001
0000
0000
,
0001
0000
0001
1000
0000
1000
0010
0000
0000
0100
0000
0000
,
0002
0000
0000
0000
,
0203
0000
0000
0300
,
0110
0010
1000
1001
,
0011
0010
0110
1100
,
1001
0001
0100
0010
,
1000
0010
0100
0001
0010
0100
2000
0000
0000
3010
0000
0000
;

//---------------dance-single - ----------------
#NOTES:
     dance-single:
     :
     Easy:
     4:
     0.264054,0.419680,0.294669,0.241093,0.000000,207.000000,174.000000,33.000000,27.000000,0.000000,0.000000,0.264054,0.419680,0.294669,0.241093,0.000000,207.000000,174.000000,33.000000,27.000000,0.000000,0.000000:
0000
0000
0000
0000
,
0000
0000
0000
0000
,
0000
0000
0000
0000
,
0000
0000
0000
0000
,
1001
0001
0010
0001
,
0100
0001
2000
3000
,
1001
0001
1000
0100
,
1000
0010
0200
0301
,
0020
0000
0130
1000
,
0100
1000
1000
0000
,
0001
1000
0100
0100
,
1000
0010
0100
0000
,
1001
0001
1000
0010
,
1001
1000
0200
0300
,
1001
1000
1010
0010
,
0110
0100
0101
0001
,
1001
0110
1001
0110
,
2002
0000
0000
0000
,
3003
0000
0000
0000
,
0000
0000
0000
0000
,
1001
0001
0100
0001
,
0020
0000
0030
0100
,
1000
0100
0001
0100
,
0020
0000
0030
0100
,
0020
0130
0010
0001
,
2000
3100
1000
0010
,
0200
0301
0100
0010
,
2000
0000
3000
0000
,
0001
1000
0100
1000
,
0020
0000
0030
0100
,
0001
0010
0001
1000
,
2000
0000
3000
0001
,
0020
0031
0100
0010
,
2000
3100
0001
0100
,
0020
1030
0001
0100
,
2010
0000
0000
3000
,
0201
0000
0001
0001
,
0302
0000
2000
3003
,
2100
0000
0010
0010
,
3002
0000
2000
3003
,
1020
0000
1030
0010
,
0200
0000
0310
0100
,
0001
0010
0100
1000
,
1001
0110
1001
0110
,
1001
1010
0101
0000
,
0001
0010
1000
0010
,
0100
0100
0010
0001
,
0100
1000
0100
0001
,
0100
0100
0010
1000
,
0001
0100
0001
0010
,
0001
0001
1000
0010
,
1000
0100
1000
0010
,
1000
1000
0001
0100
,
0020
0000
0000
0000
,
0030
0000
0000
0000
,
1001
1000
0001
0101
,
1010
1000
1100
0011
,
1001
1000
0001
0101
,
1000
0010
0100
1001
;

//---------------dance-single - ----------------
#NOTES:
     dance-single:
     :
     Beginner:
     2:
     0.130114,0.314760,0.151799,0.000000,0.000000,102.000000,85.000000,17.000000,0.000000,0.000000,0.000000,0.130114,0.314760,0.151799,0.000000,0.000000,102.000000,85.000000,17.000000,0.000000,0.000000,0.000000:
0000
0000
0000
0000
,
0000
0000
0000
0000
,
0000
0000
0000
0000
,
0000
0000
0000
0000
,
1000
0000
0000
0000
,
0001
0000
0000
0000
,
0100
0000
0000
0000
,
0010
0000
0000
0100
,
1001
0000
0000
0000
,
0000
0000
0000
0000
,
0000
0000
0000
0000
,
0000
0000
0000
0000
,
1001
0000
0000
0000
,
0100
0000
0000
0000
,
1000
0000
0010
0000
,
0100
0000
0001
0000
,
1000
0000
1000
0000
,
1001
0000
0110
0000
,
1001
0000
0000
0000
,
0000
0000
0000
0000
,
0001
0000
1000
0000
,
0100
0000
0000
0000
,
1000
0000
0010
0000
,
0100
0000
0000
0000
,
0001
0000
0000
0000
,
1000
0000
0000
0000
,
0100
0000
0010
0000
,
1001
0000
0000
0000
,
1000
0000
1000
0000
,
1000
0000
0000
0000
,
0001
0000
0001
0000
,
0001
0000
0000
0000
,
0010
0000
0100
0000
,
0010
0000
0001
0000
,
1000
0000
0001
0001
,
1001
0000
0000
0000
,
1000
0000
0010
0000
,
0100
0000
0000
0010
,
0010
0000
0100
0000
,
0001
0000
0000
1000
,
1000
0000
0000
0000
,
0100
0000
0000
0000
,
1000
0000
0001
0000
,
0100
0000
0100
0000
,
0110
0000
1001
0000
,
0001
0000
0100
0000
,
0001
0000
1000
0000
,
0010
0000
1000
0000
,
0001
0000
1000
0000
,
0100
0000
1000
0000
,
0010
0000
0100
0000
,
0001
0000
1000
0000
,
0010
0000
0100
0010
,
1001
0000
0000
0000
,
0000
0000
0000
0000
,
1001
0000
0000
0110
,
1001
0000
0110
1001
,
0110
0000
0000
0100
,
0100
0000
0000
1001
;

//---------------dance-single - ----------------
#NOTES:
     dance-single:
     :
     Challenge:
     10:
     0.641639,0.918051,0.285740,0.285740,1.147424,503.000000,471.000000,32.000000,32.000000,0.000000,0.000000,0.641639,0.918051,0.285740,0.285740,1.147424,503.000000,471.000000,32.000000,32.000000,0.000000,0.000000:
// measure 0
0000
0000
0000
0000
,  // measure 1
0000
0000
0000
0000
,  // measure 2
0000
0000
0000
0000
,  // measure 3
0000
0000
0000
0000
,  // measure 4
1001
0000
0000
0000
0001
0010
0001
0000
0010
0000
0001
0000
1000
0000
0100
0000
1000
0000
0010
0100
0010
1000
0001
0000
,  // measure 5
1000
0000
0001
1000
0001
1000
0010
0000
0100
0000
0001
0000
0020
0000
0000
0000
0000
0000
0230
0000
0000
0000
0000
0000
,  // measure 6
1300
0000
0000
0000
0100
0010
0001
0000
0010
0000
0001
0000
1000
0000
0010
0000
0100
0000
0001
1000
0001
0100
0010
0000
,  // measure 7
1000
0000
0001
1000
0100
0000
1000
0000
0010
0000
0100
0000
0001
0000
0000
0000
1000
0000
0100
0000
0001
0000
0100
0000
,  // measure 8
0020
0000
0001
0001
,  // measure 9
0130
0000
0000
1000
0100
1000
0002
0000
0000
0000
0000
0000
,  // measure 10
1003
0000
0000
0001
0100
0010
1000
0000
0000
0100
0000
0000
,  // measure 11
1000
0000
0000
0001
0100
0001
2000
0000
0000
3000
0000
0000
,  // measure 12
0011
0000
0000
0010
0001
0100
0002
0000
0000
0103
0000
0000
,  // measure 13
0110
0000
0000
0000
0000
0000
0010
0000
0100
0000
0001
0000
2000
0000
0000
0000
0000
0000
0000
0000
0000
3000
0000
0000
,  // measure 14
1001
0000
0000
1000
0001
0100
1001
0000
0000
0100
0000
0000
,  // measure 15
1001
1000
0000
0100
0010
0001
1000
0000
0010
0100
0001
0010
,  // measure 16
0200
1000
0301
0200
1000
0310
0200
0010
0301
0200
0010
1300
,  // measure 17
1100
0000
0101
0000
0011
0000
0110
0000
1100
0000
1001
0010
,  // measure 18
2002
0000
0000
0000
,  // measure 19
3003
0000
0000
0000
,  // measure 20
1020
0000
0000
0000
0000
0000
0130
0001
0010
0000
0000
0000
0200
0000
0000
0000
0000
0000
1300
0010
0100
0000
0000
0000
,  // measure 21
0010
0000
1000
0000
0001
0000
1000
0000
0000
0010
0000
0000
0000
0000
0000
0000
0000
0000
0100
0000
0000
0000
0001
0000
,  // measure 22
0020
0000
0000
0000
0000
0000
0130
1000
0001
0000
0000
0000
2000
0000
0000
0000
0000
0000
3010
0100
0001
0000
0000
0000
,  // measure 23
0010
1000
0010
0001
0100
0010
1000
0000
0000
0002
0000
0000
,  // measure 24
1003
0010
0100
0000
0000
0000
0010
0000
0000
0000
0100
0000
0002
0000
0000
0000
0000
0000
0013
0100
1000
0000
0001
0000
,  // measure 25
0100
0010
1000
0000
0000
0000
0001
0000
0000
0000
1000
0000
0001
0100
0001
0000
0000
0000
0100
0000
0000
0000
0010
0000
,  // measure 26
1000
0000
0000
0000
0000
0000
0000
0000
0000
0000
0000
0000
0001
0000
0000
0000
0000
0000
0000
0000
1000
0000
0000
0000
1010
0000
0000
0000
0000
0000
0000
0000
0000
0000
0000
0000
0101
0000
0000
0000
0000
0000
0000
0000
0000
0100
0000
0000
,  // measure 27
0001
0100
0010
0000
2000
0000
3002
0000
0000
0013
0000
0000
,  // measure 28
1100
0000
0000
0000
0000
0000
1000
0010
0100
0000
0001
0000
1000
0000
0000
0000
0000
0000
0001
1000
0100
0000
1000
0000
,  // measure 29
0001
0000
0010
0000
0100
0000
0010
0000
0000
0001
0000
0000
0000
0000
0000
0000
0000
0000
1000
0000
0000
0000
0001
0000
,  // measure 30
0010
0000
0000
0000
0000
0000
0100
1000
0010
0000
0100
0000
0001
0000
0000
0000
0000
0000
0100
0000
0000
0000
0010
0000
,  // measure 31
1000
0100
0010
0001
0010
0001
1000
0000
0000
0001
0000
0000
,  // measure 32
0100
0001
0100
0000
0010
0000
1000
0000
0000
0000
0100
0000
0010
0000
0000
0000
0000
0000
0001
1000
0100
0000
0010
0000
,  // measure 33
0001
1000
0010
0000
0000
0000
0100
0000
0000
0000
0001
0000
1000
0001
1000
0100
0000
0000
0010
0000
0000
0000
0001
0000
,  // measure 34
0100
0000
0000
0010
0000
0100
0002
0000
0000
2003
0000
0000
,  // measure 35
3100
0000
1000
0000
0010
0000
0110
0000
0000
0100
0000
0001
,  // measure 36
1000
0000
1000
0010
0000
0010
0100
0000
0100
0001
0000
0001
,  // measure 37
0010
0000
0010
0100
0000
0100
1000
0000
0001
1001
1001
1001
,  // measure 38
1000
0000
0001
0010
0000
0100
1000
0000
1000
0010
0000
0010
,  // measure 39
0100
0000
0100
0010
0000
0010
1000
0000
1000
1001
1001
1001
,  // measure 40
0004
0000
0403
0340
,  // measure 41
4030
0000
3004
0000
,  // measure 42
1003
0000
0100
0010
0000
0001
0010
0000
0100
1000
0000
1000
,  // measure 43
0020
0001
1030
0020
0001
1030
0020
1000
0031
0020
1000
0031
,  // measure 44
0101
0000
1100
0000
1001
1001
1001
0000
0000
0000
0000
0000
,  // measure 45
1000
0000
0001
0010
0001
1000
0001
0000
0100
0000
0010
0000
1000
0000
0001
0010
0001
0010
0100
0000
0010
0000
0001
0000
,  // measure 46
0100
0000
0010
1000
0010
1000
0100
0000
0010
0000
0001
0000
1000
0000
0010
1000
0010
1000
0001
0000
0010
0000
0001
0000
,  // measure 47
0100
0000
0010
0000
0100
0000
0001
0000
0000
1000
0000
0000
0100
0000
0010
0000
0001
0000
1000
0000
0000
0001
0000
0000
1000
0000
0000
0000
0001
0000
0000
0000
0010
0000
0000
0000
0100
0000
1000
0000
0100
0000
1000
0000
0000
0100
0000
0000
,  // measure 48
1000
0001
0010
0001
0100
0010
1000
0100
0010
0001
1000
0001
,  // measure 49
1000
0000
0001
0010
0001
1000
0001
0000
0100
0000
0010
0000
1000
0000
0001
0010
0001
0010
0100
0000
0010
0000
0001
0000
,  // measure 50
0100
0000
0010
1000
0010
1000
0100
0000
0010
0000
0001
0000
1000
0000
0010
1000
0010
1000
0001
0000
0010
0000
0001
0000
,  // measure 51
0100
0000
0010
0000
0100
0000
0001
0000
0000
1000
0000
0000
0100
0000
0010
0000
0001
0000
1000
0000
0000
0001
0000
0000
1000
0000
0000
0000
0001
0000
0000
0000
0010
0000
0000
0000
0100
0000
1000
0000
0100
0000
1000
0000
0000
0100
0000
0000
,  // measure 52
1000
0010
0100
0001
0000
0001
0020
0000
0000
0032
0000
0000
,  // measure 53
2000
0000
0000
0000
,  // measure 54
3003
0000
0000
0000
,  // measure 55
2000
0000
0000
0000
3100
0010
0001
0000
0010
0000
0001
0000
1000
0000
0100
0000
0001
0000
0100
0000
0010
0000
0001
0000
,  // measure 56
1000
0000
0010
0100
0001
0000
0010
0000
0100
0000
1000
0000
1100
0000
0000
0000
0000
0000
0101
0000
0000
0000
0000
0000
,  // measure 57
1010
0000
0000
0000
1000
0010
0100
0000
0001
0000
0010
0000
0001
0000
1000
0000
0100
0000
0001
0000
0100
0000
0010
0000
,  // measure 58
0001
0000
1000
0001
1000
0000
0100
0000
0010
0000
0001
0000
0200
0000
0000
0000
0000
0000
0310
0000
0000
0000
0000
0000
;
