#TITLE:Butterfly;
#SUBTITLE:;
#ARTIST:Grimes;
#TITLETRANSLIT:;
#SUBTITLETRANSLIT:;
#ARTISTTRANSLIT:;
#GENRE:;
#CREDIT:;
#BANNER:Butterfly.png;
#BACKGROUND:Butterfly-bg.png;
#LYRICSPATH:;
#CDTITLE:;
#MUSIC:Butterfly.ogg;
#OFFSET:-0.158000;
#SAMPLESTART:66.606575;
#SAMPLELENGTH:12.857132;
#SELECTABLE:YES;
#BPMS:0.000000=112.000000
;
#STOPS:30.000000=0.536000
;
#BGCHANGES:;
#KEYSOUNDS:;
#ATTACKS:;

//---------------dance-single - ----------------
#NOTES:
     dance-single:
     :
     Hard:
     6:
     0.334468,0.390508,0.106020,0.141360,0.079515,265.000000,253.000000,12.000000,16.000000,0.000000,0.000000,0.334468,0.390508,0.106020,0.141360,0.079515,265.000000,253.000000,12.000000,16.000000,0.000000,0.000000:
0000
0000
0000
0000
,
0000
0000
0000
0000
,
0000
0000
0000
0000
,
0000
0000
0000
0000
,
1000
0000
0000
0000
0000
0000
0001
0000
0010
0000
0100
1000
0000
1000
0001
0000
,
0100
0000
0000
0010
0000
0000
1000
0000
0000
0001
0000
0010
0000
0000
0000
0000
0000
0000
0000
0000
0000
0000
0000
0000
,
0001
0000
0000
0000
0000
0000
0100
0000
0010
0000
1000
0010
0000
0100
0001
0000
,
0020
0000
0030
0001
,
0100
0000
0010
0000
1000
0000
0100
1000
,
0100
0000
1000
0000
0001
0000
0100
0010
,
0100
0000
0001
0000
0010
0000
0001
1000
,
0001
0010
0100
0000
0000
0010
0001
1000
,
0001
0010
0100
0000
0000
0001
1000
0001
,
0010
0001
0100
0000
0100
0000
0100
0000
,
0010
0100
0001
1000
,
1000
1000
1000
0010
,
1000
0000
0011
0000
1100
0000
1000
0001
,
1000
0000
0001
0100
0001
0000
0100
0010
,
0100
0000
0010
0000
1000
0000
0001
0010
,
0100
1000
0001
0000
0000
1000
0001
0010
,
0001
0100
0001
0000
,
0000
0000
1000
1000
0001
1000
0000
0000
,
0000
0000
0000
0100
,
0100
0010
0010
1002
,
1000
0000
0000
0000
1003
0000
0000
0000
0100
0000
0000
0000
1000
0000
0001
0100
,
0000
0100
0001
0000
1000
0000
0000
0000
0100
0000
1000
0000
0010
0000
0000
0010
,
0000
0000
0010
0000
0000
0000
0000
0000
0100
0000
0001
0000
1000
0000
0001
1000
,
0000
0001
1000
0000
0100
0000
0010
0000
0001
0000
1000
0000
0010
0000
0000
0100
,
0001
0000
0000
0000
0010
0000
0010
0000
0100
0000
0000
0000
0010
0000
0000
0001
,
1000
0000
0000
0000
0010
0000
0010
0000
0100
0000
0000
0000
0001
0000
0000
1000
,
0010
0000
0000
0100
0001
0000
0001
0000
0010
0000
0000
0000
0001
0000
0100
0000
,
1000
0000
1000
0100
0010
0100
2001
0000
,
0010
3001
0011
1200
,
0310
0001
0011
1020
,
0130
0000
0001
0000
1000
0000
0001
0010
,
0001
1000
0100
0001
0100
0000
0020
0000
,
0031
0000
0100
0010
1020
0000
0130
0000
,
0001
0000
0010
0100
2100
0000
3001
0000
,
1000
0000
0001
0010
0001
0000
0010
1000
,
0010
0001
0010
0100
1000
0000
1001
0000
,
0001
0000
0010
0000
0001
0100
0010
1000
,
0100
0001
0100
0010
0001
0000
1010
0000
,
1000
0000
0001
0000
0010
0001
0100
1000
,
0100
0010
1000
0001
0010
0001
1000
0000
,
0000
0000
0000
0000
0001
0010
0001
1000
,
0100
1000
0010
1000
0001
0200
0000
0000
,
0000
0320
0000
2030
0000
0002
0000
0000
,
0000
0000
3003
1000
,
0000
0000
0001
0000
0010
0000
0100
1000
0000
1000
0001
0000
0100
0000
0010
0000
,
1000
0001
2000
0000
3002
0000
1003
0000
,
0010
0000
1000
0000
0100
0000
0010
0001
0000
0001
0100
0000
0010
0000
1000
0000
,
0001
0010
0200
0000
0320
0000
0000
0000
,
0030
0000
0000
0000
;

//---------------dance-single - ----------------
#NOTES:
     dance-single:
     :
     Medium:
     4:
     0.254953,0.367537,0.185535,0.123690,0.000000,202.000000,181.000000,21.000000,14.000000,0.000000,0.000000,0.254953,0.367537,0.185535,0.123690,0.000000,202.000000,181.000000,21.000000,14.000000,0.000000,0.000000:
0000
0000
0000
0000
,
0000
0000
0000
0000
,
0000
0000
0000
0000
,
0000
0000
0000
0000
,
0020
0030
0100
0000
,
0010
1000
0100
0000
,
0020
0030
0001
0000
,
1000
0001
0100
0010
,
1000
0000
0010
0000
0010
0000
0100
0001
,
0100
0000
0001
0000
0100
0000
0010
1000
,
0010
0000
1000
0000
0100
0000
0010
0100
,
1000
0001
1000
0000
0000
0000
0001
0010
,
0100
1000
0001
0000
0000
0000
0001
0010
,
0100
1000
0100
0000
0100
0000
1000
0000
,
0010
0100
0001
1000
,
1000
1000
1000
0001
,
0010
0000
1000
0000
0010
0000
0001
0100
,
0010
0000
0100
0010
1000
0000
0001
1000
,
0100
0000
1000
0000
0010
0000
0100
0010
,
1000
0001
0100
0000
0000
0100
0010
0000
,
1000
0010
0100
0000
,
0000
0101
0011
0000
,
0000
0000
0000
0001
,
0010
0100
1000
2001
,
0000
3000
0001
0100
,
0010
0000
1000
0000
0010
1000
0100
0000
,
0100
0000
0010
0000
0100
0010
0001
1000
,
0001
0100
0001
1000
0100
0010
0001
0000
,
0011
0000
0001
0001
0100
0000
0010
0000
,
1010
0000
1000
1000
0010
0000
1000
0000
,
1001
0000
0001
0001
1000
0000
0001
0100
,
1000
0000
1000
0100
0001
0000
1001
0000
,
0000
0000
0011
1100
,
0000
0000
0110
1001
,
0000
0000
0000
0000
0000
0000
0001
1000
,
0010
1000
0001
0100
0010
0000
1001
0000
,
0000
0000
0011
1100
,
0000
0000
1010
0101
,
0000
0000
0000
0000
0000
0000
0001
1000
,
0010
1000
0001
0100
0001
0000
2002
0000
,
3003
0000
0000
0000
0001
0100
0010
0000
,
1000
0000
0010
0100
0001
0000
2200
0000
,
3300
0000
0000
0000
1000
0010
0100
0000
,
0010
0000
1000
0001
0100
0000
2002
0000
,
3003
0000
0001
0010
,
0001
0000
1000
0000
0100
2000
0000
0000
,
0000
3002
0000
0000
0000
0203
0000
0000
,
0000
0300
0000
0010
,
0000
1000
0000
0001
,
1000
0010
1001
1000
,
0000
0001
0000
1000
,
0010
0100
2002
0000
,
3003
0000
0000
0000
;

//---------------dance-single - ----------------
#NOTES:
     dance-single:
     :
     Easy:
     2:
     0.153982,0.206739,0.061845,0.035340,0.000000,122.000000,115.000000,7.000000,4.000000,0.000000,0.000000,0.153982,0.206739,0.061845,0.035340,0.000000,122.000000,115.000000,7.000000,4.000000,0.000000,0.000000:
0000
0000
0000
0000
,
0000
0000
0000
0000
,
0000
0000
0000
0000
,
0000
0000
0000
0000
,
1000
0000
0000
0000
,
0001
0001
0001
0000
,
0100
0000
0000
0000
,
0020
0000
0030
1000
,
0001
1000
1000
0100
,
0010
0100
0100
0010
,
0001
0010
0010
0001
,
1000
0001
0000
0001
,
1000
0001
0000
0001
,
1000
0100
0000
1000
,
0000
0010
0000
0100
,
0100
0100
0000
0010
,
1000
0010
0010
0100
,
0001
1000
1000
0001
,
0010
0001
0001
0010
,
0100
1000
0000
0100
,
1000
0001
1000
0000
,
0000
0010
0010
0000
,
0000
0000
0000
0100
,
0000
0010
0000
1001
,
0000
0000
0000
0000
,
1000
0001
0000
0100
,
0000
0000
0010
0010
,
1000
0010
0100
1001
,
0000
0000
0001
0000
,
1000
0000
0001
0000
,
0100
0000
0010
0200
,
0000
0000
0300
1001
,
0000
0000
0001
0010
,
0000
0000
0001
1000
,
0000
0000
0000
0100
,
1000
0010
0100
1001
,
0000
0000
0001
0010
,
0000
0000
0001
1000
,
0000
0000
0000
0100
,
0010
0001
1000
1001
,
0000
0000
1000
0001
,
0100
0001
0010
0110
,
0000
0000
0010
0001
,
1000
0100
1000
1001
,
0000
0000
0001
0100
,
0010
1000
0001
2000
,
0000
0000
0000
0000
,
0000
3000
0000
0001
,
0000
0000
0000
1000
,
0000
0010
0000
1000
,
0000
0000
0000
0100
,
0000
0010
0002
0000
,
0003
0000
0000
0000
;

//---------------dance-single - ----------------
#NOTES:
     dance-single:
     :
     Beginner:
     1:
     0.078253,0.136501,0.026505,0.000000,0.000000,62.000000,59.000000,3.000000,0.000000,0.000000,0.000000,0.078253,0.136501,0.026505,0.000000,0.000000,62.000000,59.000000,3.000000,0.000000,0.000000,0.000000:
// measure 0
0000
0000
0000
0000
,  // measure 1
0000
0000
0000
0000
,  // measure 2
0000
0000
0000
0000
,  // measure 3
0000
0000
0000
0000
,  // measure 4
1000
0000
0000
0000
,  // measure 5
0010
0000
0000
0000
,  // measure 6
1000
0000
0000
0000
,  // measure 7
0100
0000
0000
1000
,  // measure 8
0000
0000
0000
0001
,  // measure 9
0000
0000
0000
0100
,  // measure 10
0000
0000
0000
0010
,  // measure 11
0000
0000
0000
0010
,  // measure 12
0000
0000
0000
0010
,  // measure 13
0000
0000
0000
1000
,  // measure 14
0000
0000
0000
0000
,  // measure 15
0000
0000
0000
0001
,  // measure 16
0000
0000
0000
1000
,  // measure 17
0000
0000
0000
0010
,  // measure 18
0000
0000
0000
0100
,  // measure 19
0000
0000
0000
0010
,  // measure 20
0000
0000
0000
0000
,  // measure 21
0000
1000
1000
0000
,  // measure 22
0000
0000
0000
0001
,  // measure 23
0000
1000
0000
0010
,  // measure 24
0000
0000
0000
0000
,  // measure 25
0100
0000
0000
0010
,  // measure 26
0000
0000
0000
1000
,  // measure 27
0000
1000
0000
1000
,  // measure 28
0000
0000
0000
0001
,  // measure 29
0000
0000
0000
0100
,  // measure 30
0000
0000
0000
0010
,  // measure 31
0000
0100
0000
1001
,  // measure 32
0000
0000
1000
1000
,  // measure 33
0000
0000
0001
0001
,  // measure 34
0000
0000
0000
0100
,  // measure 35
0000
0010
0000
1000
,  // measure 36
0000
0000
0010
0010
,  // measure 37
0000
0000
0100
0100
,  // measure 38
0000
0000
0000
0001
,  // measure 39
0000
1000
0000
1001
,  // measure 40
0000
0000
0000
0010
,  // measure 41
0000
0100
0000
0110
,  // measure 42
0000
0000
0000
0010
,  // measure 43
0000
1000
0000
0001
,  // measure 44
0000
0000
0000
1000
,  // measure 45
0000
0000
0000
0100
,  // measure 46
0000
0000
0000
0000
,  // measure 47
0000
0000
0000
1000
,  // measure 48
0000
0000
0000
0001
,  // measure 49
0000
0000
0000
1000
,  // measure 50
0000
0000
0000
0010
,  // measure 51
0000
0100
0100
0000
;
