#VERSION:0.83;
#TITLE:Bonjour;
#SUBTITLE:;
#ARTIST:Daleri;
#TITLETRANSLIT:;
#SUBTITLETRANSLIT:;
#ARTISTTRANSLIT:;
#GENRE:;
#ORIGIN:;
#CREDIT:;
#BANNER:bn.png;
#BACKGROUND:bg.png;
#PREVIEWVID:;
#JACKET:jk.png;
#CDIMAGE:;
#DISCIMAGE:;
#LYRICSPATH:;
#CDTITLE:;
#MUSIC:Bonjour.ogg;
#OFFSET:-5.615995;
#SAMPLESTART:22.492994;
#SAMPLELENGTH:14.999998;
#SELECTABLE:YES;
#BPMS:0.000=128.000;
#STOPS:;
#DELAYS:;
#WARPS:;
#TIMESIGNATURES:0.000=4=4;
#TICKCOUNTS:0.000=4;
#COMBOS:0.000=1;
#SPEEDS:0.000=1.000=0.000=0;
#SCROLLS:0.000=1.000;
#FAKES:;
#LABELS:0.000=Song Start;
#BGCHANGES:;
#KEYSOUNDS:;
#ATTACKS:
;

//---------------dance-single - ----------------
#NOTEDATA:;
#CHARTNAME:;
#STEPSTYPE:dance-single;
#DESCRIPTION:;
#CHARTSTYLE:;
#DIFFICULTY:Hard;
#METER:7;
#RADARVALUES:0.366539,0.391666,0.081597,0.217592,0.067998,283.000000,274.000000,9.000000,24.000000,0.000000,0.000000,0.000000,0.000000,0.000000,0.366539,0.391666,0.081597,0.217592,0.067998,283.000000,274.000000,9.000000,24.000000,0.000000,0.000000,0.000000,0.000000,0.000000;
#CREDIT:;
#NOTES:
0000
0000
0000
0000
,
1000
0010
1000
0001
0000
0000
1010
0000
,
0001
0100
0001
1000
0000
0000
0101
0000
,
0001
0010
1000
0010
0000
0000
1100
0000
,
1000
0100
0001
0100
0000
0000
0011
0000
,
1002
0000
0000
0000
,
1000
1000
1000
1000
,
0100
0100
0100
0100
,
0010
0010
0010
0013
,
0001
1000
0010
0200
0000
0000
0302
0000
,
1003
0010
1000
0200
0000
2300
0000
3100
,
0010
0001
1000
0010
0000
1000
0010
0100
,
0001
1000
0100
0000
2000
0000
3002
0000
,
1003
0100
1000
0020
0000
0000
2030
0000
,
3001
0010
0001
0200
0000
0302
0000
0103
,
0010
1000
0001
0010
0000
0100
0010
0001
,
0010
0100
0010
0000
0100
0010
0100
0000
,
0010
0001
1000
0020
0000
0000
0230
0000
,
0310
1000
0001
0200
0000
0302
0000
0103
,
0001
1000
0010
1000
0000
0010
0100
0001
,
0010
1000
0010
0000
0200
0000
0320
0000
,
0031
0010
1000
0020
0000
0000
0230
0000
,
1300
0010
1000
0002
0000
2003
0000
3010
,
0100
0001
1000
0100
0000
0010
0100
1000
,
1001
0110
1001
0110
,
0002
0100
0000
0103
,
0020
1000
0000
1030
,
0200
0010
0000
0310
,
0100
0000
0000
0100
0000
0000
0010
0000
,
0001
0000
0000
1000
0000
0000
0010
0000
,
0001
0000
0000
0100
0000
0000
1000
0000
,
0100
0000
0000
0010
0000
0000
1000
0000
,
0001
0001
0001
0001
,
1000
0000
0000
0100
0000
0000
1000
0000
,
0001
0000
0000
0100
0000
0000
0001
0000
,
0010
0000
0000
0001
0000
0000
0010
0000
,
0100
0100
0100
0100
,
1000
0000
0000
0000
0001
0000
0000
0000
0100
0000
0000
0010
1000
0000
0100
0000
,
1000
0000
0001
0000
1000
0000
0000
0010
0000
0000
1000
0000
0100
0000
0000
0000
,
0010
0000
0001
0000
0100
0000
0000
0010
0000
0000
0100
0000
0001
0000
1000
0000
,
0100
0000
0010
0000
0100
0000
0000
1000
0000
0000
0001
0000
0100
0000
0000
0000
,
0001
0000
1000
0000
0010
0000
0000
0100
0000
0000
0001
0000
0100
0000
0010
0000
,
1000
0000
0100
0000
1000
0000
0000
0001
0000
0000
0100
0000
0010
0000
0000
0000
,
1000
0000
0100
0000
1000
0000
0000
0001
0000
0000
0100
0000
0010
0000
1000
0000
,
0010
0000
0100
0000
0001
0000
0000
0010
0000
0000
0001
0000
1000
0000
0000
0000
,
0010
0100
0001
0000
0010
0100
0010
0001
,
1000
0000
0010
0000
0100
0000
0000
0010
0000
0000
0100
0000
0010
0000
0000
0000
,
1000
0000
0001
0000
0010
0000
0000
0100
0000
0000
0010
0000
0001
0000
0010
0000
,
0001
0000
1000
0000
0001
0000
0000
0100
0000
0000
0010
0000
1000
0000
0000
0000
,
1000
0000
0100
0000
1000
0000
0000
0010
0000
0000
0100
0000
0010
0000
1000
0000
,
0001
0000
0010
0000
0100
0000
0000
0010
0000
0000
0001
0000
1000
0000
0000
0000
,
0001
0000
0010
0000
0100
0000
0000
1000
0000
0000
0001
0000
1000
0000
0010
0000
,
1000
0000
0100
0000
1000
0000
0000
0100
0000
0000
0010
0000
0100
0000
0000
0000
,
0010
0001
1000
0000
0001
1000
0010
1000
,
0100
0000
0000
0000
;

//---------------dance-single - ----------------
#NOTEDATA:;
#CHARTNAME:;
#STEPSTYPE:dance-single;
#DESCRIPTION:;
#CHARTSTYLE:;
#DIFFICULTY:Medium;
#METER:5;
#RADARVALUES:0.314732,0.342708,0.190393,0.117863,0.000000,243.000000,222.000000,21.000000,13.000000,0.000000,0.000000,0.000000,0.000000,0.000000,0.314732,0.342708,0.190393,0.117863,0.000000,243.000000,222.000000,21.000000,13.000000,0.000000,0.000000,0.000000,0.000000,0.000000;
#CREDIT:;
#NOTES:
0000
0000
0000
0000
,
1000
0001
1000
0010
0000
0000
1001
0000
,
1000
0001
1000
0100
0000
0000
1001
0000
,
0001
0010
0001
1000
0000
0000
1001
0000
,
1000
0010
1000
0001
0000
0000
1001
0000
,
0120
0000
0000
0000
,
0000
0000
0000
0000
,
0100
0100
0100
0100
,
0100
0100
0100
0130
,
0001
0100
0020
0130
,
0010
1000
0200
1300
,
0100
1000
0010
0100
,
0101
0101
0101
0101
,
0001
0010
0002
1003
,
0100
1000
0020
0130
,
0100
0001
0010
0001
,
0101
1100
0101
1100
,
0100
1000
0020
0130
,
0100
0001
2000
3100
,
0010
0001
0010
0100
,
1100
1100
1100
1100
,
1000
0010
0200
0301
,
0010
0001
2000
3100
,
1000
0010
0100
0001
,
0011
1010
0011
1010
,
2000
0001
0000
0001
,
3002
1000
0000
1000
,
2003
0001
0000
0001
,
3002
0000
1000
0000
0000
0000
1000
0003
,
1000
0000
0000
0100
0000
0000
1000
0000
,
0100
0000
0000
0010
0000
0000
0100
0000
,
0010
0000
0000
0001
0000
0000
0010
0000
,
0001
0001
0001
0001
,
1000
0000
0000
0010
0000
0000
0100
0000
,
0001
0000
0000
0010
0000
0000
0001
0000
,
1000
0000
0000
0010
0000
0000
0100
0000
,
0001
0001
0001
0001
,
1000
0000
0100
0000
0010
0000
0001
0010
,
0100
0000
0010
0000
0001
0000
1000
0001
,
1000
0000
0010
0000
0100
0000
0001
0100
,
0001
0000
0100
0000
0010
0000
1000
0100
,
1000
0000
0100
0000
1000
0000
0010
1000
,
0010
0000
0100
0000
0001
0000
0010
0100
,
0010
0000
0001
0000
0010
0000
0100
1000
,
0100
0000
1000
0000
0010
0000
0100
0001
,
0100
0001
0010
0000
0001
0010
0100
1000
,
0001
0000
1000
0000
0010
1000
0010
0000
,
1000
0000
0100
0000
0010
0100
0010
0000
,
0001
0000
0100
0000
0010
0100
0010
0000
,
0100
0000
0001
0000
0010
0100
0010
0001
,
1000
0000
0001
0000
0100
0010
0100
0000
,
0010
0000
1000
0000
0100
1000
0100
0000
,
1000
0000
0010
0000
0100
0001
0100
0000
,
0001
0010
0001
0000
0100
0010
1000
0001
,
0100
0000
0000
0000
;

//---------------dance-single - ----------------
#NOTEDATA:;
#CHARTNAME:;
#STEPSTYPE:dance-single;
#DESCRIPTION:;
#CHARTSTYLE:;
#DIFFICULTY:Easy;
#METER:3;
#RADARVALUES:0.195574,0.269271,0.036265,0.135995,0.000000,151.000000,147.000000,4.000000,15.000000,0.000000,0.000000,0.000000,0.000000,0.000000,0.195574,0.269271,0.036265,0.135995,0.000000,151.000000,147.000000,4.000000,15.000000,0.000000,0.000000,0.000000,0.000000,0.000000;
#CREDIT:;
#NOTES:
0000
0000
0000
0000
,
1000
0010
0000
0100
,
0001
0010
0000
0100
,
0010
0001
0000
1000
,
0010
0100
0000
0001
,
2001
0000
0000
0000
,
0000
0000
0000
0000
,
0000
0000
0000
0000
,
0000
0000
0000
3000
,
0001
1000
0200
0300
,
1000
0001
0020
0031
,
0010
0001
0000
0100
,
0001
0001
0001
0001
,
1000
0010
2000
3000
,
0010
0100
0002
0013
,
0001
0100
0000
0010
,
1000
1000
1000
1000
,
0100
1000
0002
0003
,
0100
0001
0020
0130
,
1000
0100
0000
0100
,
1000
1000
1000
1000
,
0100
0010
0002
1003
,
0001
0100
0020
1030
,
0100
0010
0000
0100
,
0010
0010
0010
0010
,
0002
0000
0000
0003
,
2000
0000
0000
3000
,
0020
0000
0000
0030
,
0200
0000
0000
0300
,
0001
0000
0000
1000
,
0001
0000
0000
1000
,
0001
0000
0000
1000
,
0010
0010
0010
0010
,
0100
0000
0000
0001
,
1000
0000
0000
0001
,
1000
0000
0000
0001
,
0010
0010
0010
0010
,
0100
1000
0010
0110
,
1001
0000
0001
1000
,
0010
0000
0100
0001
,
0010
0000
0100
1000
,
0001
0000
1000
0001
,
0010
0000
0001
1000
,
0100
0000
1000
0001
,
0010
0000
0001
0100
,
0020
0000
2030
0000
,
3100
0000
1000
0001
,
0010
0000
0100
1000
,
0010
0000
0100
0010
,
1000
0000
0001
0010
,
0001
0000
0100
0010
,
1000
0000
0100
0010
,
0001
0000
0010
0001
,
0100
0010
1000
0001
,
1001
0000
0000
0000
;

//---------------dance-single - ----------------
#NOTEDATA:;
#CHARTNAME:;
#STEPSTYPE:dance-single;
#DESCRIPTION:;
#CHARTSTYLE:;
#DIFFICULTY:Beginner;
#METER:1;
#RADARVALUES:0.082892,0.146875,0.036265,0.000000,0.000000,64.000000,60.000000,4.000000,0.000000,0.000000,0.000000,0.000000,0.000000,0.000000,0.082892,0.146875,0.036265,0.000000,0.000000,64.000000,60.000000,4.000000,0.000000,0.000000,0.000000,0.000000,0.000000,0.000000;
#CREDIT:;
#NOTES:
// measure 0
0000
0000
0000
0000
,  // measure 1
1000
0000
0000
0000
,  // measure 2
1000
0000
0000
0000
,  // measure 3
0001
0000
0000
0000
,  // measure 4
0001
0000
0000
0000
,  // measure 5
0110
0000
0000
0000
,  // measure 6
0000
0000
0000
0000
,  // measure 7
0000
0000
0000
0000
,  // measure 8
0000
0000
0000
0000
,  // measure 9
1000
0000
0000
0000
,  // measure 10
0001
0000
0000
0000
,  // measure 11
0100
0000
0000
0000
,  // measure 12
0010
0000
0010
0000
,  // measure 13
0010
0000
0000
0000
,  // measure 14
1000
0000
0000
0000
,  // measure 15
0100
0000
0000
0000
,  // measure 16
0010
0000
0010
0000
,  // measure 17
0001
0000
0000
0000
,  // measure 18
1000
0000
0000
0000
,  // measure 19
0010
0000
0000
0000
,  // measure 20
1000
0000
1000
0000
,  // measure 21
0001
0000
0000
0000
,  // measure 22
0100
0000
0000
0000
,  // measure 23
0010
0000
0000
0000
,  // measure 24
0100
0000
0100
0000
,  // measure 25
0001
0000
0000
0000
,  // measure 26
1000
0000
0000
0000
,  // measure 27
0001
0000
0000
0000
,  // measure 28
1000
0000
0000
0000
,  // measure 29
0010
0000
0000
0000
,  // measure 30
0010
0000
0000
0000
,  // measure 31
0010
0000
0000
0000
,  // measure 32
0100
0000
0100
0000
,  // measure 33
0001
0000
0000
0000
,  // measure 34
0001
0000
0000
0000
,  // measure 35
1000
0000
0000
0000
,  // measure 36
1000
0000
1000
0000
,  // measure 37
0001
0000
0100
0000
,  // measure 38
1001
0000
0000
0000
,  // measure 39
0010
0000
0000
0000
,  // measure 40
1000
0000
0000
0000
,  // measure 41
0100
0000
0000
0000
,  // measure 42
1000
0000
0000
0000
,  // measure 43
0001
0000
0000
0000
,  // measure 44
0100
0000
0000
0000
,  // measure 45
0010
0000
0100
0000
,  // measure 46
1001
0000
0000
0000
,  // measure 47
0001
0000
0000
0000
,  // measure 48
0100
0000
0000
0000
,  // measure 49
0001
0000
0000
0000
,  // measure 50
0010
0000
0000
0000
,  // measure 51
0100
0000
0000
0000
,  // measure 52
1000
0000
0000
0000
,  // measure 53
1000
0000
0001
0000
,  // measure 54
0110
0000
0000
0000
;
