#TITLE:Blue World;
#SUBTITLE:;
#ARTIST:SUPER JUNIOR;
#TITLETRANSLIT:;
#SUBTITLETRANSLIT:;
#ARTISTTRANSLIT:;
#GENRE:;
#CREDIT:;
#BANNER:Blue World-bn.png;
#BACKGROUND:Blue World-bg.png;
#LYRICSPATH:;
#CDTITLE:;
#MUSIC:Blue World.mp3;
#OFFSET:-8.206000;
#SAMPLESTART:103.661301;
#SAMPLELENGTH:15.842537;
#SELECTABLE:YES;
#BPMS:0.000000=124.979996
;
#STOPS:132.000000=1.440000
;
#BGCHANGES:;
#KEYSOUNDS:;
#ATTACKS:;

//---------------dance-single - ----------------
#NOTES:
     dance-single:
     :
     Hard:
     8:
     0.456672,0.597558,0.357622,0.189759,0.842967,438.000000,389.000000,49.000000,26.000000,0.000000,0.000000,0.456672,0.597558,0.357622,0.189759,0.842967,438.000000,389.000000,49.000000,26.000000,0.000000,0.000000:
0000
0000
0000
0000
,
0001
0000
0001
0000
0000
0001
1000
0000
1000
0010
0000
0010
,
0100
0000
0100
0000
0010
1000
0001
0010
0001
1000
0000
1000
,
0001
0000
0010
0000
0100
1000
0100
0000
1000
0000
0010
0100
,
0101
0000
0001
0000
0010
0000
0110
0000
0100
0000
1000
0000
,
0000
0000
0100
0010
0000
0010
0001
0000
1000
0000
0001
0100
,
0010
0000
0100
0000
0010
1000
0100
0000
0010
0000
0001
1000
,
0000
0000
0001
0010
0100
0010
0001
0000
1000
0000
0010
1000
,
1001
0000
0001
0000
0010
0000
0110
0000
0100
0000
1000
0000
,
2001
0000
0001
0000
0001
0000
0002
0000
0000
0000
0000
3003
,
1002
0000
1000
0000
1000
0000
2000
0000
0000
0000
0000
3003
,
0210
0000
0000
0000
0302
0000
0000
0003
,
1000
0010
0100
0001
0010
0100
1000
0000
1000
0000
0001
0000
,
0201
0000
0001
0000
0001
0000
0020
0000
0000
0000
0330
0000
,
2010
0000
0010
0000
0010
0000
0002
0000
0000
3003
0000
0000
,
0220
0000
0000
0000
0000
0000
0000
0330
,
0100
0010
1000
0000
0001
1000
0100
0000
0000
1100
0000
0000
,
0011
0000
0000
0001
0001
0001
1000
0000
0010
0000
0000
0000
,
0100
0001
0010
0000
0100
1000
0001
0000
0000
1001
0000
0000
,
0110
0000
0000
0100
0100
0100
0010
0000
1000
0000
0001
0010
,
0000
1000
0000
0010
0000
0000
0000
0010
0000
0100
0000
0000
,
0000
0000
1000
0100
0001
1000
0010
0000
0000
0000
0000
0000
,
0100
0000
0001
0000
0010
0000
0100
0000
0010
0000
0001
0000
,
2000
0000
0000
3000
,
0001
0000
0000
0100
0000
0010
1000
0000
0000
1001
0000
0000
,
0000
0000
0001
0100
0010
0100
0001
0000
1000
0000
0100
0010
,
0001
0000
0010
0000
0100
1000
0010
0000
0000
1001
0000
0000
,
0000
0000
1000
0100
0010
0100
1000
0000
0001
0000
1000
0010
,
0100
0000
0001
0000
0010
0100
1000
0000
0000
1100
0000
0000
,
0101
0000
0000
0100
0100
0100
0010
0000
1000
0000
0000
0000
,
0001
0000
0000
1000
0000
0010
1000
0000
0001
0000
0100
0000
,
0020
0000
0000
0030
,
0100
0000
0000
1000
0000
0100
0010
0000
0000
0001
0000
0000
,
0000
0000
0000
1000
0000
1000
0000
0010
1000
0001
0100
0010
,
1000
0100
0010
0000
0100
1000
0001
0000
0001
0010
0100
1000
,
0100
1000
0001
0100
0000
0010
0000
0100
0010
1000
0001
1000
,
0010
1000
0001
1001
0000
0001
0000
0010
0000
0011
0000
0010
,
0000
0100
0000
1000
0001
0010
0001
1000
0010
1000
0001
0100
,
0001
0010
0100
1000
0100
0001
0100
0010
0001
0100
1000
0100
,
0010
1000
0001
1000
0000
1000
0000
0001
0001
1000
0000
0001
,
0000
1000
0001
0011
0000
0010
0000
0100
0000
1100
0000
1000
,
0000
0001
0000
0101
0000
1100
0000
0101
0000
2100
0000
0100
,
0000
3100
1000
1100
0000
0011
0000
1100
0000
0021
0000
0001
,
0000
0031
0010
0021
0000
0000
0000
0000
0000
0200
0000
0000
,
0000
0000
0000
0330
0000
0000
0010
0000
0001
0000
1000
0000
0001
0000
0000
0000
0000
0000
0001
0000
0000
0000
0010
0000
,
0000
0100
0000
1100
0000
0110
0000
0011
0000
1002
0000
1000
,
0000
1003
0000
0011
0000
1100
0000
0110
0000
2001
0000
0001
,
0000
3001
0000
0220
0000
0000
0000
0000
0000
0000
0000
0000
,
0000
0330
0000
0010
1000
0001
0000
0001
0010
0100
0000
0000
,
1100
0000
0000
1001
0000
0000
1000
1000
1000
0001
0000
0100
,
0000
0000
0000
0010
1000
0100
0000
0010
0001
1000
0000
0000
,
1001
0000
0000
0110
0000
0000
0010
0010
0010
0100
0000
0001
,
0000
1000
0100
0000
0001
0000
0100
0000
0000
0000
1000
0000
,
0001
0000
0000
0000
0000
1000
0001
1000
0100
0010
0000
0000
,
0000
0000
0000
0100
0000
1000
0000
0100
0010
0001
0000
0100
,
0000
1000
0000
0200
0000
0000
0000
0000
0000
0000
0000
0000
,
0300
0000
0000
0010
0000
0000
1000
0000
0001
0100
0000
0000
,
1001
0000
0000
0000
0000
1000
0010
0100
0010
1000
0000
0001
,
0000
0010
0100
1000
0000
0100
0000
0010
0001
0100
0000
0000
,
1001
0000
0000
0000
0000
0001
0010
0100
0010
0001
0000
1000
,
0000
0001
0100
0010
0000
1000
0000
0100
0010
0001
0000
0000
,
0011
0000
0000
1010
0000
0000
0010
0010
0010
0100
0000
0001
,
0000
0000
0000
1000
0000
0000
0001
0000
0100
0001
0000
1000
,
0000
0010
0000
0200
0000
0000
0000
0000
0000
0000
0000
0000
,
0300
0000
0000
0010
0000
0000
0001
0000
0010
0010
0000
0000
,
1000
2002
3003
0000
;

//---------------dance-single - ----------------
#NOTES:
     dance-single:
     :
     Medium:
     5:
     0.248146,0.286828,0.138670,0.189759,0.120424,238.000000,219.000000,19.000000,26.000000,0.000000,0.000000,0.248146,0.286828,0.138670,0.189759,0.120424,238.000000,219.000000,19.000000,26.000000,0.000000,0.000000:
0000
0000
0000
0000
,
0001
0000
1000
0001
,
0100
0000
0001
0001
,
1000
0100
1000
0010
,
0100
0000
0100
0000
0010
0000
1000
0000
0001
0000
0000
0000
,
1000
0100
1000
0010
,
0100
0100
0010
1000
,
0001
0010
0001
1000
,
0001
0000
0100
0000
0010
0000
1000
0000
0001
0000
0000
0000
,
1000
0000
0100
0000
1000
0000
0200
0000
0000
0300
0000
0000
,
0010
0000
0001
0000
0010
0000
0002
0000
0000
0003
0000
0000
,
2000
0000
0002
3003
,
0001
0100
1000
0100
,
0010
0000
1000
0000
0010
0000
2000
0000
0000
3000
0000
0000
,
0001
0000
0100
0000
0001
0000
0200
0000
0000
0300
0000
0000
,
2002
0000
0000
0000
,
3003
0000
0000
0010
,
1001
0001
1000
0100
,
1000
0010
0001
0010
,
0101
0001
0001
1000
,
0100
0000
1000
0000
,
0010
0100
0002
0003
,
1000
1000
0001
0001
,
0020
0000
0000
0030
,
0100
1000
0010
0100
,
0001
1000
0100
1000
,
0001
0100
0010
1001
,
0001
1000
0010
1000
,
0001
0100
0001
0011
,
1100
0200
1300
0000
,
0100
1000
0100
0010
,
0002
0000
0000
0003
,
0011
0011
1100
1100
,
0000
1000
0001
0100
,
0001
0010
0001
1000
,
0100
1000
0010
0100
,
0001
0000
0000
1000
0000
0100
0000
0010
0000
0100
0000
1000
,
0000
0001
0000
1000
0000
0000
1000
0000
0000
0001
0000
0000
,
0001
0100
0001
0010
,
0100
0000
0000
1000
0000
0100
0000
1000
0100
1000
0000
0100
,
0000
0000
0000
1000
0000
0100
0000
0010
0000
0001
0000
0010
,
0000
0000
0000
0001
0000
0100
0000
0010
0000
2000
0000
0000
,
3000
0000
0000
0001
0000
0100
0000
0010
0000
0200
0000
0000
,
0300
0020
0000
2000
,
3030
1000
0101
0010
,
1100
0000
0000
1000
0000
0100
0000
0001
0000
0200
0000
0000
,
0300
0000
0000
0010
0000
0001
0000
0010
0000
2000
0000
0000
,
3000
2002
0000
0000
,
0000
3003
0000
0000
,
0010
1001
0001
0001
,
0000
1000
0100
1000
,
0010
0101
0001
0001
,
0000
1000
0001
0000
,
0100
0000
0010
0200
,
0300
0001
0100
0001
,
1000
0200
0000
0000
,
0300
0010
0010
0100
,
0010
0001
1000
0100
,
0000
1000
0000
0010
,
1001
0000
0001
1000
,
0000
0100
0000
1000
,
0101
1010
2000
3010
,
0000
0100
0100
0001
,
1000
0002
0000
0000
,
0003
1000
0100
1000
,
0010
2002
3003
0000
;

//---------------dance-single - ----------------
#NOTES:
     dance-single:
     :
     Easy:
     3:
     0.204356,0.239023,0.182460,0.153267,0.000000,196.000000,171.000000,25.000000,21.000000,0.000000,0.000000,0.204356,0.239023,0.182460,0.153267,0.000000,196.000000,171.000000,25.000000,21.000000,0.000000,0.000000:
1001
0000
1000
1000
,
1001
0000
0001
1000
,
0100
0000
1000
1000
,
0001
0000
0100
0000
,
0002
0000
0000
0000
0000
0000
0000
0003
,
0000
1000
0001
0000
,
0100
0000
0001
1000
,
0010
0000
0100
0000
,
0020
0000
0030
0000
,
0100
0100
0002
0003
,
1000
1000
0200
0300
,
1001
0000
0110
0000
,
0100
0001
0100
0100
,
0010
0000
1001
0000
,
1000
0000
0101
0000
,
2002
0000
0000
0000
,
3003
0000
0000
0110
,
1001
1000
0100
0000
,
1000
0000
0001
1001
,
0110
0010
0010
0000
,
0100
0000
0001
0000
,
1000
0001
0020
0030
,
0100
0000
0010
0000
,
0002
0000
0000
0003
,
0001
0100
0010
1000
,
0100
1000
1000
0000
,
0001
0000
0100
0110
,
0000
0010
0000
0100
,
0000
0001
1000
1001
,
1001
0002
0003
0000
,
0100
0001
0010
0001
,
2000
0000
0000
3000
,
0001
0010
0100
1000
,
1001
1000
0000
0001
,
0100
0001
1000
0100
,
1000
0001
0000
1000
,
0001
0200
0000
0000
,
0000
0300
0010
0000
1000
0000
0001
0000
,
0001
1000
0100
1000
,
0010
0110
0000
0110
,
0000
0100
0010
1000
,
0000
0001
1000
1001
,
0000
0100
0010
0110
,
0000
2002
0000
0000
,
3003
0001
0010
0100
,
1000
0100
0100
2000
,
3000
0001
0001
0200
,
0300
2002
0000
0000
,
0000
3003
0000
0000
,
0100
1001
0001
1000
,
0000
0010
0000
0100
,
0001
0010
0100
0100
,
0010
0000
0100
0000
,
1000
0000
0001
0020
,
0030
0001
0100
0001
,
1000
0200
0000
0000
,
0300
0100
0010
0001
,
1001
0000
1000
0001
,
0000
0100
0000
0001
,
1001
0000
1000
0100
,
0000
1000
0000
0010
,
0100
1001
1000
1000
,
0000
0001
0100
0001
,
0010
0002
0000
0000
,
0003
1000
0100
0001
,
0010
2000
3000
0000
;

//---------------dance-single - ----------------
#NOTES:
     dance-single:
     :
     Beginner:
     1:
     0.128244,0.190489,0.087581,0.065686,0.000000,123.000000,111.000000,12.000000,9.000000,0.000000,0.000000,0.128244,0.190489,0.087581,0.065686,0.000000,123.000000,111.000000,12.000000,9.000000,0.000000,0.000000:
// measure 0
0000
0000
0000
0000
,  // measure 1
1000
0000
0000
0000
,  // measure 2
0001
0000
0000
0000
,  // measure 3
1000
0000
0000
0000
,  // measure 4
0010
0000
0010
0000
,  // measure 5
0100
0000
0000
0000
,  // measure 6
0001
0000
0001
0000
,  // measure 7
1000
0000
0000
0000
,  // measure 8
1000
0000
0010
0000
,  // measure 9
0100
0100
0100
0000
,  // measure 10
0010
0010
0010
0000
,  // measure 11
1001
0000
0000
0000
,  // measure 12
1000
0000
0001
0000
,  // measure 13
0010
0010
0010
0000
,  // measure 14
0100
0100
0100
0000
,  // measure 15
1001
0000
0000
0000
,  // measure 16
0000
0000
0000
0010
,  // measure 17
1001
0000
0000
0000
,  // measure 18
1000
0000
0001
1000
,  // measure 19
1001
0000
0000
0000
,  // measure 20
0010
0000
0100
0000
,  // measure 21
0001
1000
1000
0000
,  // measure 22
0010
0000
0100
0000
,  // measure 23
0001
0000
0000
0000
,  // measure 24
1000
0000
0001
0000
,  // measure 25
0100
0000
0000
0000
,  // measure 26
0010
0000
0000
1000
,  // measure 27
0000
0001
0000
0000
,  // measure 28
0001
0000
1000
0010
,  // measure 29
1001
0000
0000
0000
,  // measure 30
1000
0000
0100
0000
,  // measure 31
1000
0000
0000
0000
,  // measure 32
0010
0000
0100
0000
,  // measure 33
1001
0001
0000
0000
,  // measure 34
0000
1000
0000
0000
,  // measure 35
0000
0010
0000
0000
,  // measure 36
0000
0100
0000
0010
,  // measure 37
0000
1000
0000
0001
,  // measure 38
0000
0100
0000
0100
,  // measure 39
0000
0010
0000
0010
,  // measure 40
0000
1001
0000
0000
,  // measure 41
0000
2000
0000
0000
,  // measure 42
3000
0002
0000
0000
,  // measure 43
0003
0020
0000
0000
,  // measure 44
0030
0100
0000
0010
,  // measure 45
0000
0200
0000
0000
,  // measure 46
0300
2000
0000
0000
,  // measure 47
3000
2002
0000
0000
,  // measure 48
3003
0000
0000
0000
,  // measure 49
0100
1001
0000
0000
,  // measure 50
0000
0001
0000
1000
,  // measure 51
0010
1001
0000
0000
,  // measure 52
0000
0100
0000
0000
,  // measure 53
0010
1000
0000
0001
,  // measure 54
0000
1000
0000
0001
,  // measure 55
0000
0200
0000
0000
,  // measure 56
0300
0010
0000
0100
,  // measure 57
0000
0010
0000
0000
,  // measure 58
0000
1000
0000
0001
,  // measure 59
1000
0000
0010
0000
,  // measure 60
0000
0100
0000
0010
,  // measure 61
0100
1001
0001
0001
,  // measure 62
0000
1000
0000
0010
,  // measure 63
0000
0200
0000
0000
,  // measure 64
0300
0010
0100
0010
,  // measure 65
0010
1001
0000
0000
;
