#VERSION:0.83;
#TITLE:Blue Sky;
#SUBTITLE:;
#ARTIST:Sota F.;
#TITLETRANSLIT:;
#SUBTITLETRANSLIT:;
#ARTISTTRANSLIT:;
#GENRE:;
#ORIGIN:;
#CREDIT:;
#BANNER:Blue Sky.png;
#BACKGROUND:Blue Sky-bg.png;
#PREVIEWVID:;
#JACKET:Blue_Sky.png;
#CDIMAGE:;
#DISCIMAGE:;
#LYRICSPATH:;
#CDTITLE:CDtitle.png;
#MUSIC:Blue Sky.ogg;
#OFFSET:1.582000;
#SAMPLESTART:13.630269;
#SAMPLELENGTH:13.521127;
#SELECTABLE:YES;
#BPMS:0.000=142.000;
#STOPS:;
#DELAYS:;
#WARPS:;
#TIMESIGNATURES:0.000=4=4;
#TICKCOUNTS:0.000=4;
#COMBOS:0.000=1;
#SPEEDS:0.000=1.000=0.000=0;
#SCROLLS:0.000=1.000;
#FAKES:;
#LABELS:0.000=Song Start;
#BGCHANGES:;
#KEYSOUNDS:;
#ATTACKS:
;

//---------------dance-single - ----------------
#NOTEDATA:;
#CHARTNAME:;
#STEPSTYPE:dance-single;
#DESCRIPTION:;
#CHARTSTYLE:;
#DIFFICULTY:Hard;
#METER:7;
#RADARVALUES:0.408687,0.435511,0.116585,0.098649,0.340786,319.000000,306.000000,13.000000,11.000000,0.000000,0.000000,0.000000,0.000000,0.000000,0.408687,0.435511,0.116585,0.098649,0.340786,319.000000,306.000000,13.000000,11.000000,0.000000,0.000000,0.000000,0.000000,0.000000;
#CREDIT:;
#NOTES:
0000
0000
0000
0000
,
0000
0000
0000
0000
,
0000
0000
0000
0000
,
0000
0000
0000
0000
,
0000
0000
0000
0000
,
1000
0100
0000
1000
,
0000
0000
0001
0000
0000
0100
0010
1000
,
0001
0000
0010
0000
0000
0001
1000
0010
,
0200
0000
0000
0300
,
0010
0000
0000
1000
0000
0000
0001
0000
0100
0000
0000
0000
0010
1000
0000
0000
,
0100
0000
0000
0100
0000
0000
0010
0000
0001
0000
0010
0000
0100
0000
1000
0000
,
0001
0000
0000
0001
0000
0000
1000
0000
0010
0000
0000
0000
0100
0001
0000
0000
,
0010
0000
0000
0010
0000
0000
0100
0000
0010
0000
0001
0000
1000
0000
0010
0000
,
0100
0000
0000
0010
0000
0000
1000
0000
0001
0000
0000
0000
0010
0100
0000
0000
,
0010
0000
0000
0001
0000
0000
1000
0000
0100
0000
1000
0000
0001
0000
0100
0000
,
0010
0000
0000
1000
0000
0000
0010
0000
0100
0000
0000
0000
0001
0010
0000
0000
,
0200
0000
0000
0300
,
1000
0000
0000
0000
0010
0000
0000
0000
0000
0100
0000
0010
0000
0000
0000
0000
,
1000
0000
0000
0000
0001
0000
0000
0000
0000
0010
0000
0100
0000
0000
0000
0000
,
1000
0000
0000
0000
0001
0000
0000
0000
0000
0100
0000
0010
0000
0000
0000
0000
,
0100
0000
0000
0000
0001
0000
0000
0000
0000
0010
0000
0100
0000
0000
0000
0000
,
1000
0000
0000
0000
0100
0000
0000
0000
0000
0010
0000
0001
0000
0000
0000
0000
,
0001
0000
0000
0000
0010
0000
0000
0000
0000
0100
0000
1000
0000
0000
0000
0000
,
0001
0000
0000
0000
1000
0000
0000
0000
0000
0010
0000
0100
0000
0000
0000
0000
,
0001
0000
0000
0000
0000
0000
0000
0000
1010
0000
0000
0101
0000
0000
0001
0000
,
0010
0000
0000
0100
0000
0100
0000
0000
1100
0000
0000
0000
0000
0000
0000
0000
,
1000
0000
0000
0001
0000
0001
0000
0000
0011
0000
0000
0000
0000
0000
0000
0000
,
0001
0000
0000
1000
0000
1000
0000
0000
1010
0000
0000
0000
0000
0000
0000
0000
,
1000
0000
0000
0100
0000
0100
0000
0000
0110
0000
0000
0000
0000
0000
0000
0000
,
0100
0000
0000
1000
0000
1000
0000
0000
0101
0000
0000
0000
0000
0000
0000
0000
,
0001
0000
0000
0010
0000
0010
0000
0000
0110
0000
0000
0000
0000
0000
0000
0000
,
0100
0000
0000
1000
0000
1000
0000
0000
0011
0000
0000
0000
0000
0000
0000
0000
,
0001
0000
0000
1000
0000
1000
0000
0000
0001
0000
0000
1010
0000
0000
0000
0000
,
1000
0000
0000
0010
0000
0000
1000
0000
0001
0000
0000
0100
0000
0000
0001
0000
,
1000
0000
0000
1000
0000
0000
0001
0000
0000
0010
0000
0000
0001
0000
0010
0000
,
0100
0000
0000
0010
0000
0000
0001
0000
0100
0000
0000
0010
0000
0000
1000
0000
,
0001
0000
0000
1000
0000
0000
0010
0000
0000
1000
0000
0000
0001
0000
0000
0000
,
0100
0000
0000
0000
1001
0000
0000
0000
1000
0000
0000
0001
0000
0000
1000
0000
,
0100
0000
0000
0010
0000
0000
0100
0000
0000
1000
0000
0000
0001
0000
1000
0000
,
0010
0000
0000
1000
0000
0000
0001
0000
0100
0000
0000
0010
0000
0000
1000
0000
,
0200
0000
0000
0000
0010
0010
0310
0000
,
0100
0000
1000
0000
0000
0000
0001
0000
1000
0000
0000
1000
0000
0000
0001
0000
,
1000
0000
0010
0000
0000
0000
1000
0000
0010
0000
0000
0010
0000
0000
0100
0000
,
0001
0000
1000
0000
0000
0000
0001
0000
1000
0000
0000
0100
0000
0000
1000
0000
,
0010
0100
0000
0010
0100
0001
0010
0001
,
0100
0000
0001
0000
0000
0000
0100
0000
0001
0000
0000
1000
0000
0000
0100
0000
,
0010
0000
0001
0000
0000
0000
0010
0000
0001
0000
0000
1000
0000
0000
0100
0000
,
1000
0000
0010
0000
0000
0000
1000
0000
0010
0000
0000
0100
0000
0000
0001
0000
,
1000
0100
0000
1000
0100
0000
1001
0000
,
0001
0000
0000
0001
0000
0000
1000
0000
0000
1000
0000
0000
0001
0000
1000
0000
,
0010
0000
0000
0010
0000
0000
0100
0000
0000
0100
0000
0000
0010
0000
1000
0000
,
0100
0000
0000
0100
0000
0000
0010
0000
0000
0010
0000
0000
0001
0000
0010
0000
,
0100
0000
0000
0100
0000
0000
0010
0000
0000
0010
0000
0000
0001
0000
0010
0000
,
1000
0000
0000
0010
0000
0000
1000
0000
0000
0010
0000
0000
0100
0000
0010
0000
,
0001
0000
0000
1000
0000
0000
0001
0000
0000
1000
0000
0000
0001
0000
1000
0000
,
0010
0000
0000
0100
0000
0000
0001
0000
0000
0100
0000
0000
0010
0000
0100
0000
,
0010
1000
0100
0010
0001
0001
0001
0000
,
2000
3010
0200
0301
,
1000
0001
0100
0000
0001
1000
0010
0000
,
2000
3100
0020
0031
,
0002
0000
0103
0000
0010
1000
0100
0000
,
0010
0001
0010
0000
0100
1000
0100
0000
,
1000
0001
0100
0000
0020
0000
1000
0000
,
0130
0001
0010
0000
0100
1000
0010
0000
,
0200
0000
0320
0000
1030
0001
1001
0000
;

//---------------dance-single - ----------------
#NOTEDATA:;
#CHARTNAME:;
#STEPSTYPE:dance-single;
#DESCRIPTION:;
#CHARTSTYLE:;
#DIFFICULTY:Medium;
#METER:5;
#RADARVALUES:0.348473,0.408046,0.098649,0.269041,0.008968,272.000000,261.000000,11.000000,30.000000,0.000000,0.000000,0.000000,0.000000,0.000000,0.348473,0.408046,0.098649,0.269041,0.008968,272.000000,261.000000,11.000000,30.000000,0.000000,0.000000,0.000000,0.000000,0.000000;
#CREDIT:;
#NOTES:
0000
0000
0000
0000
,
0000
0000
0000
0000
,
0000
0000
0000
0000
,
0000
0000
0000
0000
,
0000
0000
0000
0000
,
1000
0001
0010
0001
,
1000
0100
1000
0010
,
1000
0001
1000
0100
,
0020
0000
0000
0030
,
0100
0010
0001
0101
,
0001
0100
0010
1100
,
1000
0010
0100
1001
,
1000
0010
1000
1100
,
0100
0010
0001
0101
,
0001
1000
0010
0110
,
0010
1000
0100
0110
,
0002
0000
0000
0003
,
1000
0000
0001
0000
0100
0001
0100
0000
,
0001
0000
0100
0000
0010
0100
0010
0000
,
0100
0000
0010
0000
1000
0010
1000
0000
,
0100
0000
1000
0000
0010
0100
0010
0000
,
0100
0000
0010
0000
1000
0001
0100
0000
,
0001
0000
1000
0000
0010
1000
0100
0000
,
0010
0000
0100
0000
1000
0100
0010
0000
,
0001
0000
0000
0000
0010
0000
0100
0000
1000
0000
0000
0001
0000
0000
1000
0000
,
0002
0203
0310
0000
,
0200
0320
1030
0000
,
2000
3002
0103
0000
,
0002
2003
3010
0000
,
0200
0320
1030
0000
,
0200
0320
0031
0000
,
0020
0032
0103
0000
,
0200
0000
0000
0000
0320
0000
0000
0000
1030
0000
0000
1010
0000
0000
0000
0000
,
2000
3010
0200
0301
,
0001
0010
1000
0010
,
0200
0310
0020
0031
,
0001
0100
1000
0100
,
0100
0010
1001
0000
2000
0000
3010
0000
,
0100
0001
0010
1000
,
0020
0130
0200
1300
,
1000
0100
0001
0100
,
0010
0001
0000
0001
0100
0000
0010
0000
,
1000
0001
0000
1000
0001
0000
0100
0000
,
0010
1000
0000
0010
1000
0000
0100
0000
,
0010
0001
0000
0010
0001
0000
0010
0000
,
0100
1000
0000
0100
0010
0000
0001
0000
,
1000
0001
0000
0001
0100
0000
0010
0000
,
1000
0010
0000
0010
0100
0000
0001
0000
,
1000
0100
0000
0100
0010
0000
0001
0000
,
0011
0000
0001
0000
0100
0000
0010
1000
,
0100
0000
1000
0000
0010
0000
0100
0001
,
0010
0000
0001
0000
1000
0000
0100
1000
,
0010
0000
0100
0000
0001
0000
1000
0001
,
1000
0000
0001
0000
0010
0000
0100
0010
,
0001
0000
0010
0000
1000
0000
0010
0100
,
1000
0000
0010
0000
0001
0000
0010
0100
,
0002
0000
0000
0000
,
1003
0001
0100
0000
0001
1000
0100
0000
,
1000
0010
0100
0001
,
0010
0100
1000
0000
1000
0100
0010
0000
,
0100
1000
0010
1001
,
0001
0100
0010
0000
0100
0010
1000
0000
,
0010
0000
0100
0000
0200
0320
2030
0000
,
3001
1000
0100
0000
0010
0001
0100
0000
,
0010
1000
0001
0010
0100
1000
0020
0000
,
0030
0000
0000
0000
;

//---------------dance-single - ----------------
#NOTEDATA:;
#CHARTNAME:;
#STEPSTYPE:dance-single;
#DESCRIPTION:;
#CHARTSTYLE:;
#DIFFICULTY:Easy;
#METER:3;
#RADARVALUES:0.222920,0.290341,0.044840,0.017936,0.000000,174.000000,169.000000,5.000000,2.000000,0.000000,0.000000,0.000000,0.000000,0.000000,0.222920,0.290341,0.044840,0.017936,0.000000,174.000000,169.000000,5.000000,2.000000,0.000000,0.000000,0.000000,0.000000,0.000000;
#CREDIT:;
#NOTES:
0000
0000
0000
0000
,
0000
0000
0000
0000
,
0000
0000
0000
0000
,
0000
0000
0000
0000
,
0000
0000
0000
0000
,
1000
0000
0000
0000
,
0001
0000
0000
0100
,
0000
0000
0000
0010
,
2000
0000
0000
3000
,
0001
1000
0001
0000
,
0100
0010
0100
0000
,
0010
1000
0010
0000
,
0100
0001
0010
0001
,
1000
0100
1000
0000
,
0100
0010
0100
0000
,
0010
0001
0010
0000
,
0002
0000
0000
0000
,
1003
0001
0100
0000
,
0001
1000
0100
0000
,
1000
0001
0010
0000
,
0001
1000
0010
0000
,
1000
0010
0100
0000
,
0010
0100
0001
0000
,
0010
0100
1000
0000
,
0100
1000
1001
0110
,
1000
1000
0010
0000
,
0100
0100
0001
0000
,
1000
1000
0001
0000
,
0010
0010
0100
0000
,
0100
0100
1000
0000
,
0001
0001
0100
0000
,
0010
0010
1000
0000
,
0100
0100
0010
0000
,
0100
0000
1000
0000
,
0001
1000
0001
0100
,
0010
0000
1000
0000
,
0100
1000
0010
0100
,
0000
1001
0000
1000
,
0001
0000
0100
0000
,
0010
0000
1000
0000
,
0100
0000
0000
0000
,
1000
0000
0001
1000
,
0010
0000
0100
0001
,
0010
0000
0001
1000
,
0100
0000
1000
0001
,
0100
0000
0010
0100
,
0001
0000
1000
0100
,
1000
0000
0010
0100
,
0001
0000
1000
0001
,
0100
0010
0100
0100
,
0010
1000
0010
0010
,
1000
0001
1000
1000
,
0100
0010
0100
0010
,
0001
1000
0001
0001
,
0100
0001
0010
0010
,
0100
0010
0001
1000
,
0010
0100
0001
1000
,
0001
0000
1000
0000
,
0010
0000
1000
0000
,
0100
0000
1000
0000
,
0001
0000
0100
0000
,
0010
0000
1000
0000
,
0001
0000
0000
1001
,
0001
0000
1000
0000
,
0010
0000
0100
1001
;

//---------------dance-single - ----------------
#NOTEDATA:;
#CHARTNAME:;
#STEPSTYPE:dance-single;
#DESCRIPTION:;
#CHARTSTYLE:;
#DIFFICULTY:Beginner;
#METER:1;
#RADARVALUES:0.083275,0.174204,0.035872,0.000000,0.000000,65.000000,61.000000,4.000000,0.000000,0.000000,0.000000,0.000000,0.000000,0.000000,0.083275,0.174204,0.035872,0.000000,0.000000,65.000000,61.000000,4.000000,0.000000,0.000000,0.000000,0.000000,0.000000,0.000000;
#CREDIT:;
#NOTES:
0000
0000
0000
0000
,
0000
0000
0000
0000
,
0000
0000
0000
0000
,
0000
0000
0000
0000
,
0000
0000
0000
0000
,
0000
0000
0000
0000
,
0000
0000
0000
0000
,
0000
0000
0000
0000
,
0000
0000
0000
0000
,
1000
0000
0000
0000
,
0001
0000
0000
0000
,
1000
0000
0000
0000
,
0010
0000
0000
0000
,
0100
0000
0000
0000
,
0010
0000
0000
0000
,
0100
0000
0000
0000
,
1001
0000
0000
0000
,
0001
0000
0000
0000
,
0001
0000
0000
0000
,
0001
0000
0000
0000
,
0001
0000
0000
0000
,
1000
0000
0000
0000
,
1000
0000
0000
0000
,
1000
0000
0000
0000
,
1000
0000
0010
0000
,
0100
0000
0000
0000
,
0010
0000
0000
0000
,
1000
0000
0000
0000
,
0001
0000
0000
0000
,
0100
0000
0000
0000
,
0010
0000
0000
0000
,
0001
0000
0000
0000
,
1000
0000
0001
0000
,
0100
0000
0000
0000
,
0001
0000
0000
0000
,
1000
0000
0000
0000
,
0010
0000
0000
0000
,
0000
1001
0000
0000
,
0001
0000
0000
0000
,
1000
0000
0000
0000
,
0010
0000
0000
0000
,
0100
0000
0000
0000
,
0010
0000
0000
0000
,
1000
0000
0000
0000
,
0001
0000
0000
0000
,
1000
0000
0000
0000
,
0010
0000
0000
0000
,
0100
0000
0000
0000
,
0001
0000
0000
0000
,
1000
0000
0000
0000
,
0001
0000
0000
0000
,
1000
0000
0000
0000
,
0010
0000
0000
0000
,
0100
0000
0000
0000
,
0001
0000
0000
0000
,
1000
0000
0000
0000
,
0001
0000
1000
0000
,
0010
0000
0000
0000
,
0100
0000
0000
0000
,
0001
0000
0000
0000
,
1000
0000
0000
0000
,
0100
0000
0000
0000
,
1000
0000
0000
1001
,
0001
0000
0000
0000
,
0100
0000
0000
1001
;

//---------------dance-single - ----------------
#NOTEDATA:;
#CHARTNAME:;
#STEPSTYPE:dance-single;
#DESCRIPTION:;
#CHARTSTYLE:;
#DIFFICULTY:Challenge;
#METER:9;
#RADARVALUES:0.676447,0.932677,0.179361,0.197297,0.883353,528.000000,508.000000,20.000000,22.000000,0.000000,0.000000,0.000000,0.000000,0.000000,0.676447,0.932677,0.179361,0.197297,0.883353,528.000000,508.000000,20.000000,22.000000,0.000000,0.000000,0.000000,0.000000,0.000000;
#CREDIT:;
#NOTES:
// measure 0
0000
0000
0000
0000
,  // measure 1
0000
0000
0000
0000
,  // measure 2
0000
0000
0000
0000
,  // measure 3
0000
0000
0000
0000
,  // measure 4
0000
0000
0000
0000
,  // measure 5
0001
1000
0001
0000
1000
0000
0010
1000
0000
1000
0000
0000
0001
0000
0000
0000
,  // measure 6
1000
0001
1000
0000
0001
0000
0010
0001
0000
0001
0100
0000
1000
0000
0200
0000
,  // measure 7
0000
0000
0000
0000
0000
0310
1000
0001
,  // measure 8
0010
0000
0100
0000
1000
0100
1000
0100
0010
0001
0100
0010
1000
0000
0000
0000
,  // measure 9
1001
0000
0001
0100
0000
0100
0010
0000
1000
0000
0001
0000
0010
0100
0000
0010
,  // measure 10
0001
0000
0001
0100
0000
0100
0010
0000
0100
0000
0001
0000
1000
0010
1000
0000
,  // measure 11
0001
0000
1000
0010
0000
0010
0100
0000
0001
0000
1000
0000
0100
1000
0000
1000
,  // measure 12
0001
0000
0100
0001
0000
0001
0010
0000
0100
0000
0010
0000
0001
1000
0001
0000
,  // measure 13
1100
0000
1000
0010
0000
0010
0100
0000
0010
0000
1000
0000
0100
0010
0000
0100
,  // measure 14
1000
0000
0010
0001
0000
0100
0010
0000
1000
0000
0010
0000
0100
0001
0100
0000
,  // measure 15
0010
0000
1000
0100
0000
0010
0100
0000
1000
0000
0001
0000
0010
0100
0000
0100
,  // measure 16
0010
0000
0001
0100
0000
0010
1000
0000
0001
0000
1000
0000
0010
1000
0010
0000
,  // measure 17
1000
0000
0100
0000
0010
0000
0100
0000
1000
0001
0000
0001
0000
0000
0010
0000
,  // measure 18
0001
0000
0010
0000
0100
0000
0010
0000
0001
1000
0000
1000
0000
1000
0001
0000
,  // measure 19
1000
0000
0100
0000
0010
0000
0100
0000
1000
0001
0000
0001
0000
0000
0010
0000
,  // measure 20
0001
0000
0010
0000
0100
0000
0010
0000
0001
1000
0000
1000
0000
0001
1000
0000
,  // measure 21
0010
0000
0100
0000
0001
0000
0010
0000
0100
0010
0000
0010
0000
0000
0100
0000
,  // measure 22
1000
0000
0010
0000
0100
0000
0010
0000
1000
0010
0000
0010
0000
0010
0100
0000
,  // measure 23
0001
0000
1000
0000
0100
0000
1000
0000
0001
0100
0000
0100
0000
0000
0010
0000
,  // measure 24
1000
0000
0001
0000
0010
0100
0010
0000
0110
0000
0000
0011
0000
0000
1100
0000
,  // measure 25
1002
0000
0000
0100
0000
0100
0000
0000
0013
0000
0000
0000
0000
0000
0000
0000
,  // measure 26
2001
0000
0000
0010
0000
0010
0000
0000
3100
0000
0000
0000
0000
0000
0000
0000
,  // measure 27
1002
0000
0000
0100
0000
0100
0000
0000
0013
0000
0000
0000
0000
0000
0000
0000
,  // measure 28
2001
0000
0000
0010
0000
0010
0000
0000
3100
0000
0000
0000
0000
0000
0000
0000
,  // measure 29
1020
0000
0000
0100
0000
0100
0000
0000
0031
0000
0000
0000
0000
0000
0000
0000
,  // measure 30
0021
0000
0000
0100
0000
0100
0000
0000
1030
0000
0000
0000
0000
0000
0000
0000
,  // measure 31
1200
0000
0000
1000
0000
1000
0000
0000
0301
0000
0000
0000
0000
0000
0000
0000
,  // measure 32
0201
0000
0000
1000
0000
1000
0000
0000
0310
0000
0000
1001
0000
0000
0000
0000
,  // measure 33
0001
0000
0000
0010
0000
0000
0100
0000
0010
0001
0000
1000
0000
0010
0100
0000
,  // measure 34
0001
0000
1000
0010
0000
0100
0001
0000
1000
0010
0000
0100
0001
0000
0010
0000
,  // measure 35
0100
0000
0010
0001
0000
0000
0100
0000
0010
1000
0000
0001
0000
0010
0100
0000
,  // measure 36
0010
0000
0010
0001
0000
1000
0100
0000
0010
0001
0000
1000
0100
0000
0000
0000
,  // measure 37
1000
0000
0001
0000
1000
0000
0001
0000
0000
1000
0000
0000
0001
0000
0000
0000
0000
0000
0100
0000
0000
0000
0000
0000
0001
0000
0000
0010
0000
0000
0000
0000
0000
0001
0000
0000
0000
0000
0000
1000
0000
0000
0100
0000
0000
0000
0000
0000
,  // measure 38
1000
0000
0001
0100
0000
0010
1000
0000
0001
0100
0000
0010
1000
0000
0100
0000
,  // measure 39
0010
0000
0100
1000
0000
0000
0010
0000
0100
0001
0000
1000
0000
0001
0010
0000
,  // measure 40
0100
0000
0000
0010
0000
0000
0001
0000
0000
0100
0000
0000
0010
0000
0000
0000
,  // measure 41
1000
0010
1000
0000
0000
0000
0001
0100
0001
0000
1000
0001
0000
0001
0010
0000
,  // measure 42
0100
0010
0100
0000
0000
0000
0100
1000
0100
0000
1000
0010
0000
0010
0100
0000
,  // measure 43
0001
0000
1000
0000
0001
0100
0000
0001
1000
0000
0001
0010
0000
0001
1000
0000
,  // measure 44
0001
0100
0001
0000
0000
0000
0100
0010
0100
0000
0010
0000
1000
0100
0010
0001
,  // measure 45
1000
0100
1000
0000
0000
0000
0100
0010
0100
0000
0010
0001
0000
0001
0100
0000
,  // measure 46
0010
1000
0010
0000
0000
0000
0100
0001
0100
0000
0001
0100
0000
0100
0010
0000
,  // measure 47
1000
0000
0010
0000
0100
0010
0000
0010
1000
0000
1000
0001
0000
0001
0010
0000
,  // measure 48
0100
1000
0100
0000
0000
0000
0100
0010
0100
0000
1000
0000
1001
0000
0000
0000
,  // measure 49
0002
0000
0000
0103
0000
0000
0200
0000
0000
0310
0000
0000
0100
0000
0001
0000
,  // measure 50
2000
0000
0000
3001
0000
0000
2000
0000
0000
3010
0000
0000
0100
0000
0001
0000
,  // measure 51
0020
0000
0000
0031
0000
0000
0020
0000
0000
0130
0000
0000
0010
0000
0100
0000
,  // measure 52
2000
0000
0000
3100
0000
0000
2000
0000
0000
3001
0000
0000
1000
0001
0100
0001
,  // measure 53
2000
0000
0000
3100
0000
0000
0020
0000
0000
0031
0000
0000
0010
0000
0001
0000
,  // measure 54
0200
0000
0000
0310
0000
0000
2000
0000
0000
3001
0000
0000
0010
0000
0001
0000
,  // measure 55
1000
0100
0001
0100
0000
0000
0010
0001
,  // measure 56
1000
0010
0001
0010
0110
0110
0110
0000
,  // measure 57
1000
0010
1000
0010
1000
0000
0000
0000
0001
0100
0001
0100
0001
0000
0000
0000
,  // measure 58
1000
0100
0010
0100
1000
0000
0000
0000
0001
0100
0010
0100
0001
0000
0000
0000
,  // measure 59
1000
0000
0001
0100
0000
0010
0000
1000
0010
0000
0100
0001
0000
0010
0000
0100
,  // measure 60
0010
0000
0001
0100
0000
0010
0000
1000
0001
0000
0010
0000
0011
0000
0000
0000
,  // measure 61
0001
0010
0100
0010
0001
0100
0010
1000
0001
0010
0001
1000
0010
0100
0001
0010
,  // measure 62
0100
0010
0001
0100
0010
1000
0001
1000
0001
0010
0100
1000
1001
0000
0000
0000
,  // measure 63
0001
0100
0010
1000
0000
1000
0000
1000
0001
0010
0100
0010
0000
0010
0000
0010
,  // measure 64
0100
0000
0000
1000
0000
0000
0100
0000
0000
1000
0000
0000
0100
0000
0000
1000
0000
0000
0100
0000
0000
1000
0000
0000
0100
0000
1000
0000
0100
0000
1000
0000
0100
0000
1000
0000
0002
0000
0000
0000
0000
0000
0000
0000
0000
0000
0000
0000
,  // measure 65
0003
0000
0000
0000
;
