#TITLE:Blue River;
#SUBTITLE:;
#ARTIST:T-BONE;
#TITLETRANSLIT:;
#SUBTITLETRANSLIT:;
#ARTISTTRANSLIT:;
#GENRE:;
#CREDIT:;
#BANNER:Blue River.png;
#BACKGROUND:Blue River-bg.png;
#LYRICSPATH:;
#CDTITLE:;
#MUSIC:Blue River.mp3;
#OFFSET:-3.976003;
#SAMPLESTART:4.859524;
#SAMPLELENGTH:14.328358;
#SELECTABLE:YES;
#BPMS:0.000000=134.000000
;
#STOPS:
;
#BGCHANGES:;
#KEYSOUNDS:;
#ATTACKS:;

//---------------dance-single - ----------------
#NOTES:
     dance-single:
     :
     Hard:
     7:
     0.410222,0.433334,0.191437,0.099880,0.066587,345.000000,322.000000,23.000000,12.000000,0.000000,0.000000,0.410222,0.433334,0.191437,0.099880,0.066587,345.000000,322.000000,23.000000,12.000000,0.000000,0.000000:
1000
0001
0100
0010
1000
0000
0100
0000
,
1000
0001
0101
0011
,
0101
0000
0001
0000
1000
0010
0100
0001
,
1000
0001
0000
0100
0010
1000
0010
1000
,
0001
0010
0100
0020
0000
0000
0000
0000
,
0031
0100
0010
1000
0100
0000
1000
0000
,
0010
0100
0101
0001
,
1001
1000
0100
0010
,
0100
1000
0100
0001
0100
0010
0100
1000
,
0001
0100
0000
0000
0010
0000
1000
0100
,
1000
0000
0001
0000
0010
0100
1000
0001
,
0101
0000
1010
0000
1001
0001
1000
0010
,
0100
0000
0000
0001
0000
0000
1000
0000
0000
0010
0000
0000
0100
0000
0000
0000
,
0001
0100
0001
2000
0000
0000
0000
0000
,
3001
0100
0010
1000
0100
0000
0010
0000
,
0100
1000
0100
0000
0010
0001
0100
0001
,
1000
0100
0010
0100
,
1000
0001
0100
0001
,
0010
0100
1000
0001
0100
0001
0000
1000
,
0000
0001
0000
1000
0000
0001
0000
1000
,
0000
0001
0000
1000
0010
0100
0000
0010
,
0000
0100
0000
0010
0000
0100
0000
0010
,
0000
0000
0100
0000
0000
0000
0010
0000
1000
0010
0000
1000
0010
0000
0000
0000
,
0001
0010
0000
0001
0010
0000
0000
0000
1000
0010
0000
0001
0010
0000
0100
0000
,
1001
0000
0000
0000
1000
0100
1000
0100
,
0010
0001
0010
0001
1000
0001
0100
0001
,
1000
0100
0010
0100
0000
0010
0001
0010
,
0000
0100
1000
0001
0100
0001
1000
0100
,
0000
0010
0100
0010
0001
0100
1000
0100
,
0020
0000
0000
0000
1030
0100
1000
0001
,
0100
0000
0000
0010
0000
0000
0000
0000
1000
0000
0001
0000
1000
0000
0001
0000
,
0100
0010
0100
0010
2000
0000
0000
0000
,
3000
0000
0001
0000
0010
0000
0001
0000
1000
0000
0010
0000
0100
0000
0001
0010
,
0000
0100
1000
0000
0010
0000
0200
0000
0000
0000
0310
0000
1000
0000
0000
0001
,
0000
2000
0000
3000
0000
0100
0001
0100
,
0010
0001
1000
0001
0000
1000
0010
1000
,
0100
0000
0000
2000
0000
0000
0000
0000
3001
0000
0100
0000
1000
0000
0100
0000
,
0001
0100
1000
0100
0001
0010
1000
0010
,
0001
0010
1000
0010
0002
0000
0000
0013
,
0100
1000
0010
0100
0001
0010
0100
2002
,
0000
0000
0000
0000
0000
3003
0000
0000
,
0100
0000
0000
0000
,
0010
0000
0000
0000
0000
0000
0000
0000
0000
0000
0000
0000
0000
0000
1000
0002
,
2000
0000
3003
0000
,
0000
0000
0000
0000
,
0001
0100
0010
1000
0100
0000
1000
0000
,
0010
0100
0101
1010
,
1100
0100
1000
0001
,
0100
0001
1000
0100
,
0010
0001
1000
0010
0100
0001
0010
0000
,
0100
0000
0010
0000
0001
1000
0001
0000
,
0100
0010
1000
0010
,
0001
0010
0100
0001
,
0100
0010
1000
0001
0010
0000
0110
0000
,
1000
0000
1001
0000
1000
0010
1000
0001
,
0100
0001
1000
0100
,
1000
0001
0010
0100
,
1100
0000
0011
0000
1001
0001
1000
0000
,
0010
0000
1000
0000
0100
0010
0001
0100
,
0010
1000
0011
1100
,
0101
0000
0000
0000
1010
0000
0000
0000
1000
0001
0000
0010
0100
0000
0100
0000
,
0000
0010
1001
0000
0000
0000
0000
0000
;

//---------------dance-single - ----------------
#NOTES:
     dance-single:
     :
     Medium:
     5:
     0.315098,0.382354,0.233054,0.083233,0.000000,265.000000,237.000000,28.000000,10.000000,0.000000,0.000000,0.315098,0.382354,0.233054,0.083233,0.000000,265.000000,237.000000,28.000000,10.000000,0.000000,0.000000:
1000
0010
0100
0001
1000
0000
0100
0000
,
1000
0010
0110
1001
,
0110
0000
0010
0000
0001
0010
0100
1000
,
0001
0100
0001
0010
,
0001
1000
0001
2000
0000
0000
0000
0000
,
3000
0100
0010
0001
1000
0000
0010
0000
,
0100
0001
0020
0130
,
0200
1300
1100
0101
,
0001
1000
0010
0100
,
0001
0010
0001
0000
1000
0000
0100
0000
,
1000
0010
0100
0001
,
0011
0000
1001
0000
1100
0100
1000
0001
,
0100
0100
0100
0100
,
0010
1000
0010
2000
0000
0000
0000
0000
,
3000
0100
0010
0001
0100
0000
0010
0000
,
1000
0001
0010
0001
,
1000
0100
1000
0010
,
0100
0001
0010
0001
,
1000
0000
0001
1000
0010
0000
0100
0000
,
0010
0100
0001
1000
,
0001
1000
0001
0010
,
0001
0010
0100
1000
,
0100
1000
1001
0000
,
0110
0000
1001
0110
,
1001
0000
0001
0001
,
1000
1000
0010
0100
,
0010
0000
1000
0100
0000
1000
0010
0000
,
0100
0000
0001
0000
0010
0000
0100
0010
,
0000
0100
2000
3002
,
0103
0000
0002
2003
,
3100
0000
1000
0010
,
0100
0001
0010
0000
,
0000
0100
0010
0001
,
0010
0010
0001
1000
,
0010
0000
0100
0001
,
0010
0001
1000
0100
,
1000
0001
1000
1000
,
1000
0001
1000
1000
,
1000
1000
0010
0000
,
0100
0000
0010
0100
,
2002
0000
0000
0000
,
3003
0000
0000
0000
,
0000
0000
0000
0000
,
0000
0000
0000
0000
,
0000
0000
0000
0000
,
0001
0100
0010
1000
0100
0000
1000
0000
,
0010
0100
0101
0011
,
1001
0001
1000
0100
,
1000
0010
0100
0001
,
0010
0000
0100
1000
0100
0000
0110
0000
,
0011
0000
1001
0000
1000
0000
0001
1000
,
0010
0100
0001
1000
,
0100
1000
0010
0100
,
0001
0000
0010
0100
1000
0000
0100
0000
,
1000
0000
0010
0000
0001
0000
0010
0100
,
0001
1000
0100
1000
,
0010
0100
0001
0100
,
1001
0000
0110
0000
1001
0000
0001
1000
,
0010
0000
0100
0000
0010
0100
0001
1000
,
0100
1000
1100
0100
,
0011
0001
0101
1010
,
0000
0010
1001
0000
0000
0000
0000
0000
;

//---------------dance-single - ----------------
#NOTES:
     dance-single:
     :
     Easy:
     3:
     0.208084,0.280393,0.091557,0.000000,0.000000,175.000000,164.000000,11.000000,0.000000,0.000000,0.000000,0.208084,0.280393,0.091557,0.000000,0.000000,175.000000,164.000000,11.000000,0.000000,0.000000,0.000000:
0000
0000
0001
0000
,
1000
0000
0010
1000
,
0010
0000
0100
0000
,
0001
0000
1000
0000
,
0100
1000
0000
0000
,
0001
1000
0010
0000
,
1000
0000
0100
1000
,
0100
0000
0010
0001
,
0100
0001
1000
0001
,
0100
0000
0010
0000
,
1000
0000
0001
1000
,
0001
0100
0010
0000
,
0100
0010
0100
0010
,
1000
0100
1000
0000
,
0001
0010
0100
0010
,
0001
1000
0010
0100
,
0001
0000
0100
0000
,
0010
0000
1000
0001
,
0100
0000
1001
0000
,
0000
0000
0000
0000
,
0000
0000
0110
0000
,
0000
0000
0000
0000
,
0000
0000
1010
0000
,
0101
0000
0011
1100
,
0011
0000
0001
0001
,
1000
1000
0010
1000
,
0100
1000
0000
0100
,
0010
0001
1000
0001
,
0000
0100
0001
0010
,
0001
0000
1000
0100
,
1000
0000
0001
0001
,
1000
1000
0010
0000
,
0000
0100
0010
1000
,
0001
0100
0001
0010
,
0001
0000
0000
1000
,
0001
0100
0000
0001
,
0010
0000
0001
1000
,
0100
1000
0001
0100
,
0001
1000
0010
0000
,
0100
0010
1000
0100
,
0010
0000
0000
0000
,
1001
0000
0000
0000
,
0000
0000
0000
0000
,
0000
0000
0000
0000
,
0000
0000
0000
0000
,
1000
0001
0100
0001
,
0010
0001
1000
0100
,
1000
0000
0010
0000
,
1000
0000
0001
1000
,
0001
0000
0100
0010
,
0100
0010
1000
0001
,
0010
0000
0001
0000
,
1000
0000
0100
1000
,
0010
0000
0100
0001
,
0010
0001
1000
0001
,
1000
0000
0010
0000
,
1000
0000
0100
0000
,
0010
0001
1000
0010
,
1000
0001
0100
0001
,
0010
0000
0001
1000
,
0010
0100
1001
0110
,
0000
1001
0000
0000
;

//---------------dance-single - ----------------
#NOTES:
     dance-single:
     :
     Beginner:
     1:
     0.099880,0.280393,0.058263,0.000000,0.000000,84.000000,77.000000,7.000000,0.000000,0.000000,0.000000,0.099880,0.280393,0.058263,0.000000,0.000000,84.000000,77.000000,7.000000,0.000000,0.000000,0.000000:
0000
0000
1000
0000
,
0000
0000
0010
0000
,
0010
0000
0000
0000
,
0100
0000
0000
0000
,
0001
0000
0000
0000
,
0000
1000
1000
0000
,
0000
0000
0010
0000
,
0000
0000
1000
0000
,
0000
0000
0001
0000
,
0000
0000
0100
0000
,
0000
0000
0010
0000
,
1000
1000
1000
0000
,
0001
0000
0000
0000
,
0010
0000
0000
0000
,
0000
0001
1000
0000
,
0010
0000
0000
1000
,
0000
0000
0001
0000
,
0000
0000
1000
0000
,
0000
0000
0010
0000
,
0000
0000
0000
0000
,
0000
0000
0100
0000
,
0000
0000
0000
0000
,
0000
0000
1001
0000
,
0110
0000
1001
0110
,
1001
0000
0010
0000
,
1000
0000
0001
0000
,
0000
0000
0000
0100
,
0000
0000
0010
0000
,
0000
0000
1000
0000
,
0000
0000
0001
0000
,
0000
0000
0100
0000
,
0010
0000
0100
0000
,
0000
0000
0001
0000
,
0000
0000
1000
0000
,
0000
0000
0010
0000
,
0000
0000
1000
0000
,
0000
0000
0100
0000
,
0100
0000
0010
0000
,
0010
0000
0100
0000
,
1000
0000
0000
0000
,
1001
0000
0000
0000
,
0000
0000
0000
0000
,
0000
0000
0000
0000
,
0000
0000
0010
0000
,
0000
0000
0000
0000
,
0000
0000
0001
0000
,
1000
0000
0010
0000
,
0000
0000
1000
0000
,
0000
0000
0100
0000
,
0100
0000
0010
0000
,
0000
0000
0100
0000
,
0000
0000
1000
0000
,
0000
0000
0001
0000
,
0000
0000
0100
0000
,
0000
0000
0010
0000
,
0000
0000
1000
0000
,
1000
0000
0001
0000
,
0100
0100
0100
0000
,
0010
0000
1000
0000
,
0000
0000
0001
0000
,
1000
0000
0010
0010
,
0000
1001
0000
0000
;

//---------------dance-single - ----------------
#NOTES:
     dance-single:
     :
     Challenge:
     12:
     0.913190,0.872079,0.282994,0.158144,1.290119,768.000000,734.000000,34.000000,19.000000,0.000000,0.000000,0.913190,0.872079,0.282994,0.158144,1.290119,768.000000,734.000000,34.000000,19.000000,0.000000,0.000000:
// measure 0
1000
0000
1100
0000
0011
0000
0101
0000
1001
0000
0001
0100
0010
1000
0100
1000
,  // measure 1
0010
0100
0001
0010
0001
0100
0001
1000
0100
1000
0010
0100
0001
0010
0001
0100
,  // measure 2
0010
1000
0010
0100
0001
0000
1000
0001
0010
0000
0110
0000
1100
0000
1001
0000
,  // measure 3
1000
0010
0100
0001
0010
0001
0100
0010
1000
0100
1000
0010
0100
0001
0010
0001
,  // measure 4
1000
0100
1000
0010
0100
0001
0010
0001
1000
0100
0010
0100
1000
0010
0100
0001
,  // measure 5
0010
0000
0110
0000
0011
0000
1001
0000
1100
0000
0100
0010
0001
0100
0010
1000
,  // measure 6
0001
0100
0001
0010
0001
0100
0010
1000
0100
1000
0010
0100
0001
0010
0001
1000
,  // measure 7
0100
1000
0010
0100
0001
0010
0001
1000
0100
1000
0010
0100
0001
0010
0001
1000
,  // measure 8
0100
0010
0100
1000
0010
0100
0001
0010
0001
0100
0010
1000
0001
0010
0100
1000
,  // measure 9
0001
0000
0200
0000
0000
0000
0000
0000
0310
1000
0010
0100
0001
0010
0001
0100
,  // measure 10
0010
1000
0100
1000
0010
0100
0001
0010
0100
0010
0001
0100
0010
1000
0001
0010
,  // measure 11
0100
1000
0100
1000
0001
0100
0001
0100
0010
0000
1010
0000
0101
0000
0011
0000
,  // measure 12
0001
0010
1000
0010
0001
0010
1000
0010
0001
0010
1000
0010
0001
0010
1000
0000
,  // measure 13
0011
0100
0010
2001
0000
0000
0000
0000
,  // measure 14
3001
0000
0101
0000
1010
0000
1100
0000
1000
0001
0010
0100
0010
0001
0100
0010
,  // measure 15
1000
0010
0100
0001
0010
0001
1000
0100
0010
0100
1000
0010
0100
0001
0010
0001
,  // measure 16
1000
0100
1000
0010
0100
0001
0010
0001
0100
0010
1000
0001
0010
0001
1000
0100
,  // measure 17
1000
0010
0100
0001
0010
0001
0100
0010
1000
0010
0100
0001
0010
0100
1000
0001
,  // measure 18
0100
0010
1000
0001
0010
0001
1000
0100
0010
0000
0001
0000
0100
0000
0010
0000
,  // measure 19
1000
0010
0100
0001
0010
0100
0010
0001
,  // measure 20
0100
0010
1000
0100
1000
0001
0100
0001
,  // measure 21
0010
0001
1000
0100
1000
0010
0100
0001
,  // measure 22
0010
0000
0100
0000
0010
0000
0001
0000
1000
0010
0000
0100
0001
0000
0010
0000
,  // measure 23
0100
1000
0000
0010
0001
0000
0100
0000
0001
0100
0000
1000
0010
0000
0001
0000
,  // measure 24
1001
0000
1001
0000
0000
0000
0000
0000
1000
0010
1000
0010
1000
0010
1000
0010
,  // measure 25
1000
0001
1000
0001
1000
0001
1000
0001
1000
0000
0100
0000
0010
0000
0100
0000
,  // measure 26
1000
0001
1000
0001
0100
0000
0001
0000
0000
0000
0010
0100
1000
0000
0002
0000
,  // measure 27
0000
0000
0103
0001
0100
0000
0010
0000
1000
0001
0100
0001
0010
0000
0020
0000
,  // measure 28
0000
0000
0000
0000
0000
0000
0031
0000
0000
0010
0000
0000
0100
0000
0000
0000
0000
0000
0010
0000
0000
0000
0000
0000
0001
0000
1000
0000
0100
0000
1000
0000
0001
0000
0100
0000
0001
0000
0000
1000
0000
0000
0001
0000
0000
0000
0000
0000
,  // measure 29
0020
0000
0000
0000
0000
0000
0000
0000
0130
0000
1000
0100
0010
0001
0010
0001
,  // measure 30
1000
0000
0001
0000
0100
0000
0000
0000
0000
0020
0000
0000
0000
0000
0000
0000
0000
0000
0000
0000
0000
0000
0000
0000
1030
0000
0000
0001
0000
0000
0010
0000
0000
0001
0000
0000
1000
0000
0000
0010
0000
0000
1000
0000
0000
0001
0000
0000
,  // measure 31
0010
0100
0010
0100
1000
0100
1000
0001
1000
0001
1000
0001
0200
0000
0000
0000
0000
0000
0000
0000
0000
0000
0000
0000
,  // measure 32
0300
0000
0001
0000
1000
0000
1000
0000
0100
0000
1000
0000
0010
0000
0100
0001
,  // measure 33
0000
0001
1000
0000
0100
0000
0020
0000
0000
0000
0130
1000
0100
1000
0000
0001
,  // measure 34
0000
0000
0200
0000
0000
0000
0300
0000
0000
0000
0100
0001
0100
1000
0100
0001
,  // measure 35
0010
0001
1000
0001
0010
0100
0010
0001
0000
0000
0010
0100
0010
0000
0100
0000
,  // measure 36
1000
0000
0000
0002
0000
0000
0003
0000
1000
0010
0001
0010
1000
0010
0001
0010
,  // measure 37
1000
0010
0001
0010
1000
0010
0001
0010
0001
0010
1000
0010
0001
0010
1000
0010
,  // measure 38
0001
0010
1000
0010
0001
0010
0100
0001
2000
0000
0000
0000
0000
0000
0000
3001
,  // measure 39
1000
0100
1000
0010
0000
0100
0010
2002
,  // measure 40
0000
0000
0000
0000
0000
0000
0000
0000
0000
0000
0000
0000
0000
0000
0000
0000
0000
0000
0000
0000
0000
0000
0000
0000
0000
0000
0000
0000
0000
0000
0000
0000
0000
0000
0000
0000
0000
0000
0000
0000
0000
0000
0000
0000
0000
0000
0000
0000
0000
0000
0000
0000
0000
0000
0000
0000
0000
0000
0000
0000
0000
0000
0000
0000
0000
0000
0000
0000
0000
0000
0000
0000
0000
0000
0000
0000
0000
0000
0000
0000
0000
0000
0000
0000
0000
0000
0000
0000
0000
0000
0000
0000
0000
0000
0000
0000
0000
0000
0000
0000
0000
0000
0000
0000
0000
0000
0000
0000
0000
0000
0000
0000
0000
0000
0000
0000
0000
0000
0000
0000
0000
0000
0000
0000
0000
0000
0000
0000
0000
0000
0000
0000
0000
0000
0000
0000
0000
0000
0000
0000
0000
0000
0000
0000
3003
0000
0000
0000
0000
0000
0000
0000
0000
0000
0000
0000
0001
0000
0000
0000
0000
0000
0000
0000
0000
0000
0000
0000
0000
0000
0000
0000
0000
0000
1000
0000
0000
0000
0000
0000
0000
0000
0000
0000
0100
0000
0000
0000
0000
0000
0000
0000
,  // measure 41
0010
0000
0000
0000
0000
0000
0000
0000
0000
0010
0000
0000
0001
0000
0000
1000
0000
0000
0100
0000
0000
0010
0000
0000
0001
0000
0100
0000
0001
0000
1000
0000
0000
0000
0000
0000
0000
0000
0000
0000
0000
0000
0100
0000
0000
0000
0010
0000
,  // measure 42
0100
0000
0000
0000
0010
0100
1000
0001
0100
0010
1000
0001
0010
0000
0100
0100
,  // measure 43
0100
0000
0000
0000
2002
0000
0000
3003
,  // measure 44
0000
0040
0000
0030
,  // measure 45
0100
0000
0101
0000
1010
0000
1100
0000
1000
0001
1000
0010
0100
0001
0010
0001
,  // measure 46
0100
0010
1000
0100
1000
0010
1000
0001
0010
0001
0100
0010
1000
0100
1000
0010
,  // measure 47
0100
0001
0100
0010
1000
0001
0100
0001
0010
0001
0100
0010
1000
0001
0010
0100
,  // measure 48
0010
0001
1000
0010
0100
0001
0010
0001
0100
0010
1000
0010
0100
0001
0010
0100
,  // measure 49
1000
0000
1100
0000
0011
0000
0101
0000
1001
0000
0001
0100
0010
1000
0010
0100
,  // measure 50
0001
0010
0001
1000
0100
1000
0010
0100
0001
0010
0001
1000
0100
0010
0100
1000
,  // measure 51
0010
0100
0001
0010
0001
1000
0100
0010
0100
1000
0001
0100
0010
1000
0010
0100
,  // measure 52
0001
0010
0001
0100
0010
1000
0100
0010
0001
0010
0001
0100
0010
1000
0001
0010
,  // measure 53
0100
0000
1100
0000
0011
0000
0101
0000
0001
0100
0001
0100
0010
1000
0010
1000
,  // measure 54
0100
1000
0100
1000
0100
0010
0001
0010
0001
0010
0001
0100
0010
1000
0001
0010
,  // measure 55
0100
0010
0001
0100
0010
1000
0001
0010
0100
0010
0001
0100
0010
1000
0100
0010
,  // measure 56
0001
0010
0100
0010
0001
0100
0010
1000
0001
0010
0100
1000
0001
0100
0010
1000
,  // measure 57
0002
0000
0000
0000
2003
0000
0000
0000
3100
0010
0001
0100
0010
1000
0001
0010
,  // measure 58
0001
0100
0010
1000
0100
1000
0010
0100
0001
0010
0001
0100
0010
1000
0100
0010
,  // measure 59
0001
1000
0010
0100
0001
0010
0001
0100
0010
1000
0010
0100
0001
0100
0001
0010
,  // measure 60
0001
1000
0100
1000
0001
0100
0010
1000
0001
0100
0000
1000
0010
0000
0001
0000
,  // measure 61
0000
0100
2002
0000
0000
0000
0000
0000
,  // measure 62
0000
0000
0000
0000
,  // measure 63
0000
0000
3003
0000
;
