#VERSION:0.83;
#TITLE:Black Pentagram;
#SUBTITLE:;
#ARTIST:Unlucky Morpheus;
#TITLETRANSLIT:;
#SUBTITLETRANSLIT:;
#ARTISTTRANSLIT:;
#GENRE:;
#ORIGIN:;
#CREDIT:;
#BANNER:Black Pentagram.png;
#BACKGROUND:Black Pentagram-bg.png;
#PREVIEWVID:;
#JACKET:Black Pentagram-jacket.png;
#CDIMAGE:;
#DISCIMAGE:;
#LYRICSPATH:;
#CDTITLE:;
#MUSIC:Black Pentagram.ogg;
#OFFSET:-2.571001;
#SAMPLESTART:36.107388;
#SAMPLELENGTH:10.322578;
#SELECTABLE:YES;
#BPMS:0.000=186.000;
#STOPS:;
#DELAYS:;
#WARPS:;
#TIMESIGNATURES:0.000=4=4;
#TICKCOUNTS:0.000=4;
#COMBOS:0.000=1;
#SPEEDS:0.000=1.000=0.000=0;
#SCROLLS:0.000=1.000;
#FAKES:;
#LABELS:0.000=Song Start;
#BGCHANGES:;
#KEYSOUNDS:;
#ATTACKS:
;

//---------------dance-single - ----------------
#NOTEDATA:;
#CHARTNAME:;
#STEPSTYPE:dance-single;
#DESCRIPTION:;
#CHARTSTYLE:;
#DIFFICULTY:Hard;
#METER:9;
#RADARVALUES:0.588201,0.933800,0.191103,0.356147,0.260595,474.000000,452.000000,22.000000,41.000000,0.000000,0.000000,2.000000,0.000000,0.000000,0.588201,0.933800,0.191103,0.356147,0.260595,474.000000,452.000000,22.000000,41.000000,0.000000,0.000000,2.000000,0.000000,0.000000;
#CREDIT:;
#NOTES:
0000
0000
0000
0000
,
0001
1000
1001
0000
0110
0000
1001
0000
,
0001
0000
1000
0100
0000
1000
0001
0000
,
1000
0010
0000
1000
0001
0000
0010
0000
,
0100
0000
0010
0001
0000
0010
1000
0000
,
0010
0001
0000
0010
0100
0000
1000
0000
,
0010
0000
0100
0001
0000
0100
0010
0000
,
0100
1000
0000
0100
0010
0000
1000
0000
,
0001
0000
0010
0001
0000
0001
0100
0000
,
0100
0010
0000
0010
0100
0000
0001
0000
,
1000
0000
0001
0100
0000
0010
1000
0000
,
0100
0010
0000
0001
0100
0000
0001
1000
,
0100
0000
1000
0010
0000
0100
0001
0000
,
0010
0100
0000
1000
1010
0000
0011
0000
,
1010
0000
1000
0010
0000
0001
0010
0000
,
1000
0010
0000
0001
0010
0000
0001
0000
,
1000
0000
0001
0100
0000
1000
0100
0000
,
0001
0100
0000
1000
0100
0000
1000
0000
,
1001
0000
0001
0100
0000
1010
0000
1100
,
0000
0100
1000
0010
1000
0001
0010
0000
,
0100
0010
0001
1000
0002
0000
0000
0000
,
1003
0000
0001
0020
0000
0000
0000
0000
,
0031
0000
1000
0001
0000
0101
0000
0011
,
0000
0010
0001
1000
0010
1000
0100
0000
,
1000
0000
0001
0000
0100
0000
0010
1000
,
0000
0010
1000
0001
0010
0100
0010
0000
,
0002
0000
0103
0020
0000
0130
0002
0000
,
1003
0200
0000
1300
0010
0000
1000
0001
,
2000
0000
0000
3100
,
0020
0031
0200
0310
,
0100
0000
0001
2000
0000
3100
0020
0000
,
0130
2000
0000
3001
0100
0000
0010
1000
,
0200
0000
0300
2000
,
3200
0000
0320
0000
0031
0100
0000
0000
,
0020
0000
1030
0200
0000
0310
0002
0000
,
1003
0020
0000
0130
0001
0000
1000
0100
,
0020
0000
0000
0031
,
0200
0310
2000
3001
,
2000
0000
3001
0200
0000
0310
2000
0000
,
3100
0020
0000
0031
0100
0000
0001
1000
,
0100
0010
0100
0010
0100
0010
0100
0010
,
0100
1000
0010
0001
0010
1000
0010
0100
,
0001
1000
0001
0010
0000
0001
0000
1000
,
0000
0100
0000
0000
0000
0010
0001
1000
,
0100
1000
0010
0100
0000
0001
0100
0010
,
0000
1000
0000
0001
0000
1000
0100
0010
,
0100
0010
0001
1000
0000
0001
1000
0010
,
0000
1000
0000
0000
0000
0100
1000
0010
,
0100
0001
0100
0010
0000
1000
0001
0010
,
0000
0100
0000
1000
0000
0010
0100
0001
,
1001
0000
0000
0000
,
0120
0000
0000
0000
0000
0000
0000
0030
,
1001
0000
0000
0000
,
0210
0000
0000
0000
0000
0000
0000
0300
,
1002
0000
0020
0033
,
2001
0000
0020
3030
,
1000
0100
0010
0001
,
0010
0001
0100
0010
,
1000
0001
0100
0001
1000
0100
1000
0001
0100
0001
1000
0100
,
1000
0001
0010
0001
1000
0010
1000
0001
0010
0001
1000
0001
,
1000
0010
0100
0010
1000
0010
1000
0010
0100
0010
1000
0010
,
1000
0001
0100
0001
0010
0001
0010
0001
0100
0001
0000
0000
,
1000
0001
1000
0001
0100
0010
0100
0010
1000
0010
1000
0010
,
0100
0001
0100
0001
0010
0001
0100
0010
0100
0001
0000
0000
,
1000
0010
1000
0001
0100
0001
0010
0001
0010
0100
1000
0100
,
4000
0004
0000
0000
0000
0000
0000
0000
0000
0000
0000
0000
0000
0000
3003
0000
,
0100
0000
0010
0100
0000
0010
1000
0001
,
0010
0000
0000
0000
0000
0000
0100
0010
0001
0000
0010
0000
0100
0000
0010
0000
,
0001
0000
0000
0100
0000
0000
0010
0000
1000
0000
0000
0100
0000
0000
1000
0000
,
0001
0200
0000
0000
,
0301
0000
0000
1000
0000
0000
0100
0000
0000
0010
0000
0000
0100
0000
1000
0000
0010
0000
0100
0000
0000
0001
0000
0000
,
0010
0000
0000
0000
0000
0000
0001
0100
0001
0000
0010
0000
0001
0000
1000
0000
,
0200
0000
0000
0000
0000
0000
0000
0000
1300
0000
0000
0001
0000
0000
1000
0000
,
0020
0000
0000
0000
,
1030
0001
0100
0001
1000
0001
0100
0001
,
1000
0001
0010
0001
1000
0001
0010
0001
,
1000
0010
0100
0010
1000
0010
0100
0010
,
1000
0100
0010
0100
1000
0100
0010
0100
,
1000
0101
1000
0011
,
1000
0110
0001
1001
,
0010
0001
0200
0000
,
0310
0000
1000
0010
0000
0100
0001
0000
,
1000
0000
0010
0100
0000
0001
1000
0000
,
0100
0000
1000
0100
0000
0010
0001
0000
,
2000
0000
0000
3002
0000
0000
0013
0000
,
2002
0000
0000
0000
,
3003
0000
0000
0000
;

//---------------dance-single - ----------------
#NOTEDATA:;
#CHARTNAME:;
#STEPSTYPE:dance-single;
#DESCRIPTION:;
#CHARTSTYLE:;
#DIFFICULTY:Medium;
#METER:6;
#RADARVALUES:0.393375,0.522928,0.321401,0.165044,0.000000,317.000000,280.000000,37.000000,19.000000,0.000000,0.000000,0.000000,0.000000,0.000000,0.393375,0.522928,0.321401,0.165044,0.000000,317.000000,280.000000,37.000000,19.000000,0.000000,0.000000,0.000000,0.000000,0.000000;
#CREDIT:;
#NOTES:
0000
0000
0000
0000
,
0001
1000
1001
0000
0110
0000
1001
0000
,
0001
0000
0000
1000
0000
0000
0010
0000
,
0000
1000
0000
0000
0100
0000
1000
0000
,
0010
0000
0000
0100
0000
0000
0001
0000
,
0000
0100
0000
0000
0010
0000
1000
0000
,
0001
0000
0000
0010
0000
0000
0001
0000
,
0000
1000
0000
0000
0100
0000
1000
0000
,
0010
0000
0000
0100
0000
0000
1000
0000
,
0000
0100
0000
0000
0110
0000
1001
0000
,
0110
0000
0000
0010
0000
0000
0100
0000
,
0000
0001
0000
0000
1000
0000
0100
0000
,
1000
0000
0000
0100
0000
0000
1000
0000
,
0000
0010
0000
0000
0110
0000
1001
0000
,
0110
0000
0000
0010
0000
0000
0100
0000
,
0000
0001
0000
0000
1000
0000
0001
0000
,
0010
0000
0000
0001
0000
0000
1000
0000
,
0000
0100
0000
0000
0001
0000
0100
0000
,
0010
0000
0001
0100
0000
1000
0000
0100
,
0000
0010
0100
0001
1000
0010
0100
0000
,
0010
1000
0020
0000
,
1030
0000
0001
0020
0000
0000
0000
0000
,
0130
0000
0010
0001
0000
1000
0000
0010
,
0000
0100
0010
1000
0001
0010
0100
0000
,
0010
0000
0001
0000
0100
0000
0010
1000
,
0000
0010
0100
0001
1000
0010
0100
0000
,
0001
0000
0000
1000
0000
0000
0100
0000
,
0000
1000
0000
0000
0010
0000
0100
0010
,
2000
0000
0000
0001
,
0002
0000
0000
3003
,
1000
0000
0000
0001
0000
0000
0010
0000
,
0000
0001
0000
0000
0100
0000
0010
0100
,
0002
0000
0000
1003
,
0100
0000
0010
0000
0001
1000
0000
0000
,
0010
0000
0000
0100
0000
0000
0001
0000
,
0000
0010
0000
0000
0100
0000
0010
0100
,
2000
0000
0000
0001
,
0002
0000
0000
3003
,
1000
0000
0000
0100
0000
0000
0010
0000
,
0000
0100
0000
0000
1000
0000
0100
0010
,
0002
0000
0000
0000
,
1003
0010
0001
0010
,
0100
0000
0000
0101
0000
0000
0000
1000
,
0000
1010
0000
0000
0000
0010
0100
0001
,
1000
0000
0000
0011
0000
0000
0000
0110
,
0000
1100
0000
0110
0000
0010
0100
1000
,
0001
0000
0000
0011
0000
0000
0000
1100
,
0000
1010
0000
0000
0000
0100
0010
0100
,
0001
0000
0000
1001
0000
0000
0000
1100
,
0000
0110
0000
0011
0000
0001
0100
0010
,
1010
0000
0000
0000
,
0102
0000
0000
0003
,
0011
0000
0000
0000
,
2100
0000
0000
3000
,
0012
0000
0013
0000
,
2100
0000
3100
0000
,
1000
0100
0010
0001
,
0010
0100
0010
0001
,
1000
0001
0010
0001
,
1000
0010
1000
0001
,
0010
0001
1000
0010
,
1000
0001
0010
0010
,
0001
0100
0001
1000
,
0100
1000
0001
0100
,
0001
0001
1000
1000
,
0200
0000
0000
0000
,
0310
0000
0000
0001
0000
0000
0010
0000
,
0100
0000
0000
0010
0001
0000
0100
0000
,
0010
1000
0001
0100
,
0001
0020
0000
0030
,
0100
0000
0010
0000
0001
0000
0010
0100
,
1000
0000
0000
0100
1000
0010
0100
0001
,
2000
0000
3001
1000
,
0020
0000
0000
0030
,
1000
1010
0010
1010
,
0010
0110
0100
0110
,
0001
0101
0100
0101
,
0001
1001
1000
1001
,
0001
0010
0001
1000
,
0100
1000
0010
0100
,
0001
0010
0200
0000
,
0310
0000
0000
0001
0000
0000
0100
0000
,
0010
0000
0000
1000
0000
0000
0001
0000
,
0010
0000
0000
0001
0000
0000
1000
0000
,
0010
0000
0000
0100
0000
0000
0001
0000
,
2200
0000
0000
0000
,
3300
0000
0000
0000
;

//---------------dance-single - ----------------
#NOTEDATA:;
#CHARTNAME:;
#STEPSTYPE:dance-single;
#DESCRIPTION:;
#CHARTSTYLE:;
#DIFFICULTY:Easy;
#METER:5;
#RADARVALUES:0.300305,0.634984,0.156357,0.104238,0.000000,242.000000,224.000000,18.000000,12.000000,0.000000,0.000000,0.000000,0.000000,0.000000,0.300305,0.634984,0.156357,0.104238,0.000000,242.000000,224.000000,18.000000,12.000000,0.000000,0.000000,0.000000,0.000000,0.000000;
#CREDIT:;
#NOTES:
0000
0000
0000
0000
,
0000
0000
0000
0000
,
1000
0000
0010
0000
,
0100
0000
0010
1000
,
0001
0000
0010
0000
,
0001
0000
1000
0001
,
0100
0000
0001
0000
,
0010
0000
0100
1000
,
0100
0000
1000
0000
,
0001
0000
0100
0010
,
1000
0000
0010
0000
,
0100
0000
0001
1000
,
0001
0000
1000
0000
,
0100
0000
0010
0001
,
0100
0000
0010
0000
,
1000
0000
0001
1000
,
0001
0000
1000
0000
,
0010
0000
1000
0000
,
1100
0000
0100
0000
,
0010
0001
0100
0010
,
0000
0100
0200
0000
,
0310
1000
0002
0000
,
1003
0000
0001
0000
,
0010
0001
0100
0010
,
1000
0001
0010
0001
,
1000
0100
1000
0001
,
1000
0000
0001
0000
,
0100
0000
0010
0100
,
0002
0000
0000
0010
,
0020
0000
0000
0033
,
0001
0000
1000
0000
,
0100
0000
1000
0010
,
2000
0000
3000
0010
,
1000
0000
0001
0000
0010
0100
0000
0000
,
0010
0000
0001
0000
,
1000
0000
0010
0100
,
0002
0000
0000
1000
,
2000
0000
0000
3003
,
1000
0000
0001
0000
,
0010
0000
0100
0010
,
0001
1000
0001
1000
,
0001
0010
0001
1000
,
0100
0000
1000
0000
,
0010
0100
0010
0000
,
1000
0000
0001
0000
,
0010
0001
0010
0100
,
1000
0000
0100
0000
,
1000
0000
0001
0000
,
0100
0000
0010
0000
,
1000
0000
0001
0000
,
0110
0000
0000
0000
,
1001
0000
0000
0000
,
0110
0000
0000
0000
,
1001
0000
0000
0000
,
0110
0000
1001
0000
,
0110
0000
1001
0000
,
0110
0110
0110
0110
,
1001
1001
1001
1001
,
0001
0001
1000
1000
,
0001
0001
1000
1000
,
0010
0010
0100
0100
,
0010
0010
0100
0100
,
0010
0010
1000
1000
,
0001
0001
0010
0010
,
0100
0010
0001
1000
,
0200
0000
0000
0000
,
1300
0000
0010
0000
,
0100
0000
0010
0100
,
0001
0000
1000
0000
,
0100
2000
0000
3000
,
0001
1000
0010
1000
,
0100
0000
0010
0001
,
1000
0000
0001
1000
,
0020
0000
0000
0030
,
1000
0001
0100
0001
,
1000
0100
1000
0001
,
0100
0001
0100
0001
,
0100
0010
0100
0010
,
0100
0100
0010
0010
,
1000
1000
0001
0001
,
1000
0100
1000
0000
,
0100
0000
1000
0000
,
0010
0000
0100
0000
,
0001
0000
1000
0000
,
0001
0000
0100
0000
,
2002
0000
0000
0000
,
3003
0000
0000
0000
;

//---------------dance-single - ----------------
#NOTEDATA:;
#CHARTNAME:;
#STEPSTYPE:dance-single;
#DESCRIPTION:;
#CHARTSTYLE:;
#DIFFICULTY:Beginner;
#METER:2;
#RADARVALUES:0.150153,0.332259,0.060806,0.000000,0.000000,121.000000,114.000000,7.000000,0.000000,0.000000,0.000000,0.000000,0.000000,0.000000,0.150153,0.332259,0.060806,0.000000,0.000000,121.000000,114.000000,7.000000,0.000000,0.000000,0.000000,0.000000,0.000000,0.000000;
#CREDIT:;
#NOTES:
// measure 0
0000
0000
0000
0000
,  // measure 1
0000
0000
0000
0000
,  // measure 2
0001
0000
0000
0000
,  // measure 3
0001
0000
0000
0000
,  // measure 4
1000
0000
0000
0000
,  // measure 5
1000
0000
0000
0000
,  // measure 6
0010
0000
0000
0000
,  // measure 7
0010
0000
0000
0000
,  // measure 8
0100
0000
0000
0000
,  // measure 9
0100
0000
0010
0010
,  // measure 10
0010
0000
0000
0000
,  // measure 11
1000
0000
0000
0000
,  // measure 12
0001
0000
0000
0000
,  // measure 13
1000
0000
0100
0100
,  // measure 14
0100
0000
0000
0000
,  // measure 15
0010
0000
0000
0000
,  // measure 16
0001
0000
0000
0000
,  // measure 17
1000
0000
0001
0000
,  // measure 18
1001
0000
0000
0000
,  // measure 19
0000
0000
0000
0000
,  // measure 20
0000
0010
0010
0000
,  // measure 21
0100
0000
0000
0000
,  // measure 22
0110
0000
0000
0000
,  // measure 23
0000
0000
0000
0000
,  // measure 24
0010
0000
0000
0000
,  // measure 25
1000
0000
0001
0000
,  // measure 26
0100
0000
0000
0000
,  // measure 27
0010
0000
1000
0000
,  // measure 28
0001
0000
0000
1000
,  // measure 29
1000
0000
0000
0000
,  // measure 30
0001
0000
0000
0000
,  // measure 31
0010
0000
0000
0000
,  // measure 32
0100
0000
0000
0000
,  // measure 33
0010
0000
0001
0000
,  // measure 34
1000
0000
0000
0000
,  // measure 35
0010
0000
0000
0000
,  // measure 36
0100
0000
0000
0001
,  // measure 37
0001
0000
0000
0000
,  // measure 38
1000
0000
0000
0000
,  // measure 39
0010
0000
0000
0000
,  // measure 40
1000
0000
0000
0000
,  // measure 41
0001
0000
1000
0000
,  // measure 42
0010
0000
0000
0000
,  // measure 43
0100
0000
0000
0000
,  // measure 44
0010
0000
0000
0000
,  // measure 45
1000
0000
0000
0000
,  // measure 46
0001
0000
0000
0000
,  // measure 47
0010
0000
0000
0000
,  // measure 48
0001
0000
0000
0000
,  // measure 49
1000
0000
0001
0000
,  // measure 50
0110
0000
0000
0000
,  // measure 51
1000
0000
0000
0000
,  // measure 52
0110
0000
0000
0000
,  // measure 53
0001
0000
0000
0000
,  // measure 54
1001
0000
0010
0000
,  // measure 55
1001
0000
0100
0000
,  // measure 56
0001
1000
0001
1000
,  // measure 57
0010
0100
0010
0100
,  // measure 58
0001
0000
0001
0000
,  // measure 59
0001
0000
0001
0000
,  // measure 60
0001
0000
0001
0000
,  // measure 61
0001
0000
0001
0001
,  // measure 62
1000
0000
1000
0000
,  // measure 63
1000
0000
1000
0000
,  // measure 64
0010
0000
0100
0000
,  // measure 65
0001
0000
0000
0000
,  // measure 66
1000
0000
0000
0000
,  // measure 67
0001
0000
0000
0000
,  // measure 68
0100
0000
0000
0000
,  // measure 69
0001
1000
0000
0000
,  // measure 70
0100
0000
0000
0000
,  // measure 71
0000
0000
1000
0001
,  // measure 72
1000
0000
0010
0000
,  // measure 73
0100
0000
0000
0000
,  // measure 74
0001
0000
0000
0000
,  // measure 75
1000
0000
0000
0000
,  // measure 76
0010
0000
0000
0000
,  // measure 77
1000
0000
0000
0000
,  // measure 78
0100
0000
0000
0000
,  // measure 79
1000
0000
0000
0000
,  // measure 80
0001
0000
0000
0000
,  // measure 81
0100
0000
0000
0000
,  // measure 82
0010
0000
0000
0000
,  // measure 83
1000
0000
0000
0000
,  // measure 84
0001
0000
0000
0000
,  // measure 85
0110
0000
0000
0000
;
