#TITLE:Barracuda;
#SUBTITLE:;
#ARTIST:Noisestorm;
#TITLETRANSLIT:;
#SUBTITLETRANSLIT:;
#ARTISTTRANSLIT:;
#GENRE:;
#CREDIT:;
#BANNER:Barracuda.png;
#BACKGROUND:Barracuda-bg.png;
#LYRICSPATH:;
#CDTITLE:cdtitle.png;
#MUSIC:Barracuda.mp3;
#OFFSET:-0.597000;
#SAMPLESTART:44.889690;
#SAMPLELENGTH:14.769230;
#SELECTABLE:YES;
#BPMS:0.000000=130.000000
;
#STOPS:
;
#BGCHANGES:;
#KEYSOUNDS:;
#ATTACKS:;

//---------------dance-single - ----------------
#NOTES:
     dance-single:
     :
     Hard:
     6:
     0.391418,0.403778,0.279400,0.162232,0.036052,304.000000,273.000000,31.000000,18.000000,0.000000,0.000000,0.391418,0.403778,0.279400,0.162232,0.036052,304.000000,273.000000,31.000000,18.000000,0.000000,0.000000:
0000
0000
0000
0000
,
0000
0000
0000
0000
,
0000
0000
0000
0000
,
0000
0000
0000
0000
,
1000
0000
0000
0001
0100
0000
0010
0000
,
1000
0000
0000
0100
1000
0000
0010
0000
,
0100
0000
0000
0001
0010
0000
0001
0000
,
1000
0000
0001
0100
0001
1000
0010
0000
,
1001
0000
0001
1000
0000
0000
0100
0000
,
1100
0000
0000
0000
1000
0000
0010
0000
0000
0000
0100
0000
0000
0010
0000
0000
,
0110
0000
0100
0001
0000
0000
1000
0000
,
1001
0000
0001
0010
0100
0010
0001
0000
,
1100
0000
0100
1000
0000
0000
0010
0000
,
0101
0000
0000
0000
0001
0000
1000
0000
0000
0000
0010
0000
0000
0100
0000
0000
,
0101
0000
0001
1000
0000
1000
0010
0000
,
0200
0000
0310
1000
0001
0010
0001
0000
,
1001
0000
0000
0000
0001
0100
0001
1000
,
0100
0000
0000
0000
1000
0010
1000
0001
,
0100
0000
0000
0000
0001
0010
0001
1000
,
0010
0000
0000
0000
1000
0010
1000
0001
,
1001
0010
1001
0100
,
0101
0010
1010
1000
,
0100
0010
0001
1000
0010
0100
0001
1000
,
0002
0000
0003
0000
,
1000
0010
1000
0001
1000
0000
0001
0010
,
0000
0001
1000
0000
0001
1000
0001
0100
,
0010
1000
0010
1000
0100
0000
0010
0100
,
1000
0000
0000
0001
0000
1000
0000
0010
0000
0000
0100
0000
0001
0000
0000
0000
,
1000
0010
1000
0001
0010
0000
0001
1000
,
0000
0001
0100
0000
0001
1000
0001
0010
,
0200
0000
1300
0100
0001
0100
0010
0000
,
4004
0000
0000
3003
,
1000
0010
1000
0010
0100
0000
0100
0010
,
0000
0100
0010
0000
0100
0010
1000
0001
,
0010
0100
0010
0100
1000
0000
0100
1000
,
0001
0000
0000
1000
0000
0010
0000
0100
0000
0000
0001
0000
1000
0000
0000
0000
,
0100
0010
0100
0010
0001
0000
0001
0010
,
0000
0010
0001
0000
0001
0010
0001
1000
,
0020
0000
0130
0001
1000
0100
1000
0000
,
0404
0000
0000
0303
,
2010
0000
3001
0010
0001
1000
0001
0000
,
0201
0000
0301
0010
0001
1000
0100
0000
,
0120
0000
0130
1000
0010
0100
0001
0000
,
2001
0000
3001
0100
1000
0100
0001
0000
,
0021
0000
0130
0010
0001
1000
0100
0000
,
1200
0000
0310
0100
0010
0001
0100
0000
,
0102
0000
0103
0001
0010
0100
1000
0000
,
4004
0000
0000
3003
,
0102
0000
1003
0100
1000
0001
1000
0000
,
1020
0000
1030
0100
1000
0001
0010
0000
,
0210
0000
0310
0001
0100
0010
1000
0000
,
1002
0000
1003
0010
0001
0010
1000
0000
,
1200
0000
0310
0100
1000
0001
0010
0000
,
0012
0000
0103
0010
1000
0001
0010
0000
,
1200
0000
0310
0001
0100
0010
1000
0000
,
4004
0000
0000
3003
,
0110
0000
0000
0000
;

//---------------dance-single - ----------------
#NOTES:
     dance-single:
     :
     Easy:
     3:
     0.230473,0.302834,0.126181,0.225323,0.000000,179.000000,165.000000,14.000000,25.000000,0.000000,0.000000,0.230473,0.302834,0.126181,0.225323,0.000000,179.000000,165.000000,14.000000,25.000000,0.000000,0.000000:
0000
0000
0000
0000
,
0000
0000
0000
0000
,
0000
0000
0000
0000
,
0000
0000
0000
0000
,
0000
0001
0000
0001
,
0000
1000
0000
1000
,
0000
0010
0000
0010
,
0000
0100
0000
0100
,
1001
0001
1000
0001
,
1001
1000
0001
1000
,
1001
0001
1000
0001
,
1001
0001
0010
0100
,
1100
0100
0010
0001
,
1001
0001
0010
0100
,
1001
1000
0100
0010
,
1001
0000
0000
0000
,
1001
0000
0001
0100
,
0010
0000
0100
0001
,
1000
0000
0100
0010
,
0001
0000
1000
0001
,
0100
0001
0100
0010
,
1000
0010
0100
0001
,
1000
0100
0010
0001
,
2002
0000
3003
0000
,
0001
1000
0010
1000
,
0000
1000
0000
1000
,
0001
0100
0001
0010
,
0002
0000
0000
0003
,
1000
0001
0100
0001
,
0000
0001
0000
0001
,
1000
0100
1000
0010
,
0202
0000
0000
0303
,
0001
1000
0010
1000
,
0000
1000
0000
1000
,
0001
0010
0001
1000
,
0100
0000
1000
0010
,
0100
0000
0001
1000
,
0000
0001
0000
1000
,
0001
0010
0001
1000
,
2020
0000
0000
3030
,
2000
3010
0100
0001
,
2000
3010
0100
0010
,
2000
3100
0010
0100
,
0020
0031
0100
0010
,
0200
0301
0010
0001
,
0200
0301
0010
0001
,
0200
0301
0010
0001
,
2002
0000
0000
3003
,
0002
0013
0100
1000
,
0002
0013
0100
1000
,
0002
0013
0100
1000
,
0002
1003
0010
0100
,
0020
1030
0010
0100
,
0020
1030
0010
0100
,
0020
1030
0010
0100
,
2002
0000
0000
0000
,
3003
0000
0000
0000
;

//---------------dance-single - ----------------
#NOTES:
     dance-single:
     :
     Medium:
     5:
     0.330902,0.403778,0.378542,0.108155,0.000000,257.000000,215.000000,42.000000,12.000000,0.000000,0.000000,0.330902,0.403778,0.378542,0.108155,0.000000,257.000000,215.000000,42.000000,12.000000,0.000000,0.000000:
0000
0000
0000
0000
,
0000
0000
0000
0000
,
0000
0000
0000
0000
,
0000
0000
0000
0000
,
1001
0000
0001
1000
,
0010
0000
1000
0001
,
0100
0000
0001
1000
,
0010
0001
0010
1000
,
0101
0001
0010
0001
,
1100
1000
0010
1000
,
0101
0001
0010
0001
,
1001
0000
1000
0100
0010
0100
1000
0000
,
1001
0001
0010
0001
,
1001
1000
0010
1000
,
1001
0001
0100
0001
,
1001
0000
1000
0100
0010
0100
1000
0000
,
0101
0000
0001
0100
,
1010
0000
1000
0100
,
0011
0000
0001
0010
,
1100
0000
1000
0010
,
0101
0001
1001
1000
,
1100
0100
0110
0010
,
0011
1100
0101
1010
,
2002
0000
3003
0000
,
0001
0000
1000
0010
0000
0010
0100
0000
,
0001
0000
0010
0100
0000
0100
0010
0000
,
0100
0000
0100
1000
0000
1000
0001
0000
,
0200
0000
0000
0300
,
0010
0000
1000
0010
0000
0010
0100
0000
,
0010
0000
1000
0001
0000
0001
1000
0000
,
0001
0000
0100
0010
1000
0001
0010
0000
,
2200
0000
0000
3300
,
1001
0000
0001
1000
0000
1000
0010
0000
,
0100
0000
0001
0100
0000
0100
0001
0000
,
1000
0000
0100
1000
0000
1000
0100
0000
,
0020
0000
0000
0030
,
0100
0000
0100
0010
0000
0010
0001
0000
,
1000
0000
0001
1000
0000
1000
0001
0000
,
1000
0000
0001
0100
0001
0010
0100
0000
,
2200
0000
0000
3300
,
1001
0001
1000
0010
,
1001
1000
0001
0010
,
1001
0001
1000
0010
,
1001
0000
1000
0001
0100
0001
1000
0000
,
1001
1000
0100
1000
,
1001
0001
0100
0001
,
1001
1000
0100
1000
,
2020
0000
0000
3030
,
0101
0000
0001
1000
0001
1000
0001
0000
,
1001
0000
1000
0001
1000
0001
1000
0000
,
1001
0000
0001
1000
0001
1000
0001
0000
,
1001
0000
1000
0100
0010
0001
0010
0000
,
1001
0000
0001
0010
0100
0010
0001
0000
,
1001
0000
1000
0100
0010
0100
1000
0000
,
1001
0000
0001
0010
0100
0010
0001
0000
,
2002
0000
0000
3003
,
0110
0000
0000
0000
;

//---------------dance-single - ----------------
#NOTES:
     dance-single:
     :
     Beginner:
     1:
     0.087554,0.151417,0.063090,0.000000,0.000000,68.000000,61.000000,7.000000,0.000000,0.000000,0.000000,0.087554,0.151417,0.063090,0.000000,0.000000,68.000000,61.000000,7.000000,0.000000,0.000000,0.000000:
0000
0000
0000
0000
,
0000
0000
0000
0000
,
0000
0000
0000
0000
,
0000
0000
0000
0000
,
1000
0000
0000
0000
,
1000
0000
0000
0000
,
1000
0000
0000
0000
,
1000
0000
0000
0000
,
1001
0000
0000
0000
,
0001
0000
0000
0000
,
0001
0000
0000
0000
,
1000
0000
0001
0000
,
1001
0000
0000
0000
,
1000
0000
0000
0000
,
1000
0000
0000
0000
,
0010
0000
0000
0000
,
1001
0000
0000
0000
,
0100
0000
0000
0000
,
0010
0000
0000
0000
,
1000
0000
0000
0000
,
0001
0000
0001
0000
,
1000
0000
1000
0000
,
0010
0000
0100
0000
,
1001
0000
0000
0000
,
0001
0000
0000
0000
,
1000
0000
0000
0000
,
0010
0000
0000
0000
,
0100
0000
0000
0000
,
0010
0000
0000
0000
,
1000
0000
0000
0000
,
0001
0000
1000
0000
,
0010
0000
0000
0000
,
0100
0000
0000
0000
,
0100
0000
0000
0000
,
0001
0000
0000
0000
,
1000
0000
0000
0000
,
0010
0000
0000
0000
,
1000
0000
0000
0000
,
0010
0000
0100
0000
,
0001
0000
0000
0000
,
1000
0000
0000
0000
,
1000
0000
0000
0000
,
1000
0000
0000
0000
,
1000
0000
0001
0000
,
0010
0000
0000
0000
,
0010
0000
0000
0000
,
0010
0000
0000
0000
,
0110
0000
0000
0000
,
0100
0000
0000
0000
,
0100
0000
0000
0000
,
0100
0000
0000
0000
,
0100
0000
1000
0000
,
0001
0000
0000
0000
,
0001
0000
0000
0000
,
0001
0000
0000
0000
,
1001
0000
0000
0000
,
0110
0000
0000
0000
;

//---------------dance-single - ----------------
#NOTES:
     dance-single:
     :
     Challenge:
     9:
     0.562663,0.706612,0.279400,0.306439,0.387555,437.000000,406.000000,31.000000,34.000000,0.000000,0.000000,0.562663,0.706612,0.279400,0.306439,0.387555,437.000000,406.000000,31.000000,34.000000,0.000000,0.000000:
// measure 0
0000
0000
0000
0000
,  // measure 1
0000
0000
0000
0000
,  // measure 2
0000
0000
0000
0000
,  // measure 3
0000
0000
0000
0000
,  // measure 4
2100
0000
0000
3001
0010
0100
0010
0000
,  // measure 5
0201
0000
0310
1000
0100
1000
0001
0000
,  // measure 6
1020
0000
0130
0001
0010
0001
1000
0000
,  // measure 7
0021
0000
0130
0010
0001
1000
0001
0000
,  // measure 8
0110
0000
0100
0010
1000
0010
0001
0000
,  // measure 9
0110
0000
0100
1000
0100
0001
0010
0000
,  // measure 10
0110
0000
0100
1000
0100
0001
0100
0000
,  // measure 11
0110
0000
0010
0001
0010
1000
0100
0000
,  // measure 12
1100
0000
1000
0100
0001
0100
1000
0000
,  // measure 13
1010
0000
1000
0010
0001
0010
1000
0000
,  // measure 14
1010
0000
1000
0100
0001
0100
1000
0000
,  // measure 15
1001
0000
0001
0010
1000
0010
0001
0000
,  // measure 16
1001
0000
0000
1000
0010
0000
0100
0000
0010
1000
0010
1000
0010
0000
1000
0000
,  // measure 17
0001
0000
0000
0010
0100
0000
1000
0000
0001
0010
0001
0010
0001
0000
1000
0000
,  // measure 18
0001
0000
0000
1000
0010
0000
0100
0000
0001
1000
0001
1000
0001
0000
0010
0000
,  // measure 19
0100
0000
0000
0010
0001
0000
0100
0000
0010
1000
0010
1000
0010
0000
0100
0000
,  // measure 20
0002
0203
0010
0310
2000
3200
0010
0310
,  // measure 21
0002
0203
0010
0310
2000
3200
0010
0310
,  // measure 22
0002
0000
0203
0000
0010
0000
0310
0000
1000
0100
1000
0100
0010
0100
0010
0001
,  // measure 23
0010
0001
0100
0000
0010
0000
1000
0001
0020
0000
0230
0000
2300
0000
3002
0000
,  // measure 24
0103
0000
0000
0010
0000
0000
1000
0000
0000
0100
0000
0000
1000
0000
0000
0010
0000
0000
1000
0000
0000
0000
0000
0000
0100
0000
0000
0000
0000
0000
1000
0000
0000
0000
0010
0000
1000
0000
0000
0000
1000
0000
0010
0000
0000
0000
1000
0000
,  // measure 25
0100
0000
0100
0010
0000
0000
0001
0000
0000
1000
0000
0001
0100
0000
0100
0001
0000
0001
0010
0000
0000
0100
0000
0000
,  // measure 26
0010
0000
0000
0001
0000
0000
0100
0000
0000
0001
0000
0000
0010
0000
0000
0100
0000
0000
0010
0000
0000
0000
0000
0000
0001
0000
0000
0000
1000
0000
0001
0000
0000
0000
0001
0000
0100
0000
0000
0000
0000
0000
0010
0000
0000
0000
0000
0000
,  // measure 27
1000
0010
0100
0001
0000
0010
0100
1000
0000
0010
0001
0000
0200
0000
0000
0000
,  // measure 28
0310
0000
0000
1000
0000
0000
0001
0000
0000
0010
0000
0000
0100
0000
0000
0010
0000
0000
0001
0000
0000
0000
0000
0000
1000
0000
0000
0000
0010
0000
1000
0000
0000
0000
1000
0000
0001
0000
0000
0000
0000
0000
0010
0000
0000
0000
0100
0000
,  // measure 29
1000
0000
1000
0010
0000
0000
0100
0000
0000
0000
0000
0010
0100
0000
0100
0001
0000
0001
1000
0000
0000
0100
0000
0000
,  // measure 30
0010
0001
0000
1000
0100
0000
0100
0010
0000
0010
0001
0000
1000
0000
0010
0000
,  // measure 31
0404
0000
0000
0000
0000
0000
0000
0303
,  // measure 32
0001
0000
0000
1000
0000
0000
0100
0000
0000
0010
0000
0000
0100
0000
0000
1000
0000
0000
0100
0000
0000
0000
0000
0000
0010
0000
0000
0000
0000
0000
0001
0000
0000
0000
0001
0000
0100
0000
0000
0000
0100
0000
0010
0000
0000
0000
0100
0000
,  // measure 33
0001
0000
0001
1000
0000
0000
0010
0000
0000
0100
0000
0010
0100
0000
0001
1000
0000
1000
0100
0000
0000
0010
0000
0000
,  // measure 34
0100
0000
0000
1000
0000
0000
0010
0000
0000
1000
0000
0000
0100
0000
0000
0010
0000
0000
0100
0000
0000
0000
0000
0000
1000
0000
0000
0000
0001
0000
1000
0000
0000
0000
1000
0000
0010
0000
0000
0000
0000
0000
0100
0000
0000
0000
0000
0000
,  // measure 35
0001
0100
0010
1000
0000
0100
0010
0001
0000
1000
0001
0000
0200
0000
0000
0000
,  // measure 36
0301
0000
0000
0010
0000
0000
0001
0000
0000
1000
0000
0000
0100
0000
0000
1000
0000
0000
0001
0000
0000
0000
0000
0000
0001
0000
0000
0000
0100
0000
0001
0000
0000
0000
0001
0000
1000
0000
0000
0000
0000
0000
0100
0000
0000
0000
0010
0000
,  // measure 37
0001
0000
0001
0100
0000
0000
0010
0000
0000
0000
0000
0100
0010
0000
0010
1000
0000
1000
0001
0000
0000
0010
0000
0000
,  // measure 38
0100
1000
0000
0001
0010
0000
0010
0100
0000
0100
1000
0000
0001
0000
0100
0000
,  // measure 39
4040
0000
0000
0000
0000
0000
0000
3030
,  // measure 40
0102
0000
0013
1000
0010
0100
1000
0000
,  // measure 41
1200
0000
0310
0001
0010
1000
0100
0000
,  // measure 42
0120
0000
0031
0010
1000
0010
0100
0000
,  // measure 43
2100
0000
3100
0001
0100
1000
0010
0000
,  // measure 44
1020
0000
1030
0010
0001
0010
1000
0000
,  // measure 45
1200
0000
1300
0001
0100
1000
0001
0000
,  // measure 46
1020
0000
0031
0010
1000
0100
0001
0000
,  // measure 47
4004
0000
0000
0000
0000
0000
0000
3003
,  // measure 48
0102
0000
0013
0100
1000
0100
0010
0000
,  // measure 49
0012
0000
0013
0100
1000
0100
0010
0000
,  // measure 50
0012
0000
0013
0100
1000
0100
0010
0000
,  // measure 51
0002
0000
0103
1000
0100
0010
1000
0000
,  // measure 52
2100
0000
3010
1000
0100
1000
0010
0000
,  // measure 53
2100
0000
3100
1000
0010
1000
0100
0000
,  // measure 54
2100
0000
3010
1000
0100
1000
0010
0000
,  // measure 55
4004
0000
0000
0000
0000
0000
0000
3003
,  // measure 56
0110
0000
0000
0000
;
