#TITLE:BabeL;
#SUBTITLE:~Next Story~;
#ARTIST:Power of Nature;
#TITLETRANSLIT:;
#SUBTITLETRANSLIT:;
#ARTISTTRANSLIT:;
#GENRE:Bemani;
#CREDIT:B. Sudzius;
#BANNER:BabeL -Next Story-.png;
#BACKGROUND:BabeL -Next Story--bg.png;
#LYRICSPATH:;
#CDTITLE:;
#MUSIC:BabeL -Next Story-.ogg;
#OFFSET:-0.381000;
#SAMPLESTART:0.363000;
#SAMPLELENGTH:10.879844;
#SELECTABLE:YES;
#DISPLAYBPM:100.000000:260.000000;
#BPMS:0.000000=140.000000
,12.000000=148.000000
,15.000000=155.000000
,19.000000=134.000000
,20.000000=119.000000
,22.000000=100.000000
,23.000000=173.000000
,302.000000=259.500000
,349.500000=173.000000
;
#STOPS:13.000000=0.608000,
14.500000=0.608000,
133.000000=0.173000,
136.500000=0.520000,
253.000000=0.173000,
253.500000=0.173000,
254.000000=0.173000,
254.500000=0.087000,
254.750000=0.260000,
255.000000=0.173000,
255.500000=0.087000,
255.750000=0.260000,
256.000000=0.173000,
257.000000=0.173000,
335.000000=0.578000,
337.000000=0.578000,
339.000000=0.347000
;
#BGCHANGES:;
#KEYSOUNDS:;
#ATTACKS:;

//---------------dance-single - ----------------
#NOTES:
     dance-single:
     :
     Hard:
     12:
     0.848235,1.026653,0.462165,0.227166,1.127996,758.000000,699.000000,59.000000,29.000000,0.000000,0.000000,0.848235,1.026653,0.462165,0.227166,1.127996,758.000000,699.000000,59.000000,29.000000,0.000000,0.000000:
0000
0000
0000
0000
,
0000
0000
0000
0000
,
0000
0000
0000
0000
,
0001
0000
1000
0000
0010
0000
1000
0000
0000
1000
0000
0001
0000
0100
0000
0001
0000
0000
2000
0000
0000
0000
0000
0000
,
0000
3002
0000
0040
,
0000
0000
0000
0000
0003
0000
0130
1000
,
0001
0100
0001
0010
0000
0000
0010
0001
0000
1000
0000
0100
0000
0000
0010
0000
,
0100
1000
0001
1000
0000
0000
0100
0010
0000
0001
0000
1000
0000
0000
0001
0000
,
0200
0000
0000
0310
0000
0000
1000
0000
0002
0000
0000
0013
0000
0000
0100
0000
,
0020
0000
0000
0031
0000
0010
0100
1000
0010
0100
0001
0010
0001
0010
0100
1000
,
0001
1000
0001
0100
0000
0000
0010
1000
0000
0100
0000
0010
0000
0000
0100
0000
,
0010
0001
0010
0100
0000
0000
0010
0001
0000
1000
0000
0010
0000
1000
0001
1000
,
0010
0100
0000
0010
0000
0100
0010
1000
0001
1000
0000
0001
0100
0010
1000
0001
,
0010
0100
0010
0001
0000
1000
0100
0010
0100
1000
0001
0100
0001
0000
0000
1010
,
0000
0000
1000
0000
0100
0000
1000
0000
1001
0000
0000
0000
0001
0000
0000
0011
,
0000
0000
0000
0010
0000
0000
0100
0000
0000
1000
0000
0000
0001
0000
0010
0000
0100
0000
0000
0000
0000
0000
0000
0000
,
0000
0000
0000
0010
0100
1000
0000
0000
0000
0000
0000
0000
,
1000
0100
0010
0001
1000
0100
0010
0001
1000
0000
0010
0000
0100
0001
0010
0001
,
0010
0000
0100
1000
0000
0001
0000
0100
0000
0000
0010
0000
0100
0001
0010
0001
,
1000
0000
0001
1000
0000
0010
0000
1001
0000
0000
0001
0000
2000
0000
0000
3100
,
0000
0000
0001
0000
2000
0000
0000
3010
0000
0000
0100
0000
2000
0000
0000
3100
,
0000
0010
1000
0010
0100
0001
0010
0001
1000
0100
0010
0001
1000
0000
0001
0100
,
0001
0000
0100
0010
0100
0000
0010
1000
0010
0000
1000
0001
1000
0000
0001
0010
,
0001
0000
0010
0100
0000
1100
0000
1001
0000
1000
0010
1000
0001
0100
0000
0010
,
0000
0100
0010
1000
0001
0100
0000
0001
1000
0010
0100
0001
0010
0100
0010
0001
,
0000
1000
0100
1000
0100
0010
0001
1000
0100
0000
0000
0011
0000
0000
0010
0000
,
0100
0000
1000
0000
1001
0000
0000
0000
1001
0000
0000
0101
0000
0000
0001
0000
,
1000
0000
0000
0001
0000
0000
0101
0000
0000
0000
1010
0000
0000
0000
1000
0000
0100
0000
0010
0000
0001
0000
0010
0000
,
0100
0000
0110
0000
0100
1000
0010
0100
0001
1000
0000
0011
,
0000
0001
0010
0100
1000
0001
0100
0000
1010
0000
1000
0010
,
0100
0001
0010
0100
1000
0100
0010
0001
0010
0011
0000
0110
,
0000
1100
0000
1001
0001
1000
0010
1000
0100
0001
0100
1000
,
0010
0001
0010
1000
0001
0100
0000
0000
0000
0000
0000
0000
,
1000
0000
0001
0000
0100
0000
0000
0000
0000
0010
0000
0100
0000
0001
0000
0010
0000
0100
0000
1000
0000
0100
0000
0010
,
0000
0000
0100
0000
0000
0000
0000
0000
0000
0000
0000
0000
1001
0000
0000
0000
0000
0000
0000
0000
0000
1000
0000
0000
0001
0000
0000
0000
0000
0000
0000
0000
0000
0000
0000
0000
0000
0000
0000
0000
0000
0000
0000
0000
0000
0001
0000
0000
,
1000
0000
0000
0001
0100
0000
0000
0010
1000
0000
0001
0000
0010
0100
1000
0100
,
1000
0001
0100
0001
0010
0000
0000
0100
1000
0000
0000
1000
0001
0000
0000
0001
,
0100
0000
0000
0100
0010
0000
0000
0010
1000
0000
0000
1000
0001
0000
0000
0001
,
1000
0000
0000
0000
0000
0000
0000
0000
0000
1000
0000
0000
0100
0000
0000
0000
0010
0000
0000
0000
0100
0000
0000
0000
0010
0000
0000
0000
0100
0000
0000
0000
0010
0000
0000
0000
0100
0000
0000
0000
0000
0000
0000
0000
0000
0010
0000
0000
,
0001
0000
0000
0000
0000
0000
0000
0001
1000
0000
0000
1000
0001
0000
0000
0000
,
0001
0000
0000
0000
0010
0000
0000
0000
0100
0000
0000
0000
1000
0000
0000
0000
0001
0000
0000
0000
0010
0000
0000
0000
0100
0000
0000
0000
0000
0000
0010
0000
0000
0000
0000
0000
0001
0000
0000
0100
0000
0000
0001
0000
0000
1000
0000
0000
,
0001
0000
0100
0010
1000
0000
0001
0000
1000
0100
1000
0100
1000
0000
0000
0001
,
1000
0000
0000
0000
0000
0000
0000
0000
0000
1000
0000
0000
0001
0000
0000
0000
0000
0000
0000
0000
0000
0001
0000
0000
0100
0000
0000
0000
0010
0000
0000
0000
1000
0000
0000
0000
0000
0000
0000
0000
0000
0000
0000
0000
0000
0000
0000
0000
,
0000
0000
0000
0000
0010
0010
0100
0001
1000
0000
0000
0000
,
0000
0000
0000
0000
0000
0000
1001
0000
0110
0000
1001
0000
,
1000
0100
0010
0000
0000
0000
0001
0010
0100
0010
0001
1000
,
0100
0010
0100
1000
0001
0010
0100
0010
0001
1000
0100
0010
,
0100
1000
0001
0010
0100
0010
0001
1000
0100
0010
0100
1000
,
0001
0000
0010
0001
1000
0100
0010
0100
1000
0001
0010
0100
,
0010
0001
1000
0100
0000
0100
1000
0100
0010
0100
1000
0001
,
0010
0100
0010
0001
0000
0011
0000
1100
0000
1010
0000
0101
,
0000
0011
0000
1100
0000
0101
0000
1010
0000
0101
0000
1001
,
0000
0000
0101
0000
0000
0000
1001
0000
0000
1000
0000
0000
0100
0000
0000
1200
0000
0000
0000
0000
0000
1000
0000
0000
,
0000
0010
0000
0001
0000
0010
0000
0301
,
0010
1000
0010
0100
1000
2010
0000
3010
,
0100
0000
0101
0000
0000
0000
0001
0000
1000
0000
0000
1000
0000
0000
0001
0000
,
0010
0001
1001
0001
0010
0021
0000
0001
,
0000
0100
0000
1000
0000
0100
0000
1030
,
0100
0001
0100
0010
0001
1001
0000
0010
,
0100
0000
1001
0000
0000
0000
0000
0000
0000
0000
0000
0000
1000
0200
0010
0000
,
0000
0000
0310
0002
1000
0000
2000
0000
0003
0000
0010
0000
3010
0200
0001
0000
,
0310
0000
2000
0000
0000
0000
3001
0000
0010
0000
0000
0000
0100
1000
0020
0000
,
0130
0002
2003
0000
3010
0100
0001
0010
,
0100
0000
1000
0000
1001
0000
1010
0000
0101
0000
0011
1100
0101
0000
1001
1100
,
0011
1000
1100
0001
0010
0100
1001
0001
,
1000
0000
0001
0100
0000
0000
0100
0001
0000
0001
0000
0010
0000
0000
0100
0000
,
1000
0000
0100
0001
0000
0000
0001
0100
0000
1000
0000
1001
0000
0000
1000
0000
,
0020
0000
0000
0130
0000
0000
0001
0000
2000
0000
0000
3100
0000
0000
0010
0000
,
0200
0000
0000
1300
0000
0100
0010
0001
0100
0010
1000
0100
1000
0100
0010
0001
,
1000
0001
0100
0000
0010
1000
0001
0000
0010
0100
1000
0000
0100
0010
0001
0000
,
0100
0010
1000
0000
0001
0100
0010
0000
0100
0001
0000
0011
0000
0010
0100
1000
,
0001
0100
0000
0010
0000
0100
0010
1000
0001
0010
0000
0100
0010
0001
1000
0010
,
0100
0010
1000
0001
0000
1000
0100
1000
0001
0010
0100
1000
0002
0000
0000
0013
,
0000
0000
0100
0000
0010
0000
0001
0000
1001
0000
0000
0000
1020
0000
0000
0130
,
0000
0000
0010
0000
1000
0000
0001
0000
0021
0000
0000
0130
0000
0000
1000
0000
,
0001
0100
1002
0000
0023
0000
0000
0031
,
1000
0100
0010
0100
1000
0001
0010
0100
,
0010
0001
1000
0100
0010
0100
1000
0001
,
0010
0100
0010
0001
1000
0100
0010
0100
,
1000
0001
0010
0100
0010
0001
1000
0100
,
0010
0100
1000
0001
0000
0010
0001
1000
,
0100
0010
0100
1000
0001
0010
0100
0010
,
0001
1000
0100
0000
0100
1000
0100
0010
,
0100
1000
0001
1000
0001
1000
0010
0100
,
0001
0100
0010
1000
0100
1000
0001
1000
,
0100
0010
0001
2000
0002
0000
0000
0000
,
0000
0000
0000
0000
,
0000
0000
0000
3003
0000
0000
0000
0000
;

//---------------dance-single - ----------------
#NOTES:
     dance-single:
     :
     Easy:
     7:
     0.400618,0.581770,0.234999,0.211499,0.141000,358.000000,328.000000,30.000000,27.000000,0.000000,0.000000,0.400618,0.581770,0.234999,0.211499,0.141000,358.000000,328.000000,30.000000,27.000000,0.000000,0.000000:
0000
0000
0000
0000
,
0000
0000
0000
0000
,
0000
0000
0000
0000
,
1000
0000
0101
0001
0000
1100
2000
0000
,
0000
3002
0000
0020
,
0000
0000
0000
0000
0000
0033
0010
0000
,
0001
0010
0100
0010
,
0001
1000
0001
1000
,
0001
0100
0001
1000
,
0100
1000
0010
0010
,
1000
0100
1000
0010
,
0100
0001
0010
0001
,
0010
1000
0010
0100
,
0100
0000
0010
0001
,
1000
0000
0010
1000
0010
0000
0100
0000
,
0001
0000
0000
0000
0000
0000
1000
0000
0000
0001
0000
0000
0100
0000
0000
0000
0100
0000
0000
0000
0000
0000
0000
0000
,
0000
0000
0000
0100
0000
0100
0000
0000
0000
0000
0000
0000
,
0020
0000
0130
0001
,
1000
0100
1000
0010
,
0100
0001
1001
0002
,
0013
0002
1003
0002
,
0103
0001
0010
0100
,
0010
0001
0010
1000
,
0010
0100
2000
3100
,
2000
3010
2000
3002
,
0003
1000
0001
0100
,
0010
1000
0010
0000
0100
0000
0001
0000
,
1000
0001
0101
0000
0000
0000
0000
0000
,
1001
0000
0000
1100
,
0000
0000
0110
0000
,
0000
0000
0000
0010
0000
0000
0001
0000
0000
1000
0000
0100
,
0000
0010
0000
0001
0000
0000
0001
0000
0000
0100
0000
0000
,
0010
1000
0000
0000
,
1001
0000
0000
0110
0000
1001
0000
0110
,
0000
0200
0301
0000
,
0100
0010
1000
0002
,
0000
0003
1000
0100
,
1000
0010
0100
0001
,
0010
2001
3010
1010
,
1000
0000
0001
1000
,
0012
0013
1001
0001
,
0010
0000
0001
0000
1000
1000
1000
0000
,
0001
0100
1010
0000
,
0000
0000
0000
0101
0000
0000
0000
0000
,
0000
0000
0001
0000
,
1001
0000
0000
0000
0000
0000
0001
0000
1000
0000
0001
0000
,
1000
0000
0001
0000
1000
0000
0001
0000
1000
0000
0001
0000
,
0100
0000
0001
0000
1000
0000
0001
0000
1000
0000
0001
0000
,
0010
0000
0001
0000
1000
0000
0001
0000
1000
0000
0001
0000
,
1000
0000
0010
0000
0000
1000
0000
0001
0000
1000
0000
0001
,
0000
1000
0000
0001
0000
0010
0000
0100
0000
1000
0000
0010
,
0000
0100
0000
0001
0000
1000
0000
0100
0000
0010
0000
0001
,
0000
0000
1000
0000
0000
0000
0001
0000
0000
1000
0000
0000
0001
0000
0000
0100
0000
0000
0000
0000
0000
0001
0000
0000
,
0000
1000
0000
0100
0000
0010
0000
0001
,
0010
0000
0001
0100
0001
1000
0000
0001
,
1000
0000
0010
0000
0000
0000
0000
0000
0100
0000
0000
0100
0000
0000
0001
0000
,
1000
0000
0010
0100
0010
1000
0000
0010
,
0000
0100
0000
0001
0000
1000
0000
0100
,
1000
0000
0100
1000
0010
0100
0000
0001
,
0100
0010
0000
0000
0000
0000
0200
0000
,
0000
0320
0000
2030
,
0000
3002
0000
0023
,
0000
0230
0000
2300
,
0000
0000
3000
0000
0001
0000
1000
0000
0001
0000
1000
0001
1000
0000
0001
1000
,
0001
1000
0001
1000
0001
0100
0020
0000
,
0000
0000
0000
0000
,
0000
0000
0000
0000
0000
0000
0000
0000
0000
0000
0000
0130
0000
0000
0000
0000
,
0010
1000
0010
0100
,
0001
0000
1000
0100
0010
0001
1000
0000
,
1010
1010
0101
0101
,
1001
0000
0000
0000
1001
0000
0000
0000
1001
0000
0000
1010
0000
0000
0000
0000
,
1000
0000
0100
0000
1000
0000
0010
0100
,
0010
1000
0000
0001
0010
0100
1000
0000
,
0001
0000
0100
0010
1000
0000
0010
0000
,
1000
0000
0001
0010
0001
0000
0100
0000
,
0010
1000
2002
0000
3003
0000
0000
0001
,
0000
1000
0000
0010
0000
0100
0000
0001
,
0000
0010
0000
0100
0000
0010
0000
0001
,
0000
1000
0000
0010
0000
0100
0000
0001
,
0000
0010
0000
0001
0000
1000
0000
0010
,
0000
0100
0000
0001
0000
0010
0000
0001
,
0000
1000
0000
0010
0000
0100
0000
0001
,
0000
0010
0000
0000
0100
0000
0010
0000
,
0001
0000
0000
1000
0000
0000
1010
1000
,
0000
0000
0101
0001
0000
0000
1100
1000
,
0100
0010
0001
2000
0002
0000
0000
0000
,
0000
0000
0000
0000
,
0000
0000
0000
3003
0000
0000
0000
0000
;

//---------------dance-single - ----------------
#NOTES:
     dance-single:
     :
     Medium:
     9:
     0.589736,0.718657,0.125333,0.117500,0.661914,527.000000,511.000000,16.000000,15.000000,0.000000,0.000000,0.589736,0.718657,0.125333,0.117500,0.661914,527.000000,511.000000,16.000000,15.000000,0.000000,0.000000:
0000
0000
0000
0000
,
0000
0000
0000
0000
,
0000
0000
0000
0000
,
1000
0000
0100
0000
0010
0000
0001
0000
0000
0100
0000
0010
0000
0001
0000
1000
0000
0000
0002
0000
0000
0000
0000
0000
,
0000
0000
0000
2003
0000
0000
0000
0000
0000
3001
0010
0100
,
1000
0000
0100
0000
0020
0000
0002
0000
0000
0000
0000
0000
0000
0000
0000
0000
0033
0000
0010
0000
0000
0001
0000
0000
,
1000
0000
0000
0010
0000
0000
0000
0100
0000
0001
0000
0010
0000
0000
0100
0000
,
1000
0000
0000
0010
0000
0000
0100
0001
0000
1000
0000
1001
0000
0000
0000
0000
,
1000
0000
0000
0010
0000
0000
0100
0000
0010
0000
0000
0100
0000
0000
0001
0000
,
0010
0000
0000
0100
0000
0000
0010
0000
0100
0000
0010
0000
0001
0000
1000
0000
,
0010
0000
1000
0000
0001
0000
0000
0100
0000
0010
0000
1000
0000
0000
0001
0000
,
0010
0000
0100
0000
1000
0000
0000
0100
0000
0010
0000
1001
0000
0000
0001
0000
,
1000
0000
0000
0010
0000
0000
0100
0000
0001
0000
0000
0000
1000
0000
0100
0000
,
1000
0000
0100
0000
0000
0000
0100
0000
1000
0000
0100
0000
0010
0000
0000
0001
,
0000
0000
1000
0000
0010
0000
0100
0000
0001
0000
0000
0000
1000
0000
0000
1000
,
0000
0000
0000
0010
0000
0000
0100
0000
0000
0001
0000
0000
0010
0000
0100
0000
1000
0000
0000
0000
0000
0000
0000
0000
,
0000
0000
0000
0001
0010
0100
0000
0000
0000
0000
0000
0000
,
0020
0000
0000
0000
0000
0000
0000
0000
0000
0000
0000
0000
0000
0000
0000
0000
0000
0000
0000
0000
0030
0000
0000
0000
1001
0000
0000
0000
0000
0000
0001
0000
0000
0000
0000
0000
1000
0000
0000
0000
0000
0000
0000
0000
0000
0100
0000
0000
,
0000
0000
0010
0001
0000
1000
0000
0001
0000
0000
1000
0000
0010
0000
0000
0100
,
0000
0000
0001
1000
0000
0010
0000
1010
0000
0000
1000
0000
0010
0000
0000
0100
,
0000
0000
0010
0000
0100
0000
0000
0001
0000
0000
0010
0000
0001
0000
0000
1000
,
0000
0000
0001
0000
0010
0000
0100
0000
1000
0000
0100
0000
1000
0000
0000
0001
,
1000
0000
0000
1000
0010
0000
0000
0010
0100
0000
0000
0100
0001
0000
0000
0001
,
0010
0000
0000
0010
0000
0100
0000
1100
0000
0000
1000
0000
0001
0000
0000
0100
,
0000
0010
1000
0100
0010
0010
0100
0010
,
0000
0000
0001
0000
0010
0000
0100
0000
0010
0000
0000
0100
0000
0000
1000
0000
,
0100
0000
1000
0000
1010
0000
0000
0000
1000
0000
0000
0010
0000
0000
0100
0000
,
0010
0000
0000
1000
0000
0000
0001
0000
0000
0000
1001
0000
0000
0000
0000
0000
0000
0000
0000
0000
0001
0000
1000
0000
,
0010
0000
1010
0000
0000
0000
0000
1000
0001
0010
0000
0110
,
0000
0000
0000
0000
0100
1000
0010
0000
0101
0000
0000
0000
,
0000
0001
1000
0100
0000
0010
0001
0000
0001
0100
0000
0100
,
0000
0010
0000
0010
1000
0001
0100
0000
0001
0100
0000
0100
,
0010
0000
0010
1000
0001
1000
0000
0000
0000
0000
0000
0000
,
0001
0000
0100
0000
0001
0000
0000
0000
0000
1000
0000
0100
0000
1000
0000
0100
0000
0010
0000
0100
0000
0010
0000
0001
,
0000
0000
0010
0000
0000
0000
0000
0000
0000
0000
0000
0000
0001
0000
0000
0000
0000
0000
0000
0000
0000
0010
0000
0000
0100
0000
0000
0000
0000
0000
0000
0000
0000
0000
0000
0000
0000
0000
0000
0000
0000
0000
0000
0000
0000
1000
0000
0000
,
0100
0000
0000
1000
0010
0000
0000
0010
0100
0000
0001
0000
0020
0000
0000
0000
,
0000
0000
0000
0000
0030
0000
0000
0000
0001
0000
0000
1000
0010
0000
0000
0010
,
0100
0000
0000
0100
0001
0000
0000
0001
0010
0000
0000
0010
0100
0000
0000
0100
,
0010
0000
0000
0100
2000
0000
0000
0000
0000
0000
0000
0000
3001
0000
0000
1000
,
0010
0000
0000
0000
0000
0000
0000
0100
0001
0000
0000
0001
0010
0000
0000
0000
,
0100
0000
1000
0000
0100
0000
1000
0000
0100
0000
1000
0000
0100
0000
0000
0000
0000
0000
1000
0000
0000
0100
0000
0000
,
0001
0000
0100
0000
1000
0000
0010
0000
0100
0000
0100
0000
0100
0000
0000
0001
,
0100
0000
0000
0000
0000
0000
0000
0000
0000
0100
0000
0000
0010
0000
0000
0000
0000
0000
0000
0000
0100
0000
0000
0000
0001
0000
0000
0000
1000
0000
0000
0000
0001
0000
0000
0000
0000
0000
0000
0000
0000
0000
0000
0000
0000
0000
0000
0000
,
0000
0000
0000
0000
0001
1000
0001
1000
0001
0000
0000
0000
,
0000
0000
0000
0000
0000
0000
1000
0000
0100
0000
0010
0000
,
0001
0100
0010
0000
0000
0000
0100
0010
1000
0001
0010
0001
,
0100
0010
1000
0001
0010
0100
0010
0001
0100
0010
1000
0100
,
0000
0000
0000
0000
0000
0000
0100
0010
0001
1000
0100
0010
,
0000
0000
0000
0000
0000
0000
0001
0010
0100
0010
0001
1000
,
0000
0000
0000
0000
0000
0000
0001
0100
0010
1000
0001
0010
,
0000
0000
0000
0000
0000
0000
0100
0010
0001
0010
0100
0010
,
0000
0000
0000
0000
0000
0000
0001
0010
0001
0100
0010
1000
,
0000
0000
1001
1000
0010
0100
0000
0001
,
0000
0010
0000
0100
0000
0010
0000
0001
,
0010
0001
0100
0010
1000
0100
0000
0010
,
0001
0000
1000
0000
0000
0000
0001
0000
0100
0000
0000
0001
0000
0000
0010
0000
,
0100
1000
0100
0001
0100
0010
0000
0001
,
0000
0100
0000
1000
0000
0100
0000
0010
,
1000
0001
0010
0001
1000
0100
0000
0010
,
0001
1000
0000
0000
0000
0000
0001
0200
,
0000
0310
1000
0002
0000
0013
0100
2000
,
0000
3100
0010
0002
0000
0013
0100
0020
,
0000
0130
0010
0002
0000
0013
0100
1000
,
0001
0000
0100
0000
0010
0000
1000
0000
0001
0000
0010
0100
1000
0000
0001
1000
,
0010
0010
0100
0100
0010
1000
2001
0000
,
0000
0000
0000
0000
,
0000
0000
0000
0000
0000
0000
0000
0001
0000
3001
0000
1001
0000
0000
0101
0000
,
0001
0000
0000
0010
0000
0000
0100
0000
1000
0000
0000
0100
0000
0000
0010
0000
,
0001
0000
0000
1000
0000
0000
0001
0000
0010
0000
0100
0000
0010
0000
0001
0000
,
1000
0000
0000
0001
0100
0000
0000
0100
0010
0000
0000
0010
1000
0000
0000
1000
,
0001
0000
0000
0001
0010
0000
0000
0010
0000
0100
0000
1100
0000
0000
1000
0000
,
0001
0000
0000
1000
0000
0000
0010
0000
0100
0000
0000
0000
0001
0000
0010
0000
,
0001
0000
1000
0000
0000
0000
0100
0000
0010
0000
0001
0000
1000
0000
0000
0010
,
0000
0000
0100
0000
0001
0000
0010
0000
0100
0000
0000
0000
1000
0000
0000
0100
,
0000
0000
0001
0000
0100
0000
0010
0000
0001
0000
0000
0010
0000
0000
1000
0000
,
0010
0100
1000
0000
1001
0000
0000
1000
,
0010
0100
0010
1000
0001
0010
0001
0010
,
0100
1000
0001
0010
0100
0010
0001
1000
,
0010
0000
0000
0000
0000
0000
0000
0100
,
0010
1000
0001
0010
0100
0000
0000
0000
,
0000
0000
0000
1000
0100
0010
0001
1000
,
0001
0000
0000
0000
0000
0000
0000
0001
,
0010
0100
1000
0001
1000
0000
0000
0000
,
0000
0000
0000
1000
0100
1000
0001
0010
,
0100
1000
0010
0100
0010
1000
0001
1000
,
0100
1000
0001
0010
0200
0000
0000
0000
,
0000
0000
0000
0000
,
0000
0000
0000
0300
0000
0000
0000
0000
;

//---------------dance-single - ----------------
#NOTES:
     dance-single:
     :
     Beginner:
     3:
     0.149952,0.267899,0.054833,0.000000,0.000000,134.000000,127.000000,7.000000,0.000000,0.000000,0.000000,0.149952,0.267899,0.054833,0.000000,0.000000,134.000000,127.000000,7.000000,0.000000,0.000000,0.000000:
0000
0000
0000
0000
,
0000
0000
0000
0000
,
0000
0000
0000
0000
,
1000
0000
0000
0001
0000
0000
0100
0000
,
0000
0010
0000
1001
,
0000
0000
0000
1000
,
0000
0000
0000
0001
,
0000
0000
0000
0100
,
0010
0000
0000
0000
,
0100
0000
0000
0000
,
0010
0000
0000
0000
,
1000
0000
0000
0001
,
0000
1000
0000
0010
,
0010
0000
0100
0001
,
0000
0000
0000
1000
,
0000
0000
1001
0000
,
0000
1001
0000
0000
,
0010
0000
0100
0000
,
0000
0000
0001
0000
,
0000
0000
1000
0001
,
0000
0000
0000
0100
,
0000
0000
0000
0010
,
0000
0000
0000
0010
,
0000
0000
1000
0000
,
0001
0000
1000
1000
,
0000
0001
0100
0000
,
0000
0000
0010
0000
,
0000
0100
0000
0000
,
0010
0000
0000
1000
,
0000
0000
0100
0000
,
0000
1000
0001
0000
,
0000
0000
1000
1000
,
0001
0001
0000
0000
,
0100
0000
0000
0010
0000
0010
0000
0010
,
0000
0100
0000
0000
,
0010
0000
0000
0000
,
0000
0000
0100
0000
,
0000
0000
0001
0000
,
0000
1000
1000
1000
,
0000
0000
0001
0001
,
0100
0000
0000
0010
,
0000
0000
0100
0000
,
0010
0000
1001
0000
,
0000
0000
0000
0010
0000
0000
0000
0000
,
0000
0000
1000
0000
,
0001
0000
1000
0000
,
0000
0001
0000
0100
,
0000
0000
0001
0000
,
0000
0000
0100
0000
,
0000
0000
0010
0000
,
0000
0000
1000
0000
,
0000
0000
0010
0000
,
0000
0000
1000
0000
0000
0010
0000
0000
,
0000
0100
0000
0000
0000
0000
0000
0000
,
0000
0000
0010
0000
0000
0100
0000
0000
,
0000
0001
0000
0000
0000
0000
0000
0000
,
0000
0000
1000
0000
0000
0001
0000
0000
,
0000
1000
0000
0000
0000
0000
0000
0000
,
0000
0000
0010
0000
0000
0100
0000
0000
,
0000
0010
0000
0000
0000
0000
1000
0000
,
0000
0001
0000
0100
,
0000
0000
0000
0010
,
0000
0000
0000
0000
,
0000
1001
0000
0000
,
0000
0000
0000
1001
,
0000
0000
0000
0010
,
0000
0000
0000
0100
,
0010
0000
0000
0000
,
1000
0000
0000
0000
,
0001
0000
0000
0000
,
1000
0000
0000
0010
,
0000
0100
0000
0001
,
0001
0000
1000
0001
,
0000
1000
1000
0001
,
0000
0100
0010
0000
,
0100
0000
0010
0000
0000
0000
0000
1000
,
0000
0000
0000
0000
0000
0001
0000
0000
,
0000
0000
0000
0010
0000
0000
0000
0001
,
0000
0000
0000
0000
0000
0000
0000
0001
,
0000
0000
0000
0000
,
0000
0000
0000
1000
0000
0000
0000
0000
,
0000
0000
0000
0000
0000
0000
0000
0010
,
0000
0000
0000
0000
,
0000
0000
0000
0100
0000
0000
0100
0010
,
0000
0000
0010
1000
0000
0000
0001
1000
,
0000
0000
1001
0000
;
