#TITLE:Awake,Speedy;
#SUBTITLE:;
#ARTIST:DJ MURASAME;
#TITLETRANSLIT:;
#SUBTITLETRANSLIT:;
#ARTISTTRANSLIT:;
#GENRE:;
#CREDIT:;
#BANNER:Awake,Speedy.png;
#BACKGROUND:Awake,Speedy-bg.png;
#LYRICSPATH:;
#CDTITLE:;
#MUSIC:Awake,Speedy.ogg;
#OFFSET:-1.608999;
#SAMPLESTART:63.993999;
#SAMPLELENGTH:12.799995;
#SELECTABLE:YES;
#BPMS:0.000000=150.000000
;
#STOPS:
;
#BGCHANGES:;
#KEYSOUNDS:;
#ATTACKS:;

//---------------dance-single - ----------------
#NOTES:
     dance-single:
     :
     Hard:
     8:
     0.445691,0.542995,0.166709,0.174648,0.174648,393.000000,372.000000,21.000000,22.000000,0.000000,0.000000,0.445691,0.542995,0.166709,0.174648,0.174648,393.000000,372.000000,21.000000,22.000000,0.000000,0.000000:
0000
0000
0000
0000
,
0001
1000
0001
1000
,
0001
1000
0001
0000
,
0100
0010
0100
0010
,
0100
0010
0100
0000
,
0001
1000
0001
1000
,
0002
0023
0230
0300
,
1001
0000
0000
0000
1000
0000
0000
0010
0000
0000
0100
0000
0001
0000
0010
0000
,
0001
0000
0000
0000
1000
0000
0000
0100
0000
0000
1000
0000
0001
0000
1000
0000
,
0010
0000
0000
0000
0100
0000
0000
0001
0000
0000
0010
0000
0100
0000
0010
0000
,
0001
0000
1000
0010
0100
0001
0010
0001
,
1000
0000
0000
0000
0001
0000
0000
0100
0000
0000
0001
0000
0010
0000
0100
0000
,
0010
0000
0000
0000
0100
0000
0000
1000
0000
0000
0010
0000
0100
0000
0010
0000
,
1000
0001
1000
0001
1000
0001
1000
0001
,
1000
0010
0200
0000
0310
1000
1000
0001
,
0001
0000
0000
0000
0010
0000
0000
0000
0001
0000
0000
1000
0000
0010
0000
0000
,
0100
0000
0000
0000
0010
0000
0000
0000
1000
0000
0000
0100
0000
1000
0000
0000
,
0100
0000
0000
0000
1000
0000
0000
0000
0001
0000
0000
0100
0000
0010
0000
0000
,
0100
0000
0000
0000
0001
0000
0000
0000
0010
0000
0000
0100
0000
0010
0000
0000
,
1001
0000
0000
0000
1000
0000
0000
0000
0010
0000
0000
0100
0000
0100
0000
0000
,
0010
0000
0000
0000
1000
0000
0000
0000
0100
0000
0000
0010
0000
0010
0000
0000
,
0100
0000
0000
0000
0010
0000
0000
0000
0001
0000
0000
0100
0000
0100
0000
0000
,
0020
2030
3200
0320
,
0031
0100
0010
1000
,
1100
1000
0010
0100
,
0101
0001
1000
1010
,
0010
1000
0011
0010
,
0010
0001
0100
0000
0010
1000
0100
0000
,
0010
0001
0100
0000
0010
1000
0100
0000
,
0010
0000
0000
0001
0000
0000
0100
0000
0000
0000
0010
0000
1000
0000
0001
0000
,
0020
0000
0000
0000
0000
0000
0000
0030
,
1001
0000
0000
1000
0000
0000
0010
0000
0000
0100
0000
0000
0001
0000
0000
0000
,
0010
0000
0001
0000
1000
0000
0100
1000
,
0010
0000
0000
1000
0000
0000
0001
0000
0000
0100
0000
0000
0010
0000
0000
0000
,
1000
0000
0000
0000
0100
0000
0000
0000
4000
0040
0000
0000
0000
0000
0000
3030
,
0100
0000
0000
0001
0000
0000
0010
0000
0000
0001
0000
0000
1000
0000
0000
0100
,
0000
0000
1000
0000
0010
0000
0100
0001
,
0010
0000
0000
0001
0000
0000
1000
0000
0000
0000
0100
0000
1000
0000
0010
0000
,
0100
0000
0000
0000
,
0001
1000
0100
0000
0010
0001
0010
0000
,
0100
0010
0100
0000
1000
0100
1000
0000
,
0020
0100
0100
0100
,
0100
0000
0100
0000
0130
0000
0010
1000
,
0100
0010
0001
0000
0010
0100
0010
0000
,
0100
1000
0100
0000
1000
0001
1000
0000
,
0002
0100
0100
0100
,
2003
0000
0010
0000
0010
0000
3010
0100
,
0001
1000
0100
1000
,
0010
0000
0100
0000
0001
0100
0010
0100
,
0000
0110
0000
0010
0000
0110
0000
0100
,
0000
0010
0000
1000
0000
0001
1000
0100
,
0000
1100
0000
1000
0000
1001
0000
0001
,
0000
0010
0000
0001
0000
0100
0000
1000
,
0000
0100
0000
0010
0000
1000
0000
0010
,
0200
0000
0000
0000
,
0310
0000
1000
0000
0100
0000
0000
1000
0000
0001
0000
0000
0100
0000
0010
0000
,
1000
0000
0001
0000
0010
0000
0000
0001
0000
1000
0000
0000
0010
0000
1000
0000
,
0010
0000
0100
0000
0001
0000
0000
0010
0000
0001
0000
0000
1000
0000
0100
0000
,
1000
0000
0010
0000
0001
0000
0010
0000
0100
0010
0000
1000
0000
0001
0010
0000
,
0100
0000
0010
0000
0001
0000
0000
1000
0000
1000
0000
0000
0010
0000
1000
0000
,
0100
0000
1000
0000
0001
0000
0010
0000
0000
0100
0000
0000
0010
0000
0001
0000
,
1000
0000
0010
0000
0100
0000
0000
0001
0000
0001
0000
0000
0010
0000
0100
0000
,
1000
0000
0010
0000
0100
0000
0000
0010
0000
0000
1000
0000
0001
0000
0001
0000
,
1001
1000
0010
0000
1001
0001
0010
0000
,
1001
1000
0100
0000
1001
0001
0100
0000
,
1001
1000
0010
0000
1001
0001
0010
0000
,
1001
0001
0010
0010
0001
0000
0100
0001
,
1000
0001
0100
0010
2000
3020
0230
0302
,
0013
0100
1000
0000
0001
0100
1000
0000
,
1000
0100
0001
0000
0001
0010
1000
0000
,
1000
0010
0001
0000
0001
1000
0100
0000
,
4004
0000
0000
0000
,
0000
0000
0000
0000
0000
0000
0000
3003
,
0440
0000
0000
0000
,
0000
0000
0000
0330
,
2002
3000
2000
3000
0200
0300
0200
0000
,
0303
0000
0000
0000
;

//---------------dance-single - ----------------
#NOTES:
     dance-single:
     :
     Medium:
     6:
     0.343625,0.506081,0.182586,0.095262,0.031754,303.000000,280.000000,23.000000,12.000000,0.000000,0.000000,0.343625,0.506081,0.182586,0.095262,0.031754,303.000000,280.000000,23.000000,12.000000,0.000000,0.000000:
0000
0000
0000
0000
,
1000
0001
1000
0001
,
1000
0001
1000
0000
,
0010
0100
0010
0100
,
0010
0100
0010
0000
,
1000
0001
1000
0001
,
0020
0000
0000
0030
,
1001
0000
0001
0000
0100
0000
0001
0100
,
0001
0000
0100
0000
0010
0000
1000
0010
,
1000
0000
0010
0000
0100
0000
0010
0100
,
0010
0000
0100
0000
0010
0000
1000
0010
,
1000
0000
0010
0000
0100
0000
0001
1000
,
0001
0010
0001
1000
,
0100
0100
0100
0100
,
0000
1000
0100
0000
0010
0100
0000
0000
,
0010
0001
0100
0110
,
0010
1000
0100
0110
,
0010
0001
0100
0110
,
0010
1000
0100
0110
,
0100
0010
0001
1001
,
0001
1000
0100
1001
,
0001
0010
0100
1001
,
0020
0000
0000
0030
,
0100
0001
0100
0001
,
0101
0001
1000
0100
,
1100
1000
0010
0110
,
0100
0001
1001
1000
,
0100
1100
1000
1010
,
0010
0110
0100
0101
,
1001
0110
1001
0220
,
0330
0000
0000
0000
,
0010
0000
0000
1000
0000
0000
0010
0000
0000
0100
0000
0000
0001
0000
0000
0000
,
0000
0000
0000
0000
0000
0000
0000
0010
,
0001
0000
0000
0010
0000
0000
0100
0000
0000
0010
0000
0000
0001
0000
0000
0000
,
0000
0000
2000
0000
,
3001
0000
0000
1000
0000
0000
0010
0000
0000
1000
0000
0000
0100
0000
0000
1000
,
0000
0000
0000
0000
0000
0000
0000
0100
,
1000
0000
0000
0010
0000
0000
0100
0000
0000
0000
0010
0000
0100
0000
0010
0000
,
1000
0000
0000
0000
,
0001
0000
1000
0000
0010
1000
0000
0000
,
0010
0100
0000
0000
0010
1000
0000
0000
,
0202
0000
0000
0000
,
0000
0000
0000
0303
,
0001
1000
0010
0000
1000
0100
0000
0000
,
0100
0010
0000
0000
0001
1000
0000
0000
,
2020
0000
0000
3000
,
0200
0000
0000
0330
,
0001
1000
0010
1000
,
0100
0000
1000
0000
0010
0100
0010
0100
,
0000
0100
0000
0010
0000
0010
0000
1000
,
0000
0001
0000
1000
0000
0001
1000
0010
,
0000
1000
0000
0010
0000
1000
0000
0001
,
0000
0100
0000
0001
0000
0100
0000
0001
,
0020
0000
0000
0000
,
0200
0000
0000
0330
,
0100
0000
0010
0000
0001
0000
1000
0001
,
0100
0000
0001
0000
1000
0000
0010
1000
,
0100
0000
1000
0000
0010
0000
0100
0010
,
1000
0000
0001
0000
1000
0100
0010
0001
,
1000
0000
0001
0000
0100
0001
0100
0000
,
0010
0000
1000
0000
0100
1000
0100
0000
,
1000
0000
0010
0000
0100
0010
1000
0000
,
0001
0000
0010
0000
0100
0010
0001
0000
,
1000
0001
1000
0000
0001
1000
0001
0000
,
0100
0010
0100
0000
0010
0100
0010
0000
,
1000
0010
1000
0000
0010
0100
0010
0000
,
0100
0001
0100
0000
0001
0010
0001
0000
,
0010
0100
0010
0000
0100
1000
0100
0000
,
1000
0000
0100
0000
0010
0001
0100
0000
,
0010
0100
0010
0000
0010
1000
0100
0010
,
0001
1000
0001
1000
0100
0010
0001
0100
,
4004
0000
0000
0000
,
0000
0000
0000
0000
,
0000
0000
0000
0000
,
0000
0000
0000
0000
,
3003
0000
0000
0000
;

//---------------dance-single - ----------------
#NOTES:
     dance-single:
     :
     Easy:
     3:
     0.170111,0.297695,0.111139,0.182586,0.000000,150.000000,136.000000,14.000000,23.000000,0.000000,0.000000,0.170111,0.297695,0.111139,0.182586,0.000000,150.000000,136.000000,14.000000,23.000000,0.000000,0.000000:
0000
0000
0000
0000
,
1000
0000
1000
0000
,
1000
0000
1000
0000
,
0001
0000
0001
0000
,
0001
0000
0001
0000
,
0100
0000
0100
0000
,
0020
0000
1030
0000
,
1001
0000
0001
0000
,
1000
0000
0010
0000
,
1000
0000
0100
0000
,
1000
0000
0001
0000
,
1001
0000
1000
0000
,
0001
0000
0100
0000
,
0001
0000
0010
0000
,
0001
1000
0100
0000
,
2000
0000
0010
3000
,
0002
0000
0100
0003
,
2000
0000
0010
3000
,
0002
0000
0100
0003
,
0020
0000
0100
0030
,
0002
0000
1000
0003
,
0200
0000
0010
0000
,
0302
0000
0000
0003
,
1000
0100
1000
0000
,
0100
0010
0100
0000
,
0010
0001
0010
0000
,
0001
1000
0001
0000
,
1000
0000
0001
0000
,
0100
0000
0010
0000
,
1000
0010
0100
0001
,
0020
0000
0000
0000
,
0130
0010
0001
1000
,
0000
0000
0000
0000
,
1000
0100
0010
0100
,
0000
0000
0020
0000
,
0031
0010
0001
1000
,
0100
0000
0000
0000
,
0100
1000
0010
0100
,
0001
0000
0000
0000
,
2000
0000
0000
0000
,
0000
0000
0000
3000
,
0020
0000
0000
0000
,
0000
0000
0000
0030
,
0200
0000
0000
0000
,
0000
0000
0000
0300
,
0002
0000
0000
0000
,
2000
0000
0000
3003
,
0020
0000
0000
0000
,
0000
0000
0000
0000
,
2030
0000
0000
0000
,
0000
0000
0000
0000
,
3200
0000
0000
0000
,
0000
0000
0000
0000
,
2300
0000
0000
0000
,
0002
0000
0000
3003
,
0001
0010
0001
0000
,
1000
0100
1000
0000
,
0100
0010
0100
0000
,
0010
0001
0010
0100
,
1000
0001
0010
0000
,
0001
1000
0010
0000
,
1000
0001
0100
0000
,
0001
1000
0100
0000
,
0110
0000
1001
0000
,
0110
0000
1001
0000
,
0101
0000
1010
0000
,
0101
0000
1010
0000
,
1100
0000
0011
0000
,
1100
0000
0100
0000
,
0100
0000
0100
0000
,
0100
0000
0100
0000
,
2002
0000
0000
0000
,
0000
0000
0000
0000
,
0000
0000
0000
0000
,
0000
0000
0000
0000
,
3003
0000
0000
0000
;

//---------------dance-single - ----------------
#NOTES:
     dance-single:
     :
     Beginner:
     1:
     0.103201,0.148847,0.039693,0.007939,0.000000,91.000000,86.000000,5.000000,1.000000,0.000000,0.000000,0.103201,0.148847,0.039693,0.007939,0.000000,91.000000,86.000000,5.000000,1.000000,0.000000,0.000000:
0000
0000
0000
0000
,
1000
0000
1000
0000
,
1000
0000
1000
0000
,
0001
0000
0000
0000
,
0100
0000
0000
0000
,
0001
0000
0000
0000
,
0010
0000
0000
0000
,
1001
0000
0000
0000
,
0010
0000
0000
0000
,
1000
0000
0000
0000
,
0001
0000
0000
0000
,
0010
0000
0000
0000
,
0001
0000
0000
0000
,
1000
0000
0000
0000
,
0000
1000
1000
0000
,
0010
0000
0000
0000
,
0100
0000
0000
0000
,
0001
0000
0000
0000
,
1000
0000
0000
0000
,
0001
0000
0000
0000
,
0100
0000
0000
0000
,
0001
0000
0000
0000
,
0010
0000
0000
0000
,
0100
0000
0000
0000
,
1000
0000
0000
0000
,
1000
0000
0000
1000
,
0000
0000
1000
0000
,
0001
0000
0001
0000
,
1000
0000
1000
0000
,
0010
0000
0010
0000
,
0100
0000
0000
0000
,
1001
0000
0000
0000
,
0000
0000
0000
0000
,
0110
0000
0000
0000
,
0000
0000
0100
0000
,
1001
0000
0000
0000
,
0000
0000
0000
0000
,
0110
0000
0000
0100
,
0100
0000
0000
0000
,
1000
0000
0001
0000
,
0001
0000
0001
0000
,
0100
0000
0000
0000
,
0000
0000
0000
0000
,
0010
0000
1000
0000
,
1000
0000
1000
0000
,
0100
0000
0000
0000
,
0010
0000
0000
0000
,
0001
0000
0000
0000
,
0000
0000
0000
0000
,
1000
0000
0000
0000
,
0000
0000
0000
0000
,
0010
0000
0000
0000
,
0000
0000
0000
0000
,
0100
0000
0000
0000
,
0001
0000
0000
0000
,
1000
0000
0000
0000
,
0010
0000
0000
0000
,
0100
0000
0000
0000
,
0001
0000
1000
0000
,
0010
0000
0000
0000
,
0100
0000
0000
0000
,
0001
0000
0000
0000
,
1000
0000
0000
0000
,
0010
0000
0010
0000
,
0100
0000
0100
0000
,
0001
0000
0001
0000
,
1000
0000
1000
0000
,
0010
0000
0100
0000
,
0010
0000
1000
0000
,
1000
0000
0001
0000
,
0001
0000
0100
0000
,
0020
0000
0000
0000
,
0000
0000
0000
0000
,
0000
0000
0000
0000
,
0000
0000
0000
0000
,
0030
0000
0000
0000
;

//---------------dance-single - ----------------
#NOTES:
     dance-single:
     :
     Challenge:
     11:
     0.745087,0.982392,0.341357,0.754160,0.785914,657.000000,614.000000,43.000000,95.000000,0.000000,0.000000,0.745087,0.982392,0.341357,0.754160,0.785914,657.000000,614.000000,43.000000,95.000000,0.000000,0.000000:
// measure 0
0000
0000
0000
0000
,  // measure 1
1000
0010
0100
0001
,  // measure 2
0010
0001
1000
0000
,  // measure 3
0001
0010
0001
1000
,  // measure 4
0100
1000
0010
0000
,  // measure 5
0100
0010
1000
0001
,  // measure 6
2000
3200
0320
0130
,  // measure 7
1001
0000
0001
0100
0010
0000
1000
0010
0000
0010
1000
0000
0001
1000
0001
1000
,  // measure 8
0010
0000
1000
0001
1000
0000
0010
1000
0000
1000
0010
1000
0010
1000
0100
0000
,  // measure 9
0010
0000
0100
0010
0001
0000
1000
0001
0000
0001
0100
0000
0010
0100
0010
0000
,  // measure 10
1000
0000
0001
1000
0100
0000
0100
0000
0010
0000
0001
1000
0001
1000
0001
1000
,  // measure 11
0010
0000
1000
0010
0100
0000
0001
0100
0000
0001
1000
0000
0100
0010
0100
0010
,  // measure 12
0001
0000
1000
0010
1000
0000
0100
0010
0000
0010
0001
1000
0001
1000
0010
1000
,  // measure 13
0001
1000
0001
1000
0001
1000
0001
1000
0001
1000
0001
1000
0001
1000
0001
1000
,  // measure 14
0010
0000
0100
0000
0002
0000
0000
0000
0023
0000
0130
0200
0000
1300
2000
0000
,  // measure 15
3010
0100
0000
0100
0001
0000
1000
0001
0010
0000
0100
0010
0000
0001
0000
0000
,  // measure 16
1000
0010
0000
0010
1000
0000
0001
0010
0100
0000
0010
0001
0000
1000
0000
0000
,  // measure 17
0001
0100
0000
0100
0001
0000
0010
0100
1000
0000
0100
1000
0000
0001
0000
0000
,  // measure 18
1000
0010
0000
0010
1000
0000
0100
0010
0001
0000
0010
0001
0000
1000
0000
0000
,  // measure 19
0001
0100
0000
0100
0010
0000
0100
0010
1000
0000
0001
1000
0000
0100
0000
0000
,  // measure 20
0010
0001
0000
0001
0100
0000
0010
1000
0100
0000
0010
0100
0000
1000
0000
0000
,  // measure 21
0100
0010
0000
0010
0001
0000
0100
0001
0010
0000
0100
0010
0000
0001
0000
0000
,  // measure 22
2000
3100
0002
0013
,  // measure 23
1001
0000
0001
0100
0010
0000
0010
1000
0000
1000
0010
0000
0100
0001
0010
0100
,  // measure 24
0010
0000
0100
0010
0001
0000
1000
0001
0000
0001
0100
0010
1000
0010
1000
0000
,  // measure 25
0100
0000
0010
0001
0010
0000
0001
1000
0000
1000
0010
0100
0001
0000
1000
0100
,  // measure 26
1000
0000
0100
0010
0000
0010
0001
0000
1000
0000
0001
0100
0001
0000
0100
0010
,  // measure 27
0100
0001
0010
0000
0100
0000
0010
0001
1000
0010
0100
0000
0010
0000
0100
0010
,  // measure 28
1000
0001
0010
0000
0100
0000
0010
0001
1000
0100
1000
0000
0010
0000
1000
0010
,  // measure 29
0100
0000
0001
0100
0000
0100
0010
0000
0000
0100
0010
1000
0001
0010
0100
0000
,  // measure 30
2000
0000
0000
0000
0000
0000
0000
3000
,  // measure 31
0101
0000
0000
0011
0000
0000
1100
0000
0000
1010
0000
0000
1001
0000
1000
0000
,  // measure 32
0100
0000
1000
0000
0010
0000
0100
0001
,  // measure 33
0011
0000
0000
1100
0000
0000
1010
0000
0000
0101
0000
0000
1001
0000
0000
0000
,  // measure 34
0001
0000
0000
0000
0010
0000
0000
0000
0400
4000
0000
0000
0000
0000
0000
3300
,  // measure 35
0011
0000
0000
1001
0000
0000
1010
0000
0000
1001
0000
0000
0011
0000
0000
1100
,  // measure 36
0000
0100
0010
0000
0001
0000
1000
1001
,  // measure 37
0011
0000
0000
0110
0000
0000
0011
0000
0000
0000
0011
0000
0101
0000
1010
0000
,  // measure 38
1001
0000
1000
0000
0100
0000
1000
0000
0001
0000
0010
0100
0010
0001
1000
0010
,  // measure 39
0200
0000
0010
0000
0310
0000
0000
0001
1000
0000
1000
0000
0100
0000
0000
0010
,  // measure 40
0100
0000
0100
0000
1000
0000
0000
0001
0100
0000
0100
0000
0010
0000
0000
1000
,  // measure 41
0200
1000
0010
0001
,  // measure 42
0010
0000
0000
0000
1000
0000
0000
0000
0310
0000
0000
0100
0010
0000
0001
0000
,  // measure 43
1000
0000
0001
0000
0200
0000
0000
0310
1000
0000
1000
0000
0001
0000
0000
0010
,  // measure 44
0100
0000
0100
0000
0010
0000
0000
0001
1000
0000
1000
0000
0100
0000
0000
0000
,  // measure 45
0021
0100
0001
0130
,  // measure 46
0210
0000
0000
0000
1000
0000
0000
0000
0310
0000
0000
0001
1000
0000
0010
0000
,  // measure 47
0200
0010
0001
0010
,  // measure 48
0001
0000
0010
0000
0301
0010
0100
1200
,  // measure 49
0000
0310
0000
0012
0000
0103
0000
0001
,  // measure 50
0000
0000
0010
0000
0000
0000
0001
0000
0000
0000
1000
0001
1000
0000
1200
0000
,  // measure 51
0000
0310
0000
0012
0000
0103
0000
2001
,  // measure 52
0000
3010
0000
0210
0000
1300
0000
0120
,  // measure 53
0000
1030
0000
0102
0000
0013
0000
0001
,  // measure 54
0200
0000
0000
0000
,  // measure 55
0310
0000
1000
0000
0100
0000
1000
0001
0000
0100
0000
0001
0010
0100
0010
0000
,  // measure 56
0100
0000
0010
0000
0001
1000
0001
0100
0000
0100
0000
0010
1000
0000
1000
0000
,  // measure 57
0001
0000
0010
0000
0100
0010
0001
1000
0000
0001
0100
0000
0010
0000
1000
0000
,  // measure 58
0100
0000
1000
0000
0001
0000
0100
0000
0001
0010
0100
1000
0100
0010
0100
1000
,  // measure 59
0001
0000
0010
0000
0001
0000
1000
0010
0000
1000
0010
0000
0100
0010
1000
0001
,  // measure 60
0010
0000
0001
0000
1000
0000
0100
0000
0000
1000
0000
0000
1000
0010
0100
0001
,  // measure 61
0010
0000
0100
0000
0010
0001
1000
0010
0000
0100
0001
0000
0010
0000
0100
0000
,  // measure 62
0010
0000
0001
0000
0100
0000
0001
1000
0000
1000
0100
0010
0100
0010
0100
0000
,  // measure 63
1001
0001
0020
0030
1001
1000
0020
0030
,  // measure 64
1001
0001
0020
0030
1001
1000
0200
0300
,  // measure 65
1001
1000
0020
0030
1001
0001
0200
0310
,  // measure 66
1001
0000
0001
0000
0010
0100
0010
0000
0100
0000
1000
0000
0001
0100
0001
0000
,  // measure 67
0010
0000
0100
0000
0010
0000
0001
0000
4000
0004
0000
0000
0000
0000
3003
0000
,  // measure 68
0001
0000
0100
0000
0010
0000
0000
0100
0001
0000
0001
0000
1000
0000
0000
0100
,  // measure 69
0010
0000
0010
0000
0001
0000
0000
0010
0100
0000
0100
0000
1000
0000
0000
0001
,  // measure 70
0100
0000
0100
0000
0010
0000
0000
0100
0001
0000
0001
0000
1000
0000
0000
0001
,  // measure 71
2000
3200
0320
0032
0023
0230
2300
3200
0320
0032
0023
0230
0320
0032
0023
0230
,  // measure 72
2300
3200
0320
0230
2300
3200
0320
0032
0023
0230
0320
0032
0023
0230
2300
3200
,  // measure 73
2300
3200
0320
0032
0023
0230
2300
3200
0320
0032
0023
0230
0320
0032
0023
0230
,  // measure 74
2300
3200
0320
0230
2300
3200
0320
0032
0023
0230
0320
0032
0023
0230
2300
3002
,  // measure 75
1003
0000
0000
0000
;
