#VERSION:0.83;
#TITLE:Aquatic Poseidon;
#SUBTITLE:;
#ARTIST:RIC;
#TITLETRANSLIT:;
#SUBTITLETRANSLIT:;
#ARTISTTRANSLIT:;
#GENRE:;
#ORIGIN:;
#CREDIT:;
#BANNER:Aquatic Poseidon.png;
#BACKGROUND:Aquatic Poseidon-bg.png;
#PREVIEWVID:;
#JACKET:Aquatic_Poseidon-jacket.png;
#CDIMAGE:;
#DISCIMAGE:;
#LYRICSPATH:;
#CDTITLE:cdtitle.png;
#MUSIC:Aquatic Poseidon.mp3;
#OFFSET:-0.020000;
#SAMPLESTART:82.833900;
#SAMPLELENGTH:13.521133;
#SELECTABLE:YES;
#BPMS:0.000=142.000;
#STOPS:;
#DELAYS:;
#WARPS:;
#TIMESIGNATURES:0.000=4=4;
#TICKCOUNTS:0.000=4;
#COMBOS:0.000=1;
#SPEEDS:0.000=1.000=0.000=0;
#SCROLLS:0.000=1.000;
#FAKES:;
#LABELS:0.000=Song Start;
#BGCHANGES:;
#KEYSOUNDS:;
#ATTACKS:
;

//---------------dance-single - ----------------
#NOTEDATA:;
#CHARTNAME:;
#STEPSTYPE:dance-single;
#DESCRIPTION:;
#CHARTSTYLE:;
#DIFFICULTY:Hard;
#METER:8;
#RADARVALUES:0.453454,0.528892,0.149569,0.083094,0.328220,382.000000,364.000000,18.000000,10.000000,0.000000,0.000000,0.000000,0.000000,0.000000,0.453454,0.528892,0.149569,0.083094,0.328220,382.000000,364.000000,18.000000,10.000000,0.000000,0.000000,0.000000,0.000000,0.000000;
#CREDIT:;
#NOTES:
0000
0000
0000
0000
,
0001
0010
0001
0100
,
0001
0010
0001
0100
,
0001
1000
0001
0010
,
0001
1000
0001
0100
,
0010
1000
0010
0100
,
0010
1000
0010
1000
,
0100
0001
0100
0010
,
0100
0001
0100
0010
,
0001
1000
0010
0000
0100
0001
0010
0000
,
0100
0010
0001
1000
,
0001
0100
0010
0000
1000
0001
0100
0000
,
0010
1000
0100
1000
,
0001
0000
1000
0000
0000
0010
0000
0000
0100
0000
0001
0000
0000
0010
0000
0000
,
0100
0000
1000
0000
0000
0001
0000
0000
0100
0000
0010
0000
0000
1000
0000
0000
,
0001
0000
0010
0000
0000
0100
0000
0000
0010
0000
0001
0000
0000
0010
0000
0000
,
0001
0000
1000
0000
0000
0001
0000
0000
0010
0000
0000
0001
0000
0000
1000
0000
,
0002
0000
0000
0000
,
0003
1000
0000
0010
0000
0100
0000
0001
,
0000
1000
0000
0010
0000
0100
0001
0010
,
0000
0000
0100
0000
0000
0000
1000
0000
0100
0000
0000
1000
0000
0000
0010
0000
,
0200
0000
0000
0000
,
0300
0010
0000
1000
0000
0010
0000
0100
,
0000
0001
0000
1000
0000
0100
1000
0100
,
0020
0031
1100
0101
,
0001
1000
0010
0100
0000
0000
0100
0010
1000
0001
0000
0000
,
0001
0000
0100
0000
0010
0000
1000
0000
0010
0000
0100
0000
0002
0000
0000
0000
0000
0000
0000
0000
0000
1003
0000
0000
,
0001
0010
0100
1000
0000
0000
1000
0100
0010
0001
0000
0000
,
0001
0000
0010
0000
0100
0000
1000
0000
0100
0000
0010
0000
0001
0000
0000
0010
0000
0000
1000
0000
0000
0010
0000
0000
,
0001
0100
0010
0100
0000
0000
0010
1000
0100
1000
0000
0000
,
0001
0000
0010
0000
0100
0000
0010
0000
0001
0000
1000
0000
0020
0000
0000
0000
0000
0000
0000
0000
0000
0130
0000
0000
,
0001
1000
0010
1000
0000
0000
0001
1000
0100
1000
0000
0000
,
0001
0000
0000
0000
1000
0000
0000
0000
0010
0000
0000
0000
1000
0000
0000
0000
0001
0000
0000
0000
0010
0000
0000
0000
0100
0000
0000
0000
0000
0000
0000
0000
0000
0010
0000
0000
0000
0000
0000
0000
0000
0000
0001
0000
0000
0000
0000
0000
,
1000
1000
0001
1000
0000
0000
0001
0001
1000
0001
0000
0000
,
0100
0000
0100
0000
0010
0000
0100
0000
0100
0000
0001
0000
0020
0000
0000
0000
0000
0000
0000
0000
0000
0130
0000
0000
,
0010
0010
0001
0010
0000
0000
0100
0100
1000
0100
0000
0000
,
1000
0000
0000
0000
1000
0000
0000
0000
0001
0000
0000
0000
0010
0000
0000
0000
0010
0000
0000
0000
0100
0000
0000
0000
1000
0000
0000
0000
0000
0000
0000
0000
0000
0100
0000
0000
0000
0000
0000
0000
0000
0000
1000
0000
0000
0000
0000
0000
,
0001
0001
1000
0001
0000
0000
1000
1000
0001
1000
0000
0000
,
0010
0000
0010
0000
0100
0000
0010
0000
0010
0000
0100
0000
0002
0000
0000
0000
0000
0000
0000
0000
0000
1003
0000
0000
,
0100
0100
0010
0001
0000
0000
0001
0001
1000
0100
0000
0000
,
0010
0000
0010
0000
0100
0000
1000
0000
1000
0000
0001
0000
1000
0000
0000
0100
0000
0000
0010
0000
0000
0001
0000
0000
,
0200
0010
0001
0310
,
1000
0100
0010
0010
,
0100
0010
0001
1000
,
0001
0000
0000
0000
1000
0000
0001
0000
0010
0000
0000
0100
0000
0000
1000
0000
,
0001
0100
1000
0100
,
0010
1000
0100
0100
,
0010
0001
0010
1000
,
0010
0000
0000
0000
0100
0000
0000
0000
0010
0000
0000
0100
0000
0000
0010
0000
,
0001
0000
1001
0000
0001
1000
0001
0000
,
1000
0000
1010
0000
0010
1000
0010
0000
,
0100
0000
0101
0000
0001
0100
0001
0000
,
1000
0000
1001
0000
1000
0100
0010
0001
,
1000
0000
1100
0000
0100
0010
0100
0000
,
0010
0000
0011
0000
0001
0100
0010
1000
,
0001
0000
0101
0000
0100
0001
0010
0000
,
0011
0000
0000
0000
0010
0000
0000
0000
0100
0000
0000
1000
0000
0000
0001
0000
,
0100
0000
0101
0000
0001
0100
0010
1000
,
0100
0000
0011
0000
0010
0100
1000
0100
,
1000
0000
1010
0000
0010
0100
0001
0010
,
0100
0000
0000
0000
1100
0000
0000
0000
1000
0000
0000
0001
0000
0000
0100
0000
,
0010
0000
1001
0000
0001
0010
0001
1000
,
0100
0000
1001
0000
1000
0001
0100
0001
,
1000
0000
1001
0000
1000
0001
0010
0001
,
0100
0000
0001
0000
1000
0100
0010
0001
,
2002
0000
0000
0000
,
0000
0000
0000
0000
,
3003
0000
0000
0000
;

//---------------dance-single - ----------------
#NOTEDATA:;
#CHARTNAME:;
#STEPSTYPE:dance-single;
#DESCRIPTION:;
#CHARTSTYLE:;
#DIFFICULTY:Easy;
#METER:4;
#RADARVALUES:0.235037,0.250528,0.016619,0.432087,0.000000,198.000000,196.000000,2.000000,52.000000,0.000000,0.000000,0.000000,0.000000,0.000000,0.235037,0.250528,0.016619,0.432087,0.000000,198.000000,196.000000,2.000000,52.000000,0.000000,0.000000,0.000000,0.000000,0.000000;
#CREDIT:;
#NOTES:
0000
0000
0000
0000
,
0000
0000
0000
0000
,
0000
0000
0000
0000
,
0000
0000
0000
0000
,
0000
0000
0000
0000
,
1000
1000
0001
0000
,
0100
0000
0001
0000
,
0001
0001
0010
0000
,
0100
0000
0010
0000
,
0001
0100
0000
0010
,
1000
0001
0000
1000
,
0100
0010
0000
0100
,
0010
0001
0000
1000
,
0001
0100
0000
0001
,
1000
0010
0000
1000
,
0001
0010
0000
0100
,
0010
0001
0010
0100
,
2001
0000
0000
0000
,
3000
0001
0000
0100
,
0010
0000
1000
0000
,
0010
0000
0100
0001
,
2000
0000
0000
0000
,
3001
0000
1000
0000
,
0010
0000
0100
0000
,
2002
0000
3000
0003
,
0002
0103
0002
1003
,
0002
2003
0200
3300
,
2000
3001
2000
3010
,
2000
3002
0203
0320
,
2030
3100
2000
3001
,
2000
3200
0020
0330
,
0020
0031
0020
0130
,
0002
0023
0200
0330
,
0200
1300
0200
0301
,
0200
2300
3020
0000
,
0230
0301
0200
1300
,
0200
0320
2030
3002
,
0023
1030
0020
0031
,
0020
0230
2000
3300
,
2000
3100
2000
3001
,
2000
3002
0203
0320
,
1030
1000
0001
0000
,
0100
0001
0010
0000
,
0100
1000
0001
0000
,
1000
0010
0200
0302
,
1003
0000
0100
0000
,
1000
0000
0010
0100
,
0001
0000
1000
0000
,
0001
0000
1000
0001
,
0100
0001
0010
0001
,
0100
0001
0010
0010
,
0001
1000
0100
1000
,
0010
0100
0001
0010
,
0100
1000
0010
1000
,
0100
1000
0010
1000
,
0100
0010
0001
0010
,
0100
0010
0001
0010
,
0100
1000
0100
0001
,
0100
1000
0010
0100
,
0001
0010
1000
0010
,
0001
1000
0001
0100
,
0010
0001
0010
1000
,
0010
0100
1000
0100
,
0001
0100
0010
1000
,
0001
1000
0002
2003
,
0020
0000
0000
0000
,
0000
0000
0000
0000
,
3030
0000
0000
0000
;

//---------------dance-single - ----------------
#NOTEDATA:;
#CHARTNAME:;
#STEPSTYPE:dance-single;
#DESCRIPTION:;
#CHARTSTYLE:;
#DIFFICULTY:Medium;
#METER:6;
#RADARVALUES:0.341871,0.528892,0.141259,0.132950,0.145414,288.000000,271.000000,17.000000,16.000000,0.000000,0.000000,0.000000,0.000000,0.000000,0.341871,0.528892,0.141259,0.132950,0.145414,288.000000,271.000000,17.000000,16.000000,0.000000,0.000000,0.000000,0.000000,0.000000;
#CREDIT:;
#NOTES:
0000
0000
0000
0000
,
0000
0000
0000
0000
,
0000
0000
0000
0000
,
0000
0000
0000
0000
,
0000
0000
0000
0000
,
1000
0000
0001
0100
0000
0001
0010
0000
,
0100
0010
0001
0100
,
0010
0000
1000
0100
0000
1000
0001
0000
,
0100
0000
0001
0000
0010
0000
0001
1000
,
0100
0000
1000
0000
0010
0100
0010
0000
,
0100
0000
0001
0000
0010
0100
1000
0000
,
0100
0000
1000
0000
0001
0100
0001
0000
,
0010
0000
0100
0000
0010
0001
1000
0000
,
0001
0000
0100
0000
0010
1000
0010
0000
,
0100
0000
0010
0000
1000
0001
0010
0000
,
0100
0000
0010
0000
0001
0100
0001
0000
,
0010
0000
0000
0000
0100
0000
0000
0000
1000
0000
0000
0100
0000
0000
1000
0000
,
0020
0000
0000
0000
,
0030
0000
0000
0000
,
0100
0000
0010
0000
,
1000
0000
0001
1000
,
0200
0000
0000
0000
,
1300
0000
0010
0100
,
0010
0000
0100
0000
,
0001
0000
1001
0110
,
1002
0013
2001
3010
,
1001
0110
2001
3000
,
0201
0310
2100
3010
,
1000
0000
0100
0000
0010
0001
1000
0000
,
0012
0103
2010
3100
,
1010
0011
2002
3003
,
0021
0130
1020
0130
,
0102
0000
0000
0000
0013
0000
0000
0000
0100
0000
0000
1000
0000
0000
0001
0000
,
0100
0010
0100
0010
0000
0000
0100
0010
0100
0010
0000
0000
,
1000
0000
0001
0000
1000
0000
0001
0000
1000
0000
0001
0000
1000
0000
0000
0000
0000
0000
0000
0000
0000
1000
0000
0000
,
0001
0100
0001
0100
0000
0000
0010
1000
0010
1000
0000
0000
,
0001
0000
0000
0000
1000
0000
0000
0000
0001
0000
0000
0000
1000
0000
0000
0000
0001
0000
0000
0000
1000
0000
0000
0000
0001
0000
0000
0000
0000
0000
0000
0000
0000
0100
0000
0000
0000
0000
0000
0000
0000
0000
0010
0000
0000
0000
0000
0000
,
1000
0100
1000
0100
0000
0000
0010
0001
0010
0001
0000
0000
,
1000
0000
0001
0000
1000
0000
0001
0000
1000
0000
0001
0000
1000
0000
0000
0000
0000
0000
0000
0000
0000
0010
0000
0000
,
0100
0001
0100
0001
0000
0000
1000
0010
1000
0010
0000
0000
,
1000
0000
0001
0000
1000
0000
0001
0000
1000
0000
0001
0000
1000
0000
0000
0100
0000
0000
0010
0000
0000
0001
0000
0000
,
2000
0000
0000
0000
,
3001
0000
1000
0100
,
0010
0000
0100
0000
,
1000
0000
0001
0010
,
0100
0000
0010
0000
,
0001
0000
1000
0001
,
0100
0000
0001
0000
,
0010
0000
0100
1000
,
0001
0100
0001
0000
1000
0000
0010
0000
,
0100
0010
1000
0001
,
1000
0100
1000
0000
0010
0000
0100
0000
,
0001
0000
1000
0000
0100
0010
0001
0010
,
0100
0010
0001
1000
,
0010
1000
0001
0100
,
0010
0100
0010
0000
0100
0000
0001
0000
,
1000
0000
0100
1000
0010
0000
0100
0000
,
0001
1000
0010
0000
1000
0000
0001
0000
,
0100
0000
0010
0000
1000
0010
0100
0000
,
0001
0010
0001
0000
0010
0000
0001
0000
,
1000
0000
0100
0000
1000
0010
0100
0001
,
1000
0100
0001
0100
,
0010
0000
0001
0000
0010
0000
1000
0010
,
0100
1000
0010
0100
,
0001
0000
1000
0000
0001
0010
0100
1000
,
0020
0000
0000
0000
,
0000
0000
0000
0000
,
0030
0000
0000
0000
;

//---------------dance-single - ----------------
#NOTEDATA:;
#CHARTNAME:;
#STEPSTYPE:dance-single;
#DESCRIPTION:;
#CHARTSTYLE:;
#DIFFICULTY:Beginner;
#METER:1;
#RADARVALUES:0.104461,0.189038,0.033237,0.000000,0.000000,88.000000,84.000000,4.000000,0.000000,0.000000,0.000000,0.000000,0.000000,0.000000,0.104461,0.189038,0.033237,0.000000,0.000000,88.000000,84.000000,4.000000,0.000000,0.000000,0.000000,0.000000,0.000000,0.000000;
#CREDIT:;
#NOTES:
0000
0000
0000
0000
,
0000
0000
0000
0000
,
0000
0000
0000
0000
,
0000
0000
0000
0000
,
0000
0000
0000
0000
,
0001
0000
0000
0000
,
0000
0000
0000
0000
,
0001
0000
0000
0000
,
0000
0000
0000
0000
,
0100
0000
0000
0000
,
0010
0000
0000
0000
,
0100
0000
0000
0000
,
0001
0000
0000
0000
,
1000
0000
0000
0000
,
0010
0000
0000
0000
,
0100
0000
0000
0000
,
0010
0000
1000
0000
,
0001
0000
0000
0000
,
0000
0000
0000
0000
,
0000
0000
0000
0000
,
0000
0000
0000
0000
,
1000
0000
0000
0000
,
0000
0000
0000
0000
,
0000
0000
0000
0000
,
0110
0000
0000
0000
,
1000
0000
1000
0000
,
1000
1000
1000
0000
,
0001
0000
0001
0000
,
0001
0001
0001
0000
,
0100
0000
0100
0000
,
0100
0100
0100
0000
,
0010
0000
0010
0000
,
0010
0010
0010
0000
,
1000
0000
0001
0000
,
1000
0001
1000
0000
,
0010
0000
0100
0000
,
0010
0100
0010
0000
,
1000
0000
0001
0000
,
1000
1000
0001
0000
,
0100
0000
0010
0000
,
0100
0100
0010
0000
,
1001
0000
0000
0000
,
0000
0000
0000
0000
,
1000
0000
0000
0000
,
0000
0000
0001
0000
,
0100
0000
0000
0000
,
0000
0000
0000
0000
,
0010
0000
0000
0000
,
1000
0000
0000
0000
,
1001
0000
0000
0000
,
1000
0000
1000
0000
,
0001
0000
0000
0000
,
0100
0000
0010
0010
,
0010
0000
0000
0000
,
0100
0000
0000
0000
,
0001
0000
0000
0000
,
1000
0000
0001
0000
,
0100
0000
0000
0000
,
0010
0000
0000
0000
,
1000
0000
0000
0000
,
0100
0000
1000
0000
,
0001
0000
0000
0000
,
0100
0000
0000
0000
,
0010
0000
0000
0000
,
1000
0000
0001
1000
,
1001
0000
0000
0000
;

//---------------dance-single - ----------------
#NOTEDATA:;
#CHARTNAME:;
#STEPSTYPE:dance-single;
#DESCRIPTION:;
#CHARTSTYLE:;
#DIFFICULTY:Challenge;
#METER:9;
#RADARVALUES:0.670685,0.807256,0.257591,0.448706,0.884948,565.000000,534.000000,31.000000,54.000000,0.000000,0.000000,0.000000,0.000000,0.000000,0.670685,0.807256,0.257591,0.448706,0.884948,565.000000,534.000000,31.000000,54.000000,0.000000,0.000000,0.000000,0.000000,0.000000;
#CREDIT:;
#NOTES:
// measure 0
0000
0000
0000
0000
,  // measure 1
0000
0000
0000
0000
,  // measure 2
0000
0000
0000
0000
,  // measure 3
0000
0000
0000
0000
,  // measure 4
0000
0000
0000
0000
,  // measure 5
1000
0000
0001
0100
0000
0001
1000
0000
0100
0000
0010
0001
0000
0010
0100
0000
,  // measure 6
1000
0000
0010
0100
0000
0010
0001
0000
0010
0000
0100
0001
0000
0100
0010
0000
,  // measure 7
1000
0000
0001
0010
0000
0001
0100
0000
0010
0000
1000
0100
0000
1000
0001
0000
,  // measure 8
0100
0000
0010
1000
0000
0010
0100
0000
0010
0000
0100
0001
0000
0100
0010
0000
,  // measure 9
1000
0001
0100
0000
0010
0100
0001
0100
,  // measure 10
0010
0000
0000
0000
0000
0000
1000
0001
0000
0100
0000
0001
0000
0000
0100
0000
,  // measure 11
0010
1000
0100
0000
0010
0100
1000
0001
,  // measure 12
1000
0000
0010
0000
0001
0000
0010
1000
0100
0000
0010
0001
0000
0001
1000
0000
,  // measure 13
0100
0000
1000
0100
0000
0010
0001
0000
0100
0000
0010
1000
0000
1000
0100
0000
,  // measure 14
0010
0000
0001
0100
0000
0010
1000
0000
0100
0000
0010
0100
0000
0100
1000
0000
,  // measure 15
0010
0000
0100
0001
0000
0001
0010
0000
0100
0000
0100
1000
0000
1000
0010
0000
,  // measure 16
0100
0000
0010
1000
0000
1000
0001
1000
0010
0000
0000
0100
0000
0000
0001
0000
,  // measure 17
2002
0000
0000
0000
0000
0000
0000
3003
,  // measure 18
0000
0001
0000
0100
0000
1000
0100
0001
,  // measure 19
0000
0010
0000
1000
0000
0010
0100
1000
,  // measure 20
0000
0000
0010
0000
0000
0000
0100
0001
0010
0000
0000
0100
0000
0000
0010
0000
,  // measure 21
0001
1000
0000
0010
0000
0001
0010
0100
,  // measure 22
0000
1000
0000
0100
0000
0001
0010
1000
,  // measure 23
0000
0010
0000
0100
0000
1000
0100
0010
,  // measure 24
0001
0100
1020
0230
,  // measure 25
0301
0001
1000
0001
0000
0000
1000
1000
0001
1000
0000
0000
,  // measure 26
0100
0000
0100
0000
0010
0000
0100
0000
0100
0000
0010
0000
0002
0000
0000
0000
0000
0000
0000
0000
0000
1003
0000
0000
,  // measure 27
0100
0100
0010
0001
0000
0000
0010
0010
0100
1000
0000
0000
,  // measure 28
0001
0000
0000
0000
0001
0000
0000
0000
1000
0000
0000
0000
0001
0000
0000
0000
0001
0000
0000
0000
1000
0000
0000
0000
0010
0000
0000
1000
0000
0000
0100
0000
0000
1000
0000
0000
0001
0000
0000
0010
0000
0000
0100
0000
0000
0010
0000
0000
,  // measure 29
0001
0001
0100
0001
0000
0000
0010
0010
0100
0010
0000
0000
,  // measure 30
0100
0000
0100
0000
1000
0000
0100
0000
0100
0000
1000
0000
0002
0000
0000
0000
0000
0000
0000
0000
0000
1003
0000
0000
,  // measure 31
0010
0010
0100
0010
0000
0000
0100
0100
0001
0100
0000
0000
,  // measure 32
0001
0000
0000
0000
0001
0000
0000
0000
1000
0000
0000
0000
0001
0000
0000
0000
0001
0000
0000
0000
1000
0000
0000
0000
0100
0000
0000
0000
0000
0000
0000
0000
0000
1000
0000
0000
0000
0000
0000
0000
0000
0000
0010
0000
0000
0000
0000
0000
,  // measure 33
0120
0130
0210
0310
0000
0000
2001
3001
1002
1003
0000
0000
,  // measure 34
0120
0000
0130
0000
0210
0000
0310
0000
0120
0000
0130
0000
0220
0000
0000
0000
0000
0000
0000
0000
0330
0100
0000
0000
,  // measure 35
1002
1003
2001
3001
0000
0000
0120
0130
0120
0130
0000
0000
,  // measure 36
1002
0000
0000
0000
1003
0000
0000
0000
2001
0000
0000
0000
3001
0000
0000
0000
1002
0000
0000
0000
1003
0000
0000
0000
0002
0000
0000
0000
0000
0000
0000
0000
0000
0023
0000
0000
0000
0000
0000
0000
0000
0000
0230
0000
0000
0000
0000
0000
,  // measure 37
1300
2100
3100
0120
0030
0000
0012
0013
0120
0130
0000
0000
,  // measure 38
2100
0000
3100
0000
0210
0000
0310
0000
0021
0000
0031
0000
2002
0000
0000
0000
0000
0000
0000
0000
3000
1000
0003
0000
,  // measure 39
0102
0103
0210
0310
0000
0000
0210
0310
1020
1030
0000
0000
,  // measure 40
2001
0000
0000
0000
3001
0000
0000
0000
0001
0000
0000
0000
0201
0000
0000
0000
0310
0000
0000
0000
1000
0000
0000
0000
0001
0000
0000
0100
0000
0000
0010
0000
0000
1000
0000
0000
0100
0000
0000
1000
0000
0000
0001
0000
0000
0100
0000
0000
,  // measure 41
0020
1000
0100
0001
,  // measure 42
0130
0001
0010
0001
,  // measure 43
1000
0100
1000
0010
0100
0001
0010
0001
,  // measure 44
1000
0000
0100
0000
0001
0000
0100
0000
0010
0000
0000
0001
0000
0000
0100
0000
,  // measure 45
0010
1000
0010
0000
0100
0001
0100
0000
0001
0010
0001
0000
0010
0100
0010
0000
,  // measure 46
0100
1000
0100
0000
1000
0001
1000
0000
0001
0100
0001
0000
0100
0010
0100
0000
,  // measure 47
0001
0100
0010
0000
0100
0010
1000
0000
1000
0100
0010
0000
0010
0001
0100
0000
,  // measure 48
0010
0100
0001
0000
1000
0001
0100
0010
2000
0000
0000
3200
0000
0000
0320
0000
,  // measure 49
0031
1000
0100
0000
1000
0010
0000
0100
0001
0010
0100
0000
1000
0100
0000
0100
,  // measure 50
0010
0001
0100
0000
0100
0010
0000
0010
0100
0001
1000
0000
1000
0100
0000
0000
,  // measure 51
0010
0001
0100
0000
0010
1000
0000
1000
0010
0100
0010
0000
1000
0001
0000
1000
,  // measure 52
0100
1000
0010
0000
0100
0001
0000
0010
0001
0100
0001
0010
0001
1000
0100
1000
,  // measure 53
0010
0100
0001
0000
0010
0100
0000
0100
0010
0001
1000
0000
0001
0100
0000
0100
,  // measure 54
0010
1000
0100
0000
0010
0001
0000
0001
0010
0001
0000
1000
0000
0000
0010
0000
,  // measure 55
0100
0001
0010
0000
0100
1000
0000
0100
1000
0010
0100
0000
0010
1000
0000
1000
,  // measure 56
0001
0010
0001
0000
0010
0001
0000
0010
0200
0000
0000
2300
0000
0000
3020
0000
,  // measure 57
0130
0001
0010
0000
0100
1000
0000
0100
1000
0010
0100
0000
0001
0100
0000
0100
,  // measure 58
0010
0000
0100
0000
0001
0000
1000
0100
0000
1000
0000
0010
0000
0000
0100
0000
,  // measure 59
0001
1000
0100
0000
0010
0001
0000
0010
0001
0100
0010
0000
1000
0010
0000
0100
,  // measure 60
0001
0000
1000
0001
0100
0000
0010
1000
0200
0000
0000
2300
0000
0000
3020
0000
,  // measure 61
0130
0001
0010
0000
0100
1000
0000
0100
1000
0010
0100
0000
0010
0100
0000
0100
,  // measure 62
0001
0000
0010
0000
0001
0000
1000
0001
0000
0100
0000
0010
1000
0000
0100
0000
,  // measure 63
0010
0001
0100
0000
0010
1000
0000
0010
0100
0001
0010
0000
0100
0010
0000
0100
,  // measure 64
0020
0000
0000
0000
0032
0000
0000
0000
0103
0001
0010
0001
1000
0010
1000
0200
,  // measure 65
0020
0000
0000
0000
,  // measure 66
0000
0000
0000
0000
,  // measure 67
0330
0000
0000
0000
;
