#TITLE:Aqua;
#SUBTITLE:;
#ARTIST:Akino;
#TITLETRANSLIT:;
#SUBTITLETRANSLIT:;
#ARTISTTRANSLIT:;
#GENRE:;
#CREDIT:;
#BANNER:Aqua.png;
#BACKGROUND:Aqua-bg.png;
#LYRICSPATH:;
#CDTITLE:;
#MUSIC:Aqua.mp3;
#OFFSET:-1.589000;
#SAMPLESTART:57.882133;
#SAMPLELENGTH:18.777699;
#SELECTABLE:YES;
#BPMS:0.000000=115.029999
;
#STOPS:
;
#BGCHANGES:;
#KEYSOUNDS:;
#ATTACKS:;

//---------------dance-single - ----------------
#NOTES:
     dance-single:
     :
     Hard:
     8:
     0.406849,0.657260,0.168046,0.017689,0.260914,322.000000,303.000000,19.000000,2.000000,0.000000,0.000000,0.406849,0.657260,0.168046,0.017689,0.260914,322.000000,303.000000,19.000000,2.000000,0.000000,0.000000:
0000
0000
0000
0000
,
0000
0000
1000
1000
,
1000
0001
0001
0001
,
0100
0000
0000
0000
0000
0010
1000
0000
,
0000
0100
0000
0000
1000
0000
0000
0000
,
0000
0001
1000
0000
0000
0100
0000
0000
,
0010
0000
0000
0000
0000
0001
0100
0000
,
0000
0001
0000
0000
1000
0000
0000
0100
,
0000
0000
0001
0000
0000
0010
0000
0000
,
1000
0000
0000
0001
0000
0000
0001
0000
0000
1000
0000
0000
0001
0000
0000
0100
,
0000
0000
0100
0000
0000
0010
0000
0000
1000
0000
0000
0010
0000
0000
0010
0000
,
0000
0100
0000
0000
0001
0000
0000
1000
0000
0000
1000
0000
0000
0100
0000
0000
,
0010
0000
0000
0100
0000
0000
0100
0000
0000
1000
0000
0000
0010
0000
0000
0100
,
0000
0000
0100
0000
0000
0001
0000
0000
1000
0000
0000
0010
0000
0000
0010
0000
,
0000
1000
0000
0000
0001
0000
0000
0100
0000
0000
0100
0000
0000
0001
1000
0001
,
1000
0000
0001
1000
0000
1000
0010
0000
,
0010
0000
0100
0000
0001
0000
1000
0001
1000
0000
0000
0000
0100
0000
1000
0000
,
0000
0000
1000
0000
0010
0000
0001
0000
0010
0000
0100
0000
0001
0000
0010
0100
,
1000
0000
0100
1000
0000
1000
0010
0000
,
0100
0000
0001
0000
0000
0000
0001
1000
0001
0000
0000
0000
0000
0000
0100
0000
,
0000
0000
0000
0000
0010
1000
0000
1000
0001
0000
0001
1000
0000
0001
0010
0001
,
1000
0100
0001
0100
0000
0010
0001
0000
,
0100
0010
0000
0100
0001
0000
1000
0001
,
0000
0010
0100
1000
0100
0001
0100
0010
,
0001
0000
1000
0100
0000
0100
0010
0000
,
0010
0001
0000
1000
0010
0000
0010
0100
,
0000
0010
0100
0001
0010
0100
1000
0001
,
1001
0000
1000
0001
0000
1000
0010
0000
,
0010
0100
0000
0001
0101
0000
0001
1000
,
0000
0100
0010
0000
0001
1000
0000
0001
,
1001
0000
0000
1010
0000
1000
1100
0000
,
0000
0010
0000
0000
0110
0000
0000
0011
,
0000
0000
0001
0010
0100
0010
0001
1000
,
1010
0000
0000
1000
,
0001
0100
0000
0100
0110
0000
0000
0000
,
0000
0000
0010
0000
0010
0100
0000
0100
,
1001
0000
0000
0001
1000
0000
0010
0000
0000
0100
0001
0000
0010
0000
0000
0100
,
1000
0000
0010
0000
0000
0100
0001
1000
0100
0000
0000
0010
0001
0000
0100
0000
,
0010
1000
0001
0000
1000
0100
0010
0001
0100
0010
1000
0001
1000
0001
1000
0001
,
0100
0001
0010
0001
0100
0010
1000
0100
,
0010
0100
1000
0001
1000
0100
1000
0001
,
0010
0001
0010
0100
0010
0001
0100
0010
,
1000
0001
1000
0001
0010
0100
0010
0001
,
0100
0001
1000
0100
0010
0001
0100
0010
,
1000
0000
0001
0000
0100
0010
0100
0010
0100
0010
0100
0000
0000
0000
0000
0000
,
1001
0000
0000
1010
0000
0000
1001
0000
,
0000
0101
0000
0000
0110
0000
0000
1010
,
0000
1000
1001
0000
0001
0101
0000
0010
,
1010
0000
0000
1000
0001
0100
0010
0000
0000
0100
0001
1000
0010
0000
0000
0100
,
0010
0100
0001
1000
0100
0010
0100
1000
0001
0000
0000
1000
0100
1000
0001
0000
,
1000
0001
1000
0000
0001
0100
0001
0010
0001
1000
0100
0010
0001
1000
0002
2000
,
0000
0003
3000
0000
0000
0000
0000
0000
;

//---------------dance-single - ----------------
#NOTES:
     dance-single:
     :
     Medium:
     5:
     0.238803,0.339133,0.168046,0.088445,0.057490,189.000000,170.000000,19.000000,10.000000,0.000000,0.000000,0.238803,0.339133,0.168046,0.088445,0.057490,189.000000,170.000000,19.000000,10.000000,0.000000,0.000000:
0000
0000
0000
0000
,
0000
0000
0001
1000
,
1000
0001
1000
1000
,
0010
0000
0000
0000
0000
0100
0001
0000
,
0000
0010
0000
0000
0100
0000
0000
0000
,
0000
0010
0001
0000
0000
1000
0000
0000
,
0100
0000
0000
0000
0000
1000
0010
0000
,
0000
0100
0000
0000
0001
0000
0000
0010
,
0000
0000
0001
0000
0000
0100
0000
0000
,
0020
0000
0000
0230
,
0000
0000
0002
0000
,
0300
2000
0000
3003
,
0001
0000
0000
0100
0000
0000
0001
0000
,
0000
0010
0000
0000
1000
0000
0000
0010
,
0000
0000
0001
0000
0000
1000
0000
0000
,
1001
0000
0000
0000
0000
0001
1000
0000
,
0000
0100
0000
0000
1100
0000
0000
0000
,
0000
0100
0010
0000
0010
0001
0000
0001
,
1001
0000
0000
0000
0000
1000
0001
0000
,
0000
0100
0000
0000
1010
0000
0000
0101
,
0000
0000
1010
0000
0000
1100
0000
0000
,
0021
0000
0000
0031
0000
0000
0100
0010
,
1000
0001
0000
0000
0010
0000
0000
0100
,
0000
0000
0010
0100
1000
0010
0000
0000
,
0100
0000
0000
0001
0000
0000
1000
0000
,
0000
0100
0000
0000
1000
0000
0000
0010
,
0000
0100
0010
0000
1000
0001
0000
0010
,
0110
0000
0000
0000
0000
0100
0010
0000
,
0010
0001
0000
0001
0101
0000
0000
0000
,
0000
0000
0100
0000
0010
0100
0000
0100
,
0001
0000
0000
1000
0000
0001
1000
0000
,
0000
0100
0000
0000
1000
0000
0000
0010
,
0000
0000
0100
0010
1000
0001
0010
0100
,
1100
0000
0000
0100
,
1000
0010
0000
0010
0100
0000
0000
0000
,
0000
0000
0100
0000
0010
0100
0000
0100
,
0010
0000
0000
1001
0000
0000
0100
0000
0000
1001
0000
0000
0100
0000
0010
0000
,
0001
0000
1000
0000
0000
0000
0000
0000
0001
0000
0000
1010
0000
0000
0001
0000
,
0000
1100
0000
0000
0100
0000
0010
0000
0001
0000
1000
0000
0010
0000
0100
0000
,
0002
0000
0000
0000
,
0000
0000
0000
1003
0002
0000
0000
0000
,
0000
0000
0003
0000
0010
0200
0000
0000
,
2300
0000
0000
0000
,
0000
0000
3000
0000
1100
0000
0000
0110
,
0000
0000
0011
0000
0000
1100
0000
0000
,
1000
0000
0001
0010
0000
1000
0010
0000
,
0001
0100
0000
1000
0100
0000
0010
0100
,
0000
0100
0001
0000
0001
1000
0000
1000
,
0100
0000
0000
1000
0000
0000
0010
0000
0000
0100
0000
0000
0001
0000
0000
0010
,
0000
0000
1000
0000
0000
0010
0000
0000
0100
0000
0000
1000
0000
0000
0100
0000
,
0000
0001
0000
0000
0100
0000
0000
1000
0000
0000
0010
0000
0000
0100
0000
0002
,
0000
0003
0000
0000
0000
0000
0000
0000
;

//---------------dance-single - ----------------
#NOTES:
     dance-single:
     :
     Easy:
     2:
     0.135195,0.203480,0.088445,0.150357,0.000000,107.000000,97.000000,10.000000,17.000000,0.000000,0.000000,0.135195,0.203480,0.088445,0.150357,0.000000,107.000000,97.000000,10.000000,17.000000,0.000000,0.000000:
0000
0000
0000
0000
,
0000
0000
0000
0000
,
0000
0000
0000
0000
,
1000
0000
0000
0001
,
0000
0000
0100
0000
,
0000
0000
0001
0000
0000
1000
0000
0000
,
0100
0000
0000
1000
,
0000
0000
0000
0000
0010
0000
0000
0100
,
0000
0000
0001
0000
0000
1000
0000
0000
,
0002
0000
0003
2000
,
0000
3000
0020
0000
,
0030
0200
0000
0300
,
0002
0000
0003
2000
,
0000
3000
0200
0000
,
0300
0020
0000
0030
,
1001
0000
0000
0001
,
0000
0100
0000
0000
1001
0000
0000
0000
,
0000
0000
1000
0000
0000
1000
0000
0000
,
1001
0000
0000
1000
,
0000
0100
0000
0000
1000
0000
0000
0010
,
0000
0000
0100
0000
0000
0001
0000
0000
,
0020
0000
0000
0130
0000
0000
0010
0000
,
0000
0001
0000
0000
1000
0000
0000
0001
,
0000
0000
0100
0000
0000
0010
0000
0000
,
1000
0000
0000
1000
0000
0000
0001
0000
,
0000
0001
0000
0000
1000
0000
0000
0100
,
0000
0000
0010
0000
0000
0001
0000
0000
,
1001
0000
0000
1000
,
0000
0010
0000
0000
1001
0000
0000
0000
,
0000
0000
0001
0000
0000
0100
0000
0000
,
0010
0000
0000
1000
0000
0000
0100
0000
,
0000
1000
0000
0000
0001
0000
0000
0010
,
0000
0000
0001
0000
0000
0010
0000
0000
,
0110
0000
0000
0100
,
0000
1000
0000
0000
0010
0000
0000
0000
,
0000
0000
0100
0000
0000
0010
0000
0000
,
2000
0000
0000
3001
0000
0000
0002
0000
,
0000
0103
0000
0000
0020
0000
0000
0130
,
0000
0000
0020
0000
0000
1030
0000
0000
,
0002
0000
0000
0000
,
0000
0003
2000
0000
,
0000
0000
3000
0000
0000
0010
0000
0000
,
0200
0000
0000
0000
,
0000
0000
0300
0000
0010
0000
0000
1000
,
0000
0000
0001
0000
0000
0100
0000
0000
,
0001
0000
0000
1000
,
0000
0000
0010
0000
,
0000
0000
0100
0000
0000
0010
0000
0000
,
1001
0000
0000
0010
0000
0000
1001
0000
,
0000
0100
0000
0000
1001
0000
0000
0010
,
0000
0000
1001
0000
0000
0200
0000
0000
,
0000
0300
0000
0000
0000
0000
0000
0000
;

//---------------dance-single - ----------------
#NOTES:
     dance-single:
     :
     Beginner:
     1:
     0.083391,0.111939,0.044223,0.000000,0.000000,66.000000,61.000000,5.000000,0.000000,0.000000,0.000000,0.083391,0.111939,0.044223,0.000000,0.000000,66.000000,61.000000,5.000000,0.000000,0.000000,0.000000:
// measure 0
0000
0000
0000
0000
,  // measure 1
0000
0000
0000
0000
,  // measure 2
0000
0000
0000
0000
,  // measure 3
0010
0000
0000
1000
,  // measure 4
0000
0000
0010
0000
,  // measure 5
0000
0100
0000
0000
,  // measure 6
0001
0000
0000
1000
,  // measure 7
0000
0000
0010
0000
,  // measure 8
0000
0010
0000
0000
,  // measure 9
0100
0000
0000
0000
,  // measure 10
0000
0000
0001
0000
,  // measure 11
0000
0000
0000
0000
,  // measure 12
1000
0000
0000
0010
,  // measure 13
0000
0000
1000
0000
,  // measure 14
0000
0001
0000
0000
,  // measure 15
1001
0000
0000
1000
,  // measure 16
0000
0000
0010
0000
,  // measure 17
0000
0100
0000
0000
,  // measure 18
0110
0000
0000
0010
,  // measure 19
0000
0000
0100
0000
,  // measure 20
0000
0010
0000
0000
,  // measure 21
1000
0000
0000
0000
,  // measure 22
0000
0000
0000
0000
,  // measure 23
0000
0001
0000
0000
,  // measure 24
0100
0000
0000
0000
,  // measure 25
0000
0000
0010
0000
,  // measure 26
0000
1000
0000
0000
,  // measure 27
1001
0000
0000
1000
,  // measure 28
0000
1000
0000
0000
1000
0000
0000
0000
,  // measure 29
0000
0010
0000
0000
,  // measure 30
0100
0000
0000
0010
,  // measure 31
0000
0000
1000
0000
,  // measure 32
0000
0000
0001
0000
0000
0001
0000
0000
,  // measure 33
0001
0000
0000
0100
,  // measure 34
0000
0000
0010
0000
,  // measure 35
0000
0010
0000
0000
,  // measure 36
0100
0000
0000
0010
,  // measure 37
0000
0000
1000
0000
,  // measure 38
0000
0001
0000
0000
,  // measure 39
1001
0000
0000
0000
,  // measure 40
0000
0000
1000
0000
,  // measure 41
0000
0000
0000
0000
0000
0010
0000
0000
,  // measure 42
0010
0000
0000
0000
,  // measure 43
0000
0000
0100
0000
,  // measure 44
0000
0010
0000
0000
,  // measure 45
1001
0000
0000
0001
,  // measure 46
0000
0000
0100
0000
,  // measure 47
0000
0000
0010
0000
0000
0010
0000
0000
,  // measure 48
0010
0000
0000
1000
,  // measure 49
0000
0000
0001
0000
,  // measure 50
0000
0000
1000
0000
0000
0010
0000
0000
;
