#VERSION:0.81;
#TITLE:Animal;
#SUBTITLE:(PH Electro Radio Edit);
#ARTIST:R.I.O. feat. U-Jean;
#TITLETRANSLIT:;
#SUBTITLETRANSLIT:;
#ARTISTTRANSLIT:;
#GENRE:;
#ORIGIN:;
#CREDIT:;
#BANNER:Animal (PH Electro Radio Edit).png;
#BACKGROUND:Animal (PH Electro Radio Edit)-bg.png;
#PREVIEWVID:;
#JACKET:Animal (PH Electro Radio Edit)-jacket.png;
#CDIMAGE:;
#DISCIMAGE:;
#LYRICSPATH:;
#CDTITLE:;
#MUSIC:Animal (PH Electro Radio Edit).ogg;
#OFFSET:-1.877000;
#SAMPLESTART:93.119995;
#SAMPLELENGTH:12.000000;
#SELECTABLE:YES;
#BPMS:0.000=128.140;
#STOPS:;
#DELAYS:;
#WARPS:;
#TIMESIGNATURES:0.000=4=4;
#TICKCOUNTS:0.000=4;
#COMBOS:0.000=1;
#SPEEDS:0.000=1.000=0.000=0;
#SCROLLS:0.000=1.000;
#FAKES:;
#LABELS:0.000=Song Start;
#BGCHANGES:;
#KEYSOUNDS:;
#ATTACKS:
;

//---------------dance-single - ----------------
#NOTEDATA:;
#CHARTNAME:;
#STEPSTYPE:dance-single;
#DESCRIPTION:;
#CHARTSTYLE:;
#DIFFICULTY:Hard;
#METER:7;
#RADARVALUES:0.421381,0.435385,0.008831,0.150133,0.114808,316.000000,1.000000,17.000000,0.000000,0.000000,0.000000,0.000000,0.000000,0.421381,0.435385,0.008831,0.150133,0.114808,316.000000,1.000000,17.000000,0.000000,0.000000,0.000000,0.000000,0.000000;
#CREDIT:;
#NOTES:
0001
0100
0001
0100
,
0010
1000
0010
1000
,
0100
0010
0100
0010
,
0001
1000
0001
1000
,
0001
0100
0010
0000
0100
0000
0010
0000
,
1000
0010
0100
0000
0010
0100
0001
0010
,
0000
0100
0010
0001
0000
1000
0010
0200
,
0000
0000
0000
0000
0300
0010
1000
0100
,
0010
0200
0000
0300
0000
0010
0001
1000
,
0010
0002
0000
0003
0000
0010
0100
0010
,
1000
0002
0000
0003
0000
1000
0100
0010
,
0100
2000
3000
0000
0000
0100
0010
0001
,
1000
0020
0000
0030
0000
0100
1000
0100
,
0001
0020
0000
0030
0000
0100
0010
0100
,
0000
1000
0100
1000
0000
0001
0100
0002
,
0000
0000
0000
0000
0003
0000
1000
0001
,
0010
0100
0000
0000
0010
0100
1000
0001
,
0000
0000
0000
0000
0000
0000
1000
0100
,
0010
0000
0000
0000
0100
0010
0001
1000
,
0000
0000
0000
0000
0000
0000
0010
0100
,
0001
0100
0010
0100
1000
0000
0100
0001
,
0010
0000
0100
0000
0010
0000
0001
1000
,
0010
0100
0001
0200
0000
0000
0310
2000
,
0000
0000
3000
0000
0000
0000
1000
0001
,
0100
0100
0000
0000
0010
0100
0001
0010
,
0000
0100
0000
0010
0000
0100
0100
1000
,
0010
0000
0000
0000
0100
1000
0100
0001
,
0000
1000
0000
0001
0000
1000
0001
0010
,
1000
0010
0100
1000
0100
0000
0100
0001
,
0100
0000
0010
0000
0001
0000
0010
0100
,
1000
0010
0100
0002
0000
0000
1003
0020
,
0100
0100
0100
0100
,
1030
0000
0000
0100
0000
0000
0010
0000
0001
0000
0000
0010
0000
0000
0100
0000
,
1000
0000
0000
0100
0000
0000
0010
0000
0001
0000
0000
2000
0000
3000
0010
0000
,
0100
0000
0000
0001
0000
0000
0100
0000
0010
0000
0000
1000
0000
0000
0010
0000
,
0100
0000
0000
0001
0000
0000
0100
0000
0010
0000
0000
1000
0000
0000
0001
0000
,
0100
0000
0000
1000
0000
0000
0100
0000
0010
0000
0000
0001
0000
0000
0010
0000
,
1000
0000
0000
0010
0000
0000
0100
0000
0001
0000
0000
0010
0000
0000
0100
0000
,
1000
0000
0000
0100
0000
0000
0010
0000
0001
0000
0000
0010
0000
0000
0100
0000
,
1000
0000
0000
0010
0000
0000
0100
0000
0001
0000
0000
1000
0000
0000
0010
0000
,
0100
0000
0010
1000
0010
0000
0100
0000
0001
0000
0010
0000
0100
0000
1000
0100
,
0010
0100
1000
0010
0001
0010
0000
0100
,
0010
0000
0000
0000
0100
0000
0001
0000
0010
0000
0000
0000
0100
0000
0010
0001
,
1000
0010
0100
0001
1000
0010
0000
0100
,
0001
0000
0000
0001
0100
0000
0000
0100
0010
0000
0000
0010
1000
0000
0000
0000
,
0001
0100
0010
1000
0001
0010
0000
0100
,
1000
0000
0000
0000
1000
0000
0010
0000
0100
0000
0000
0000
0010
0000
0100
0010
,
0100
0010
1000
0100
1000
0001
0000
1000
,
0001
0000
0000
1000
0010
0000
0000
0001
0010
0000
0000
1000
0010
0000
0100
0000
,
0001
0010
0000
0000
0100
0010
0001
1000
,
0010
0100
0010
0001
0010
1000
0010
0100
,
0001
0000
0000
0000
1000
0100
0010
0001
,
0010
0100
0010
1000
0010
0001
0100
0010
,
1000
1000
0100
0010
0100
0000
0010
0001
,
1000
0000
0010
0000
0100
0000
0010
1000
,
0001
0010
0100
0020
0000
0000
0031
2000
,
0000
0000
0000
0000
3000
0000
1000
0001
,
0220
0000
0000
0000
,
0330
0000
0000
0000
;

//---------------dance-single - ----------------
#NOTEDATA:;
#CHARTNAME:;
#STEPSTYPE:dance-single;
#DESCRIPTION:;
#CHARTSTYLE:;
#DIFFICULTY:Medium;
#METER:5;
#RADARVALUES:0.343161,0.384164,0.079482,0.114808,0.000000,250.000000,9.000000,13.000000,0.000000,0.000000,0.000000,0.000000,0.000000,0.343161,0.384164,0.079482,0.114808,0.000000,250.000000,9.000000,13.000000,0.000000,0.000000,0.000000,0.000000,0.000000;
#CREDIT:;
#NOTES:
0001
1000
0001
1000
,
0001
0100
0001
0100
,
0001
0010
0001
0010
,
0001
1000
0001
1000
,
0100
1100
0100
0010
,
0001
0000
1001
0000
1000
0001
0100
0001
,
0000
0100
0010
0100
0000
0010
1000
0020
,
0000
0000
0130
0010
,
1000
0001
1000
0000
0001
0000
0100
0000
,
0010
1000
0010
0000
0100
0000
0001
0000
,
0010
0100
0010
0000
0001
0000
1000
0000
,
0010
0100
0010
0000
0100
0000
0001
0000
,
1000
0001
0100
0000
0001
0000
1000
0000
,
0001
0010
0100
0000
0010
0001
0010
0001
,
0000
0010
0100
0010
0000
0100
1000
0200
,
0000
0000
0300
1000
,
0010
0010
0000
0000
0100
0010
0100
0010
,
0000
0000
0000
0000
0000
0000
1000
0001
,
0100
0000
0000
0000
0001
1000
0001
1000
,
0000
0000
0000
0000
0000
0000
1000
0100
,
0010
0010
0100
0100
,
0010
0001
1000
0001
,
0100
0000
0001
1000
0000
0000
0010
1000
,
0000
0000
0000
1000
,
1001
0000
0000
0000
0001
0100
1000
0100
,
0000
0010
0000
0100
0001
0000
1000
0010
,
0001
0000
0000
0000
0001
0010
0100
0001
,
0000
0000
0000
0000
0000
0000
1000
0100
,
0010
0100
0010
0001
,
1000
1000
1000
0001
,
0100
0000
0010
1000
0000
0000
0010
0100
,
0001
0001
0001
0001
,
1000
0001
1000
0001
,
0100
0010
0100
0010
,
1000
0010
1000
0010
,
0100
0001
0100
0001
,
0010
0100
1000
0000
1000
0100
0010
0000
,
0010
0001
0010
0000
0001
0100
0001
0000
,
0001
0100
0010
1000
,
0001
0100
0010
1000
,
2002
0000
0000
3003
,
1001
0001
1000
0001
1000
0001
0000
1000
,
0010
0110
0010
0101
,
0001
0100
0001
0100
0001
0100
0000
0001
,
2000
3200
0320
0032
,
1003
0100
1000
0100
1000
0100
0000
1000
,
0010
0000
0100
0010
0100
0000
0010
1000
,
0001
0000
1000
0001
1000
0001
0000
0100
,
0020
0000
0000
0130
,
0001
0100
0000
0000
0010
0100
0001
1000
,
0000
0000
0000
0000
0000
0000
0100
0010
,
0011
0000
0000
0000
0010
0100
1000
0001
,
0000
0000
0000
0000
0000
0000
1000
0100
,
0010
0100
1000
0010
0100
0000
0001
1000
,
0010
0010
0100
0010
,
1000
0000
0010
0200
0000
0000
0301
2000
,
3000
0000
0000
0000
0000
0000
0001
1000
,
2002
0000
0000
0000
,
3003
0000
0000
0000
;

//---------------dance-single - ----------------
#NOTEDATA:;
#CHARTNAME:;
#STEPSTYPE:dance-single;
#DESCRIPTION:;
#CHARTSTYLE:;
#DIFFICULTY:Easy;
#METER:2;
#RADARVALUES:0.157703,0.201355,0.035325,0.079482,0.000000,112.000000,4.000000,9.000000,0.000000,0.000000,0.000000,0.000000,0.000000,0.157703,0.201355,0.035325,0.079482,0.000000,112.000000,4.000000,9.000000,0.000000,0.000000,0.000000,0.000000,0.000000;
#CREDIT:;
#NOTES:
0001
0000
0000
1000
,
1000
0000
0000
0001
,
0001
0000
0000
0100
,
0100
0000
0000
0010
,
1000
0001
0000
1000
,
0001
0100
0000
0000
,
0001
0000
1000
0000
,
0020
0000
0030
0000
,
0100
0001
0000
1000
,
0100
1000
0000
0100
,
0010
0100
0000
0010
,
0001
1000
0000
0001
,
0100
0100
0000
0100
,
0010
0010
0000
0000
,
0100
0000
0010
0000
,
2000
0000
3000
0001
,
1001
0000
0010
0000
,
0000
0000
0000
1000
,
1000
0000
0100
0000
,
0000
0000
0000
0000
,
1000
0000
0001
0000
,
0100
0100
0100
0000
,
0020
0000
0000
0000
,
0030
0000
0000
0100
,
0010
0000
1000
0000
,
0001
0000
0000
0100
,
0100
0000
0001
0000
,
0010
0000
0000
0010
,
0100
0000
0010
0000
,
0001
0001
0001
0000
,
2000
0000
0000
0000
,
3000
0000
0000
0000
,
0002
0000
0000
0000
,
0000
0000
0000
0003
,
0020
0000
0000
0000
,
0000
0000
0000
0030
,
0200
0000
0000
0000
,
0000
0000
0000
0300
,
2000
0000
0000
0000
,
0000
0000
0000
0000
,
3000
0000
0000
0000
,
1001
0001
0010
0000
,
0001
0000
1000
0000
,
0010
1000
0100
0000
,
0010
0010
0010
0010
,
0100
1000
0001
0000
,
1000
0000
0001
0000
,
0100
0001
0010
0000
,
0100
0100
0100
0010
,
1001
0000
0001
1000
,
0010
0000
0000
1000
,
0001
0000
0100
0001
,
0010
0000
0000
0100
,
0010
0100
1000
0001
,
0100
0001
0010
0100
,
2000
0000
0000
0000
,
3000
0000
0000
0010
,
1001
0000
0000
0000
;

//---------------dance-single - ----------------
#NOTEDATA:;
#CHARTNAME:;
#STEPSTYPE:dance-single;
#DESCRIPTION:;
#CHARTSTYLE:;
#DIFFICULTY:Beginner;
#METER:1;
#RADARVALUES:0.099668,0.151016,0.017663,0.035325,0.000000,73.000000,2.000000,4.000000,0.000000,0.000000,0.000000,0.000000,0.000000,0.099668,0.151016,0.017663,0.035325,0.000000,73.000000,2.000000,4.000000,0.000000,0.000000,0.000000,0.000000,0.000000;
#CREDIT:;
#NOTES:
// measure 0
0000
0000
0000
0000
,  // measure 1
0000
0000
0000
0000
,  // measure 2
0000
0000
0000
0000
,  // measure 3
0000
0000
0000
0000
,  // measure 4
0001
0000
0000
0000
,  // measure 5
1000
0000
0000
0010
,  // measure 6
0000
0100
0000
0010
,  // measure 7
0000
0000
0000
0000
,  // measure 8
1000
0000
0000
0000
,  // measure 9
0100
0000
0000
0000
,  // measure 10
1000
0000
0000
0000
,  // measure 11
0001
0000
0000
0000
,  // measure 12
0010
0000
0000
0000
,  // measure 13
0001
0000
0000
0000
,  // measure 14
1000
0000
0001
0000
,  // measure 15
0100
0000
0000
0000
,  // measure 16
0001
0000
1000
0000
,  // measure 17
0000
0000
0000
1000
,  // measure 18
1000
0000
0010
0000
,  // measure 19
0000
0000
0000
0000
,  // measure 20
0100
0000
0010
0000
,  // measure 21
1000
1000
1000
0000
,  // measure 22
0001
0000
0000
0000
,  // measure 23
0000
0000
0000
1000
,  // measure 24
0100
0000
0010
0000
,  // measure 25
0000
0000
0000
0001
,  // measure 26
0001
0000
1000
0000
,  // measure 27
0000
0000
0000
0010
,  // measure 28
0010
0000
0100
0000
,  // measure 29
0001
0001
0001
0000
,  // measure 30
1000
0000
0001
0000
,  // measure 31
0100
0000
0000
0000
,  // measure 32
0002
0000
0000
0000
,  // measure 33
0000
0000
0000
0003
,  // measure 34
2000
0000
0000
0000
,  // measure 35
0000
0000
0000
3000
,  // measure 36
0002
0000
0000
0000
,  // measure 37
0000
0000
0000
0003
,  // measure 38
2000
0000
0000
0000
,  // measure 39
0000
0000
0000
0000
,  // measure 40
3000
0000
0000
0000
,  // measure 41
1001
0000
0000
0000
,  // measure 42
0001
0000
1000
0000
,  // measure 43
0010
0000
0000
0000
,  // measure 44
0100
0100
0100
0100
,  // measure 45
0010
0000
0000
0000
,  // measure 46
1000
0000
0000
0000
,  // measure 47
0001
0000
0000
0000
,  // measure 48
0010
0010
0010
0010
,  // measure 49
0001
0000
1000
0000
,  // measure 50
0000
0000
0000
1000
,  // measure 51
1000
0000
0010
0000
,  // measure 52
0000
0000
0000
0000
,  // measure 53
0100
0000
0010
0000
,  // measure 54
0100
0100
0100
0000
,  // measure 55
0010
0000
1000
0000
,  // measure 56
0001
0000
0000
0000
,  // measure 57
1001
0000
0000
0000
;
