#VERSION:0.83;
#TITLE:Angelic Sphere;
#SUBTITLE:;
#ARTIST:3R2;
#TITLETRANSLIT:;
#SUBTITLETRANSLIT:;
#ARTISTTRANSLIT:;
#GENRE:;
#ORIGIN:;
#CREDIT:;
#BANNER:Angelic Sphere.png;
#BACKGROUND:Angelic Sphere-bg.png;
#PREVIEWVID:;
#JACKET:Angelic Sphere-jacket.png;
#CDIMAGE:;
#DISCIMAGE:;
#LYRICSPATH:;
#CDTITLE:;
#MUSIC:Angelic Sphere.mp3;
#OFFSET:-1.833000;
#SAMPLESTART:84.027771;
#SAMPLELENGTH:13.426575;
#SELECTABLE:YES;
#BPMS:0.000=143.000,
68.000=71.500,
100.000=143.000;
#STOPS:;
#DELAYS:;
#WARPS:;
#TIMESIGNATURES:0.000=4=4;
#TICKCOUNTS:0.000=4;
#COMBOS:0.000=1;
#SPEEDS:0.000=1.000=0.000=0;
#SCROLLS:0.000=1.000;
#FAKES:;
#LABELS:0.000=Song Start;
#BGCHANGES:;
#KEYSOUNDS:;
#ATTACKS:
;

//---------------dance-single - ----------------
#NOTEDATA:;
#CHARTNAME:;
#STEPSTYPE:dance-single;
#DESCRIPTION:;
#CHARTSTYLE:;
#DIFFICULTY:Hard;
#METER:7;
#RADARVALUES:0.377327,0.535595,0.083850,0.111801,0.146738,378.000000,366.000000,12.000000,16.000000,0.000000,0.000000,0.000000,0.000000,0.000000,0.377327,0.535595,0.083850,0.111801,0.146738,378.000000,366.000000,12.000000,16.000000,0.000000,0.000000,0.000000,0.000000,0.000000;
#CREDIT:;
#NOTES:
0000
0000
0000
0000
0000
0000
1000
0100
,
0010
0000
0100
1000
0010
0100
0001
0010
,
0001
0000
0000
0000
0000
1000
0010
0001
,
0010
0000
0100
0000
0000
0001
0000
0000
,
1000
0000
0000
0100
0000
1000
0010
0100
,
0001
0000
1000
0100
0010
0100
0010
0001
,
1000
0000
0000
0000
0000
0001
0010
1000
,
0010
0100
1000
0010
0100
0001
0010
0001
,
0000
1000
0100
1000
0001
0010
0100
1000
,
0001
0000
0100
0001
0010
0100
0010
0001
,
1000
0000
0000
0000
0000
0001
0010
1000
,
0010
0000
0100
0000
0000
1000
0000
0000
,
0010
0000
0000
0100
0000
0001
0010
0001
,
1000
0000
0100
0010
0001
0010
0100
1000
,
0001
0000
0000
0000
1000
0010
0100
0010
,
1000
0000
0101
0000
,
1100
0000
0000
0000
,
1001
0000
0000
0001
0100
0001
0010
0000
0100
0000
0000
0000
0000
1000
0010
0000
,
0100
0000
0000
0001
0000
0000
0010
0000
0011
0000
0010
0000
0100
0000
1000
0000
,
1100
0000
0000
0000
0000
0100
0010
0001
1000
0000
0100
0000
1000
0000
0010
0000
,
0100
0000
0001
1000
0000
0100
0010
0001
1000
0000
0010
0000
0100
0000
0001
0000
,
0010
0000
0100
0000
1000
0000
0100
0000
1000
0000
0010
0000
0100
0000
0001
0010
,
0100
0000
1000
0010
0000
0010
0000
0100
0001
0000
1000
0000
0100
0000
1000
0000
,
0001
0000
0010
0000
0100
1000
0001
0100
,
0000
0000
0010
1000
0001
0000
0010
0000
0100
0000
1000
0100
1000
0000
0010
0000
,
1002
0000
0000
0000
0000
0000
1003
0001
,
2000
0000
0000
0000
0000
0000
3001
0010
,
0200
0000
0000
0000
0000
0000
0310
0001
,
0020
0000
0000
0000
0000
0000
0130
1000
,
0002
0000
0000
0000
0000
0000
0103
0001
,
0020
0000
0000
0000
0000
0000
0031
0010
,
0002
0000
0000
0000
0000
0000
1003
0001
,
2000
0000
0000
0000
3100
1000
0100
0010
,
0100
0000
0000
0000
0000
0010
0100
1000
,
0100
0000
0000
1000
0000
0001
0000
0100
,
0001
0000
0010
0001
0000
1000
0000
0001
,
0010
0000
0100
0010
,
0002
0000
0000
1003
0200
0000
0000
0310
,
0002
0000
0000
0013
0200
0000
0000
1300
,
0010
0100
0001
1000
,
1001
0000
0000
0000
1000
0100
0010
0001
,
1000
0000
0000
0010
0000
0000
1000
0000
0000
0010
0000
0000
1000
0000
0010
0000
,
0100
0000
0000
0001
0000
0000
0100
0000
0000
0010
0000
0000
1000
0000
0100
0000
,
0010
0000
0000
0100
0000
0000
1000
0000
0000
0010
0000
0000
0100
0000
0001
0000
,
0010
0000
0000
0100
0000
0000
1000
0000
0000
0100
0000
0000
1000
0000
0010
0000
,
0100
0000
0000
0001
0000
0000
0100
0000
0000
0010
0000
0000
1000
0000
0010
0000
,
0100
0000
0000
0001
0000
0000
1000
0000
0000
0100
0000
0000
1000
0000
0010
0000
,
0100
0000
0000
0001
0000
0000
0010
0000
0001
0000
0000
0000
1000
0000
0000
0000
,
0100
0000
0010
0000
0100
0000
1000
0100
,
1000
0000
0000
0010
0000
0000
0100
0000
0000
0001
0000
0000
0100
0000
0010
0000
,
1000
0000
0000
0001
0000
0000
0010
0000
0000
0100
0000
0000
0010
0000
0001
0000
,
0100
0000
0000
0001
0000
0000
1000
0000
0000
0100
0000
0000
1000
0000
0001
0000
,
0010
0000
0000
0001
0000
0000
1000
0000
0000
0010
0000
0000
0100
0000
0001
0000
,
0010
0000
0000
0010
0000
0000
0100
0000
0000
1000
0000
0000
0100
0000
1000
0000
,
0010
0000
0000
0010
0000
0000
0100
0000
0000
0001
0000
0000
1000
0000
0100
0000
,
0010
0000
0000
0100
0000
0000
1000
0000
0000
0010
0000
0000
0100
0000
0001
0000
,
1001
0000
1000
0000
0001
0010
0000
0100
,
1000
0000
0000
0001
0100
0000
0000
1000
,
0100
0001
0010
1000
0000
0010
0100
1000
,
0001
0000
0100
0001
0000
0010
0000
0001
,
0000
0000
1000
0001
,
0100
0000
0000
0010
1000
0100
1000
0001
,
0000
0010
0000
0001
0100
0001
1000
0100
,
0020
0000
0230
0000
,
2300
0000
3002
0000
,
0013
0001
0000
0001
1000
0000
0001
0100
,
0000
0010
0000
1000
0010
0000
0010
0100
,
0000
0001
0000
0001
1000
0000
1000
0100
,
0010
0001
0100
1000
,
0100
0000
0010
0000
,
1000
0000
0100
1000
0000
1000
0000
1000
,
1001
0000
0110
0000
,
1001
0000
0100
0010
,
1001
0000
0000
0000
;

//---------------dance-single - ----------------
#NOTEDATA:;
#CHARTNAME:;
#STEPSTYPE:dance-single;
#DESCRIPTION:;
#CHARTSTYLE:;
#DIFFICULTY:Medium;
#METER:6;
#RADARVALUES:0.331409,0.484585,0.062888,0.118788,0.041925,332.000000,323.000000,9.000000,17.000000,0.000000,0.000000,0.000000,0.000000,0.000000,0.331409,0.484585,0.062888,0.118788,0.041925,332.000000,323.000000,9.000000,17.000000,0.000000,0.000000,0.000000,0.000000,0.000000;
#CREDIT:;
#NOTES:
0000
0000
0000
0000
0000
0000
1000
0100
,
0010
0000
0001
0000
0100
0000
0010
1000
,
0001
0000
0000
0000
0000
0001
1000
0100
,
1000
0000
0010
0000
0000
0100
0000
0000
,
0001
0000
0000
0010
0000
0100
1000
0010
,
0100
0000
0001
0000
0100
0000
0010
1000
,
0100
0000
0000
0000
0000
0010
0100
1000
,
0001
1000
0010
0100
,
0001
0000
0010
0000
1000
0000
0010
0100
,
1000
0000
0001
0000
0100
0000
0010
0100
,
0001
0000
0000
0000
0000
1000
0001
1000
,
0100
0000
0010
0000
0000
0001
0000
0000
,
0100
0000
0000
0010
0000
0100
0010
1000
,
0001
0000
1000
0000
0010
0000
0100
0001
,
1000
0000
0001
0100
,
1010
0000
0101
0000
,
0110
0000
0000
0000
,
1001
0000
0000
0001
0100
0000
0001
0000
0010
0000
0000
0000
0000
0100
1000
0000
,
0100
0000
0000
1000
0000
0000
0010
0000
0100
0000
0010
0000
1000
0000
0001
0000
,
0010
0000
0000
0000
0000
0100
0010
0001
1000
0000
0001
0000
0100
0000
0001
0000
,
1000
0000
0100
1000
0000
0000
0010
0000
0100
0000
0001
0000
0010
0000
0001
0000
,
1000
0100
0001
0100
1000
0010
0001
0010
,
1000
0000
0010
0100
0000
0100
0000
0001
1000
0000
1000
0000
0001
0000
0001
0000
,
1001
0000
0101
0000
0011
0010
0100
1000
,
0000
0000
0100
1000
0010
0000
0100
0000
0001
0000
0010
0000
0100
0000
1000
0001
,
0200
0000
0000
0310
,
2000
0000
0000
3100
,
0020
0000
0000
0031
,
2000
0000
0000
3001
,
0200
0000
0000
0310
,
2000
0000
0000
3100
,
0020
0000
0000
0031
,
2000
0000
0002
3003
,
1001
0001
0100
0010
,
1000
0010
0100
0001
,
0010
0100
1000
0100
,
1000
0010
0100
0001
,
2000
0000
0000
3001
0200
0000
0000
0301
,
2000
0000
0000
3001
0200
0000
0000
0301
,
0200
0320
2030
0002
,
3003
0000
0000
0000
0001
0010
0100
1000
,
0000
0001
0100
0010
0000
0100
0010
1000
,
0000
0001
1000
0100
,
0000
1000
0100
0010
0000
0010
0001
0010
,
0001
0000
1000
0000
0100
0000
1000
0001
,
0100
0000
0010
0000
1000
0000
0100
0010
,
0100
0000
0010
0000
0001
0000
0100
0010
,
1000
0000
0000
0100
0000
0000
1000
0000
0001
0000
0000
0000
0100
0000
0000
0000
,
0010
0000
0100
0000
0001
0000
1000
0001
,
0010
0100
1000
0001
0000
0001
0100
0001
,
0000
1000
0001
0010
,
0000
0001
0010
0100
0000
0100
1000
0100
,
1000
0000
0001
0000
0010
0000
0001
1000
,
0010
0100
0001
0010
,
0100
1000
0001
0100
,
0010
0000
1000
0001
0100
0001
0010
0001
,
1000
0000
0100
0000
1000
0010
0000
0100
,
0001
0000
0000
1000
0001
0000
0000
1000
,
0001
0100
0001
0100
0000
0010
0100
0000
,
0001
0000
1000
0100
0000
1000
0000
0001
,
0000
0000
0100
0010
,
1000
0000
0000
0001
0010
0100
0010
0100
,
0000
1000
0000
0100
1000
0010
0100
0001
,
1000
0000
0001
0000
,
0100
0010
1000
0100
,
0010
0001
0000
0001
1000
0000
1000
0100
,
0000
1000
0000
1000
0001
0000
0001
1000
,
0000
0010
0000
0010
0100
0000
0100
0010
,
1000
0001
0010
0100
,
0010
0000
0001
0000
,
0100
0000
0010
1000
0000
0001
0000
0010
,
0000
0000
0100
0000
,
1000
0000
0010
0100
,
1001
0000
0000
0000
;

//---------------dance-single - ----------------
#NOTEDATA:;
#CHARTNAME:;
#STEPSTYPE:dance-single;
#DESCRIPTION:;
#CHARTSTYLE:;
#DIFFICULTY:Easy;
#METER:3;
#RADARVALUES:0.197647,0.280549,0.055900,0.027950,0.000000,198.000000,190.000000,8.000000,4.000000,0.000000,0.000000,0.000000,0.000000,0.000000,0.197647,0.280549,0.055900,0.027950,0.000000,198.000000,190.000000,8.000000,4.000000,0.000000,0.000000,0.000000,0.000000,0.000000;
#CREDIT:;
#NOTES:
0000
0000
0000
0000
,
1000
0001
0100
0001
,
0010
0000
0000
0100
,
0010
0000
0001
0000
0000
1000
0000
0000
,
0001
0000
0000
1000
0000
0000
0001
0000
,
0100
0001
0010
0100
,
1000
0000
0000
0100
,
1000
0001
0100
0001
,
1000
0100
1000
0010
,
0100
0010
0100
0010
,
1000
0000
0000
0100
,
0010
0000
0001
0000
0000
1000
0000
0000
,
0001
0000
0000
1000
0000
0000
0001
0000
,
0100
0001
0010
0001
,
1000
0000
0100
0010
,
0001
0000
1000
0000
,
1001
0000
0000
0000
,
0110
0000
0100
0000
,
0001
0000
1000
0100
,
1000
0000
0010
0100
,
0010
0100
0001
1000
,
0001
0100
0001
1000
,
0010
1000
0001
0010
,
0100
1000
0010
0100
,
0001
0000
1000
0000
0100
0000
1000
0001
,
1001
0000
0000
0000
,
0001
0000
0000
0000
,
1000
0000
0000
0000
,
0100
0000
0000
0000
,
1000
0000
0000
0000
,
0010
0000
0000
0000
,
0100
0000
0000
0000
,
0010
0000
0100
0000
,
0001
0000
0000
1000
,
0001
0000
0100
0000
,
0010
1000
0010
1000
,
0100
0000
0000
0000
,
1000
0000
0001
0000
,
0100
0000
0010
0000
,
1000
0010
0100
0001
,
2002
0000
3003
0000
,
0001
0100
0001
1000
,
0000
1000
0100
1000
,
0000
0100
0010
0001
,
0000
1000
0001
1000
,
0001
0000
0100
0000
,
0010
0000
0100
0000
,
0001
1000
0100
1000
,
0001
0010
0100
1000
,
0100
1000
0010
0100
,
0000
0001
0100
0001
,
0000
0100
0010
0100
,
0000
0001
1000
0001
,
1000
0000
0100
0000
,
1000
0000
0001
0000
,
0100
0000
0010
0000
,
2002
0000
0000
3003
,
0001
0000
0001
0000
,
0001
1000
0000
0001
,
0100
0001
1000
0100
,
1000
0000
0100
1000
,
0010
0000
0100
0000
,
0001
0000
1000
0000
,
0100
0000
1000
0000
,
0001
0000
0100
0000
,
0010
0000
0100
0100
,
0000
0010
0000
0100
,
0100
0000
0010
0000
,
1000
0100
0010
0001
,
1000
0000
0001
0000
,
0100
0000
0010
0000
,
1001
0000
0110
0000
,
1001
0000
0001
1000
,
0010
0000
0000
0000
;

//---------------dance-single - ----------------
#NOTEDATA:;
#CHARTNAME:;
#STEPSTYPE:dance-single;
#DESCRIPTION:;
#CHARTSTYLE:;
#DIFFICULTY:Beginner;
#METER:2;
#RADARVALUES:0.101818,0.204036,0.041925,0.006988,0.000000,102.000000,96.000000,6.000000,1.000000,0.000000,0.000000,0.000000,0.000000,0.000000,0.101818,0.204036,0.041925,0.006988,0.000000,102.000000,96.000000,6.000000,1.000000,0.000000,0.000000,0.000000,0.000000,0.000000;
#CREDIT:;
#NOTES:
0000
0000
0000
0000
,
1000
0000
0000
0000
,
0000
0000
0000
0000
,
0001
0000
0000
0000
,
0000
0000
0000
0000
,
0100
0000
0000
0000
,
0000
0000
0000
0000
,
0010
0000
0000
0000
,
0100
0000
0000
0000
,
1001
0000
0000
0000
,
1000
0000
0000
0000
,
0001
0000
0000
0000
,
0000
0000
0000
0000
,
0100
0000
0000
0000
,
0000
0000
0000
0000
,
0100
0000
0010
0000
,
1001
0000
0000
0000
,
0110
0000
0000
0000
,
0100
0000
0010
0000
,
1000
0000
0001
0000
,
0100
0010
0100
0010
,
1000
0000
0000
0000
,
0001
0000
0100
0000
,
0010
0000
1000
0000
,
0001
0000
0000
0000
,
1000
0000
0000
0000
,
1000
0000
0000
0000
,
0010
0000
0000
0000
,
0100
0000
0000
0000
,
0001
0000
0000
0000
,
0001
0000
0000
0000
,
1000
0000
0000
0000
,
0100
0000
0000
1000
,
0001
0000
0000
0000
,
0100
0000
0000
0000
,
0010
0000
0000
0000
,
0000
0000
0000
0000
,
1000
0000
0001
0000
,
0100
0000
0010
0000
,
0100
0100
0100
0100
,
1001
0000
0020
0030
,
0100
0000
0000
0100
,
0000
0000
0000
0000
,
0000
1000
0000
1000
,
0000
0000
0000
0000
,
0001
0000
0000
0000
,
0100
0000
0000
0000
,
0010
0000
0100
0000
,
0010
0000
1000
1000
,
0001
0000
0000
1000
,
0000
0010
0000
0010
,
0100
0000
0000
0010
,
0000
0100
0000
0000
,
0001
0000
0000
0000
,
1000
0000
0000
0000
,
0100
0000
0010
0000
,
1001
0000
0000
0000
,
0010
0000
0010
0000
,
0010
0000
0000
0000
,
1000
0000
0000
0000
,
0001
0000
0000
0000
,
0100
0000
0000
0000
,
0010
0000
0000
0000
,
1000
0000
0001
0000
,
1000
0000
0001
0000
,
0100
0000
0000
0000
,
0100
0000
0000
0000
,
0010
0000
0000
0000
,
0010
0000
0100
0000
,
0001
0000
0000
0000
,
1000
0000
0000
0000
,
0010
0000
0100
0000
,
0010
0000
0100
0100
,
1001
0000
0000
0000
;

//---------------dance-single - ----------------
#NOTEDATA:;
#CHARTNAME:;
#STEPSTYPE:dance-single;
#DESCRIPTION:;
#CHARTSTYLE:;
#DIFFICULTY:Challenge;
#METER:9;
#RADARVALUES:0.558004,0.637612,0.195651,0.020963,0.464671,559.000000,531.000000,28.000000,3.000000,0.000000,0.000000,0.000000,0.000000,0.000000,0.558004,0.637612,0.195651,0.020963,0.464671,559.000000,531.000000,28.000000,3.000000,0.000000,0.000000,0.000000,0.000000,0.000000;
#CREDIT:;
#NOTES:
// measure 0
0000
0000
0000
0000
0000
0000
0000
0000
0000
0000
0000
0000
1000
0010
0100
0001
,  // measure 1
0010
0000
0100
0010
0001
0100
0001
1000
,  // measure 2
0001
0000
0000
0000
0000
0000
0000
0000
0000
0000
1000
0100
1000
0000
0010
0000
,  // measure 3
0100
0000
0001
0000
0000
1000
0000
0000
,  // measure 4
0100
0000
0000
1000
0000
0001
0010
0001
,  // measure 5
1001
0000
1000
0100
1000
0001
0100
0010
,  // measure 6
0100
0000
0000
0000
0000
0000
0000
0000
0000
0000
0001
0100
0010
0000
1000
0000
,  // measure 7
0100
1000
0100
0001
0100
0010
0100
1000
,  // measure 8
0000
0010
0100
1000
0001
0010
0001
1000
,  // measure 9
1001
0000
1000
0100
1000
0010
0100
0001
,  // measure 10
0100
0000
0000
0000
0000
0000
0000
0000
0000
0000
0010
0100
0010
0000
0100
0000
,  // measure 11
0001
0000
1000
0000
0000
0010
0000
0000
,  // measure 12
0100
0000
0000
0001
0000
1000
0100
0010
,  // measure 13
0110
0000
0100
1000
0010
0100
0001
1000
,  // measure 14
0001
0000
0000
0000
0010
0001
0010
0100
,  // measure 15
1000
0000
0010
0000
,  // measure 16
1001
0000
0000
0000
,  // measure 17
0101
0000
0000
0001
0100
0001
1000
0000
0100
0000
0000
0000
0000
0010
0100
0000
,  // measure 18
1000
0000
0000
0010
0000
0000
0100
0000
0001
0000
0100
0000
1000
0000
0100
0000
,  // measure 19
0001
0000
0000
0000
0000
0010
0100
1000
0001
0000
1000
0000
0010
0000
0100
0000
,  // measure 20
0010
0000
1000
0100
0000
0010
0001
0100
0001
0000
0100
0000
0010
0000
1000
0000
,  // measure 21
0100
0000
0001
0000
0100
0000
0010
0000
0001
0000
0010
0000
1000
0000
0010
0100
,  // measure 22
1000
0000
0000
0000
1000
0000
0010
0000
0000
0000
0001
0000
0000
0000
0010
0000
0100
0000
0000
0000
0001
0000
0000
0000
0010
0000
0000
0000
0100
0000
0000
1000
,  // measure 23
0001
0000
0100
0000
0010
0100
0001
1000
,  // measure 24
0101
0000
0001
0100
0010
0000
1000
0000
1100
0000
0001
0000
0101
0000
0001
1000
,  // measure 25
0010
0000
0000
1000
0000
0000
0010
0000
0000
1000
0000
0000
0010
0000
0100
0000
,  // measure 26
0001
0000
0000
0100
0000
0000
0001
0000
0000
0100
0000
0000
0001
0000
0010
0000
,  // measure 27
0100
0000
0000
0010
0000
0000
0100
0000
0000
0010
0000
0000
0100
0000
1000
0000
,  // measure 28
0010
0000
0000
0100
0000
0000
0001
0000
0000
1000
0000
0000
0100
0000
0010
0000
,  // measure 29
0001
0000
0000
1000
0000
0000
0001
0000
0000
1000
0000
0000
0001
0000
0100
0000
,  // measure 30
0010
0000
0000
1000
0000
0000
0010
0000
0000
1000
0000
0000
0010
0000
0100
0000
,  // measure 31
0001
0000
0000
1000
0000
0000
0100
0000
0000
1000
0000
0000
0100
0000
0010
0000
,  // measure 32
0002
0000
0000
0103
0000
0000
0100
0000
0010
0000
1000
0000
0100
0000
0010
0000
,  // measure 33
1001
0001
0000
0001
0000
0001
0100
0010
,  // measure 34
1000
0000
0010
0100
0000
0100
0000
0010
,  // measure 35
1000
0000
1000
0001
0000
1010
0000
0011
,  // measure 36
0000
0000
0000
0000
0001
0000
1000
0001
,  // measure 37
0100
0000
0000
0100
0000
0000
0100
0000
0010
0000
0000
0010
0000
0000
0010
0000
,  // measure 38
1000
0000
0000
1000
0000
0000
1000
0000
0001
0000
0000
0001
0000
0000
0001
0000
,  // measure 39
1000
0000
0000
0001
0100
0000
0000
0100
0010
0000
0000
0010
1000
0000
0000
2000
,  // measure 40
0002
0000
0000
0000
0000
0000
3003
0000
1000
0100
0010
0001
0010
0100
0010
0001
,  // measure 41
1000
0000
0001
0100
0000
0001
0100
0000
0001
0100
0000
0001
0100
0000
0010
0000
,  // measure 42
1000
0000
0100
1000
0000
0100
1000
0000
0100
1000
0000
0100
1000
0000
0010
0000
,  // measure 43
0100
0000
0001
1000
0000
0001
1000
0000
0001
1000
0000
0001
1000
0000
0100
0000
,  // measure 44
0010
0000
0001
0010
0000
0001
0010
0000
0001
0010
0000
0001
0010
0000
0100
0000
,  // measure 45
1000
0000
0010
1000
0000
0010
1000
0000
0010
1000
0000
0010
1000
0000
0010
0000
,  // measure 46
0100
0000
0001
1000
0000
0001
1000
0000
0001
1000
0000
0001
1000
0000
0001
0000
,  // measure 47
0010
0000
0100
1000
0000
0100
1000
0000
0100
1000
0000
0100
1000
0000
0001
0000
,  // measure 48
0010
0000
0100
1000
0000
1000
0010
0000
0010
0100
0000
0100
0001
0000
1000
0001
,  // measure 49
0100
0000
0001
0100
0000
0001
1000
0000
0001
0010
0000
0001
1000
0000
0100
0000
,  // measure 50
0010
0000
0100
0010
0000
0010
0001
0000
0001
1000
0000
1000
0010
0000
0100
0000
,  // measure 51
0001
0000
1000
0010
0000
0010
0100
0000
0100
0001
0000
0001
1000
0000
0100
0000
,  // measure 52
1000
0000
0010
1000
0000
1000
0001
0000
0001
0010
0000
0010
0001
0000
0010
0100
,  // measure 53
1000
0000
1000
0001
0000
0001
0100
0000
0100
0010
0000
0010
1000
0001
1000
0000
,  // measure 54
0010
0000
0100
0001
0000
0001
0010
0000
0010
0100
0000
0100
1000
0010
0100
0000
,  // measure 55
0001
0000
0100
0001
0000
0001
1000
0000
0100
0000
0010
0001
0000
0001
1000
0000
,  // measure 56
0100
0000
0000
0000
1000
0000
0000
0000
0010
0000
0100
0000
0000
0000
0001
1000
,  // measure 57
0100
0000
1000
0000
0001
0000
1000
0001
0100
0000
0001
0000
1000
0000
0001
1000
,  // measure 58
0100
0010
0100
1000
0000
0100
0010
0001
,  // measure 59
0100
0001
0010
0110
0000
1100
0000
1001
,  // measure 60
0000
0000
0101
1100
,  // measure 61
1010
0000
0000
0000
0000
0000
1000
0001
1000
0000
0100
0000
1000
0000
0010
0000
,  // measure 62
0000
0100
0000
0100
0010
1000
0100
1000
,  // measure 63
0001
0100
0001
0100
0001
0000
1000
0000
0100
1000
0100
1000
0100
0000
1000
0000
,  // measure 64
0010
1000
0010
1000
0010
0000
1000
0000
0001
0010
0001
0010
0001
0000
1000
0000
,  // measure 65
0100
1001
0000
0001
0100
0000
0100
1000
,  // measure 66
0100
0110
0000
0100
0010
0000
0010
0100
,  // measure 67
0001
1001
0000
0001
0010
0000
0100
0010
,  // measure 68
0011
0000
0000
0000
1010
0000
0000
0000
0101
0000
0000
0000
1010
0000
0000
0001
,  // measure 69
1000
0100
1000
0100
1000
0000
0000
0000
0001
0100
0001
0100
0001
0000
0000
0000
,  // measure 70
1000
0010
1000
0010
1000
0000
0000
0000
0001
0010
0001
0010
0001
0000
0000
0000
,  // measure 71
1001
0001
0100
0010
0110
0010
1000
0100
,  // measure 72
0110
0010
0001
0100
0001
0000
1000
0000
,  // measure 73
1001
0000
0000
0000
;
