#TITLE:Anahera;
#SUBTITLE:;
#ARTIST:Ferry Corsten presents Gouryella;
#TITLETRANSLIT:;
#SUBTITLETRANSLIT:;
#ARTISTTRANSLIT:;
#GENRE:;
#CREDIT:;
#BANNER:Anahera.png;
#BACKGROUND:Anahera-bg.png;
#LYRICSPATH:;
#CDTITLE:;
#MUSIC:Anahera.ogg;
#OFFSET:0.016000;
#SAMPLESTART:87.282722;
#SAMPLELENGTH:14.545456;
#SELECTABLE:YES;
#BPMS:0.000000=66.000000
,32.000000=33.000000
,38.000000=16.500000
,39.000000=132.000000
;
#STOPS:
;
#BGCHANGES:;
#KEYSOUNDS:;
#ATTACKS:;

//---------------dance-single - ----------------
#NOTES:
     dance-single:
     :
     Hard:
     7:
     0.364233,0.512105,0.101695,0.007264,0.232445,351.000000,337.000000,14.000000,1.000000,0.000000,0.000000,0.364233,0.512105,0.101695,0.007264,0.232445,351.000000,337.000000,14.000000,1.000000,0.000000,0.000000:
0000
0000
0000
0000
,
0000
0000
0000
0000
,
0000
0000
0000
0000
,
0000
0000
0000
0000
,
1001
0001
0100
0001
0011
0010
0100
0010
,
1100
1000
0100
1000
1001
0001
0100
0001
,
0110
0010
1000
0010
0110
0100
0001
0100
,
1010
1000
0010
0100
0101
0001
0011
0110
,
0011
0000
0101
0001
,
1010
0000
0000
0100
1001
0000
1000
0010
,
0000
0010
0000
0010
0000
0010
0000
0100
,
0000
0100
0000
0100
0000
0100
0000
0001
,
0000
0001
0000
0001
0000
0001
0000
0100
,
0000
0100
0000
0100
0000
0100
0000
0010
,
0000
0010
0000
0010
0000
0010
0000
1000
,
0000
1000
0000
1000
0000
1000
0000
0100
,
0000
0100
0000
0100
0000
0100
0000
0010
,
0000
0010
0000
0100
0000
0100
1000
0001
,
0000
1000
0000
0001
0000
1000
0000
0010
,
0000
0100
0000
0010
0000
0100
0000
0001
,
0000
1000
0000
0001
0000
1000
0000
0010
,
0000
0100
0000
0010
0000
0100
0000
0001
,
0000
0010
0000
0001
0000
0010
0000
0100
,
0000
1000
0000
0100
0000
1000
0000
0001
,
0000
1000
0000
0001
0000
1000
0000
0010
,
0000
0000
0100
0000
0000
0000
0010
0000
0000
0000
0100
0000
0001
0000
1000
0010
,
0000
0000
1000
0000
0000
0000
0010
1000
0000
0000
0010
0000
0000
0000
0100
0001
,
0000
0000
0100
0000
0000
0000
0001
0100
0000
0000
0001
0000
0000
0000
1000
0001
,
0000
0000
1000
0000
0000
0000
0001
1000
0000
0000
0001
0000
0000
0000
0100
0010
,
0000
0000
0100
0000
0000
0000
0010
0100
0000
0000
0010
0000
0000
0000
1000
0010
,
0000
0000
0100
0000
0000
0000
0001
0010
0000
0000
0100
0000
0000
0000
1000
0001
,
0000
0000
0010
0000
0000
0000
0001
1000
0000
0000
0010
0000
0000
0000
0100
0000
,
0000
0100
0000
0100
0000
0100
0000
0100
,
0000
0000
0100
0000
0001
1000
0001
1000
0001
0000
1000
0000
0001
0000
0001
0100
,
0000
0000
1000
0010
0000
0000
0001
0100
0000
0000
1000
0010
0000
0000
1000
0100
,
0000
0000
0010
0001
0000
0000
1000
0100
0000
0000
0010
0001
0000
0000
0001
1000
,
0000
0000
1000
0001
0000
0000
0001
1000
0000
0000
1000
0001
0000
0000
0001
0010
,
0000
0000
0010
0001
0000
0000
0001
0010
0000
0000
0010
0001
0000
0000
0001
0100
,
0000
0000
0100
0010
0000
0000
0010
1000
0000
0000
1000
0001
0000
0000
1000
0100
,
0000
0000
0100
0010
0000
0000
0010
0001
0000
0000
0001
1000
0000
0000
1000
0100
,
0000
0000
1000
0010
0000
0000
1000
0100
0000
0000
1000
0010
0000
0000
1000
0001
,
0000
0000
0001
0010
0000
0000
0010
0100
0000
0000
0100
1000
0001
0000
0100
0000
,
0001
0100
0001
0100
0001
0100
0001
1000
,
0001
1000
0001
1000
0001
1000
0100
0010
,
0100
0010
0100
0010
0100
0010
0001
1000
,
0001
1000
0001
1000
0001
1000
0001
0010
,
0001
0010
0001
0010
0001
0010
0100
1000
,
0100
1000
0100
1000
0100
1000
0001
0100
,
0010
0100
0001
0100
0010
0100
0001
1000
,
0100
0000
1000
0000
0010
0000
0100
0000
0001
0000
0100
0000
0010
0000
1000
0010
,
0000
0000
0100
0000
0000
0000
0001
0100
0000
0000
0010
0000
0000
0000
1000
0100
,
0000
0000
0010
0000
0000
0000
0001
0100
0000
0000
0010
0000
1000
0000
0001
0010
,
0000
0000
0100
0000
0000
0000
1000
0001
0000
0000
0010
0000
0000
0000
0100
1000
,
0000
0000
0010
0000
0000
0000
0100
0001
0000
0000
0010
0000
0100
0000
1000
0100
,
0000
0000
0010
0001
0000
0000
0001
0100
0000
0000
0100
0010
0000
0000
0010
1000
,
0000
0000
1000
0001
0000
0000
0001
0100
0000
0000
0100
0010
0000
0000
1000
0000
,
0000
1000
0000
1000
0000
1000
0000
1000
,
0000
0000
1000
0000
0000
0000
1000
0000
0001
0100
0001
0100
0020
0000
0000
0000
,
0000
0000
0000
0030
;

//---------------dance-single - ----------------
#NOTES:
     dance-single:
     :
     Medium:
     5:
     0.297820,0.384079,0.348667,0.029056,0.000000,287.000000,239.000000,48.000000,4.000000,0.000000,0.000000,0.297820,0.384079,0.348667,0.029056,0.000000,287.000000,239.000000,48.000000,4.000000,0.000000,0.000000:
0000
0000
0000
0000
,
0000
0000
0000
0000
,
0000
0000
0000
0000
,
0000
0000
0000
0000
,
1000
0001
1000
0010
0100
0001
0100
0010
,
1000
0100
1000
0001
0100
0010
0100
0001
,
0010
0100
0010
0100
0010
0001
0010
0001
,
0100
0010
0100
0001
0100
0001
1000
0001
,
1001
0000
0101
0011
,
1100
0000
0000
0010
2002
3000
1003
0010
,
0000
0010
0000
0010
0000
0010
0000
0100
,
0000
0100
0000
0100
0000
0100
0000
0001
,
0000
0001
0000
0001
0000
0001
0000
1000
,
0000
1000
0000
1000
0000
1000
0000
0010
,
0000
0010
0000
0010
0000
0010
0000
1000
,
0000
1000
0000
1000
0000
1000
0000
0100
,
0000
0100
0000
0100
0000
0100
0000
0010
,
0000
0010
0000
0100
0000
0100
0000
1000
,
0000
0001
0000
1000
0000
0001
0000
0100
,
0000
0010
0000
0100
0000
0010
0000
1000
,
0000
0010
0000
1000
0000
0010
0000
0100
,
0000
0001
0000
0100
0000
0001
0000
1000
,
0000
0100
0000
1000
0000
0100
0000
0010
,
0000
0001
0000
0010
0000
0001
0000
0010
,
0000
0100
0000
0010
0000
0100
0000
1000
,
0000
0001
0000
1000
0000
0001
1000
0010
,
0000
1010
0000
1000
0000
1010
0000
0010
,
0000
1010
0000
1000
0000
1010
0000
0010
,
0000
0110
0000
0100
0000
0110
0000
0100
,
0000
0101
0000
0001
0000
0101
0000
0001
,
0000
1001
0000
1000
0000
1001
0000
0001
,
0000
1001
0000
0010
0000
0110
0000
0100
,
0000
0100
0000
0100
0000
0100
0000
0100
,
0000
0100
0010
1000
1000
0001
0010
0100
,
0000
0100
0000
0110
0000
0110
0000
0010
,
0000
0010
0000
0011
0000
0011
0000
0001
,
0000
0001
0000
1001
0000
1001
0000
1000
,
0000
1000
0000
1010
0000
1010
0000
0010
,
0000
0010
0000
0110
0000
0110
0000
0100
,
0000
0100
0000
0101
0000
0101
0000
0001
,
0000
0001
0000
0001
0000
0001
0000
1001
,
0000
1001
0000
0110
0000
0110
0000
0100
,
0000
0100
0000
0101
0000
0011
0000
0010
,
0000
0010
0000
0110
0000
1100
0000
1000
,
0000
1000
0000
1010
0000
0110
0000
0100
,
0000
0100
0000
0101
0000
0011
0000
0010
,
0000
0010
0000
0110
0000
1100
0000
1000
,
0000
1000
0000
1100
0000
0011
0000
0010
,
0000
0010
0000
0011
0000
1100
0000
0100
,
0000
0100
0000
0100
0000
0100
1000
0010
,
0000
0100
0000
0010
0000
0100
0000
0010
,
0000
0100
0000
0010
0000
0100
0000
0001
,
0000
1000
0000
0001
0000
1000
0000
0010
,
0000
1000
0000
0010
0000
1000
0010
0100
,
0000
0001
0000
0010
0000
1000
0000
0010
,
0000
0100
0000
1000
0000
0100
0000
0001
,
0000
0100
0000
1000
0000
0100
0000
0001
,
0000
0100
0000
1000
0010
0100
2002
0000
,
0000
0000
0000
3003
;

//---------------dance-single - ----------------
#NOTES:
     dance-single:
     :
     Easy:
     2:
     0.140090,0.192039,0.007264,0.174334,0.000000,135.000000,134.000000,1.000000,24.000000,0.000000,0.000000,0.140090,0.192039,0.007264,0.174334,0.000000,135.000000,134.000000,1.000000,24.000000,0.000000,0.000000:
0000
0000
0000
0000
,
0000
0000
0000
0000
,
0000
0000
0000
0000
,
0000
0000
0000
0000
,
0010
0000
0100
0000
,
0001
0000
1000
0000
,
0100
0000
1000
0000
,
0010
0000
0000
0000
0100
0000
0010
0100
,
0001
0000
0010
0100
,
1000
0000
0000
1000
0002
0000
0003
2000
,
0000
0000
0000
0000
0000
3000
0000
0020
,
0000
0000
0000
0000
0000
0030
0000
0200
,
0000
0000
0000
0000
0000
0300
0000
0002
,
0000
0000
0000
0000
0000
0003
0000
2000
,
0000
0000
0000
0000
0000
3000
0000
0002
,
0000
0000
0000
0000
0000
0003
0000
0200
,
0000
0000
0000
0000
0000
0300
0000
0200
,
0000
0000
0000
0000
0000
0300
0000
0020
,
0000
0000
0000
0000
0000
0030
0000
0200
,
0000
0000
0000
0000
0000
0300
0000
0020
,
0000
0000
0000
0000
0000
0030
0000
2000
,
0000
0000
0000
0000
0000
3000
0000
0002
,
0000
0000
0000
0000
0000
0003
0000
0020
,
0000
0000
0000
0000
0000
0030
0000
0002
,
0000
0000
0000
0000
0000
0003
0000
0002
,
0000
0000
0000
2003
,
0000
0000
0000
0000
,
0000
0000
3000
0020
,
0000
0000
0030
0200
,
0000
0000
0300
0002
,
0000
0000
0000
0000
,
0000
1003
0000
0020
,
0000
0000
0000
0000
,
0000
0000
0030
0000
0000
0000
0000
1000
,
0000
1000
0000
1000
0000
0100
0000
0010
,
0000
0010
0000
0010
0000
0100
0000
1000
,
0000
1000
0000
1000
0000
0001
0000
0100
,
0000
0100
0000
0100
0000
0100
0000
0010
,
0000
0010
0000
0010
0000
1000
0000
0001
,
0000
0001
0000
0001
0000
1000
0000
0100
,
0000
0100
0000
0100
0000
0100
0000
0010
,
0000
0100
0000
0001
0000
1000
0000
0001
,
0000
0001
0000
0001
0000
0100
0000
0010
,
0000
0010
0000
0010
0000
1000
0000
0100
,
0000
0100
0000
0100
0000
1000
0000
0001
,
0000
0001
0000
0001
0000
0100
0000
0010
,
0000
0010
0000
0010
0000
0010
0000
0100
,
0000
0100
0000
0100
0000
0100
0000
0001
,
0000
0001
0000
0001
0000
0001
0000
1000
,
0000
1000
0000
0001
0000
0001
0000
1000
,
0000
0010
0000
1000
0000
0100
0000
1000
,
0000
0010
0000
1000
0000
0100
0000
1000
,
0000
0001
0000
1000
0000
0001
0000
0100
,
0000
0010
0000
0100
0000
0010
0000
0100
,
0000
0100
0000
0100
0000
0100
0000
0100
,
0000
0100
0000
0001
0000
0001
0000
0010
,
0000
0010
0000
0010
0000
0010
0000
0010
,
0000
0010
0000
0010
0000
0000
2002
0000
,
0000
0000
0000
3003
;

//---------------dance-single - ----------------
#NOTES:
     dance-single:
     :
     Beginner:
     1:
     0.060187,0.104873,0.029056,0.000000,0.000000,58.000000,54.000000,4.000000,0.000000,0.000000,0.000000,0.060187,0.104873,0.029056,0.000000,0.000000,58.000000,54.000000,4.000000,0.000000,0.000000,0.000000:
// measure 0
0000
0000
0000
0000
,  // measure 1
0000
0000
0000
0000
,  // measure 2
0000
0000
0000
0000
,  // measure 3
0000
0000
0000
0000
,  // measure 4
0001
0000
1000
0000
,  // measure 5
0100
0000
1000
0000
,  // measure 6
0010
0000
0100
0000
,  // measure 7
0001
0000
1000
0000
,  // measure 8
0001
0000
0000
0000
,  // measure 9
1000
0000
0010
0100
,  // measure 10
0000
0000
0000
0000
,  // measure 11
0000
0000
0000
0010
,  // measure 12
0000
0000
0000
0000
,  // measure 13
0000
0000
0000
1000
,  // measure 14
0000
0000
0000
0000
,  // measure 15
0000
0000
0000
0001
,  // measure 16
0000
0000
0000
0000
,  // measure 17
0000
0000
0000
0100
,  // measure 18
0000
0000
0000
0001
,  // measure 19
0000
0000
0000
0100
,  // measure 20
0000
0000
0000
0010
,  // measure 21
0000
0000
0000
1000
,  // measure 22
0000
0000
0000
0001
,  // measure 23
0000
0000
0000
0100
,  // measure 24
0000
0000
0000
0001
,  // measure 25
0000
0000
0000
1001
,  // measure 26
0000
0000
0000
0000
,  // measure 27
0000
0000
0000
0010
,  // measure 28
0000
0000
0000
0100
,  // measure 29
0000
0000
0000
0001
,  // measure 30
0000
0000
0000
0000
,  // measure 31
0000
1000
0000
1000
,  // measure 32
0000
0000
0000
0000
,  // measure 33
0000
0000
0000
1001
,  // measure 34
0000
0000
0000
0001
,  // measure 35
0000
0000
0000
0100
,  // measure 36
0000
0000
0000
0001
,  // measure 37
0000
0000
0000
1000
,  // measure 38
0000
0000
0000
1000
,  // measure 39
0000
0000
0000
1000
,  // measure 40
0000
0000
0000
0010
,  // measure 41
0000
0010
0000
0100
,  // measure 42
0000
0000
0000
0001
,  // measure 43
0000
0000
0000
1000
,  // measure 44
0000
0000
0000
0100
,  // measure 45
0000
0000
0000
1000
,  // measure 46
0000
0000
0000
0010
,  // measure 47
0000
0000
0000
0100
,  // measure 48
0000
0000
0000
0001
,  // measure 49
0000
1000
0000
1001
,  // measure 50
0000
0000
0000
0000
,  // measure 51
0000
0000
0000
0010
,  // measure 52
0000
0000
0000
0100
,  // measure 53
0000
0000
0000
0001
,  // measure 54
0000
0000
0000
0000
,  // measure 55
0000
1000
0000
0001
,  // measure 56
0000
0000
0000
0000
,  // measure 57
0000
0000
0000
0110
;
