#VERSION:0.82;
#TITLE:All About Elysium;
#SUBTITLE:(Al Storm Remix);
#ARTIST:Scott Brown;
#TITLETRANSLIT:;
#SUBTITLETRANSLIT:;
#ARTISTTRANSLIT:;
#GENRE:;
#ORIGIN:;
#CREDIT:;
#BANNER:All About Elysium (Al Storm Remix).png;
#BACKGROUND:All About Elysium (Al Storm Remix)-bg.png;
#PREVIEWVID:;
#JACKET:All About Elysium (Al Storm Remix)-jacket.png;
#CDIMAGE:;
#DISCIMAGE:;
#LYRICSPATH:;
#CDTITLE:;
#MUSIC:All About Elysium (Al Storm Remix).ogg;
#OFFSET:-5.521000;
#SAMPLESTART:33.097870;
#SAMPLELENGTH:11.031944;
#SELECTABLE:YES;
#BPMS:0.000=174.040;
#STOPS:;
#DELAYS:;
#WARPS:;
#TIMESIGNATURES:0.000=4=4;
#TICKCOUNTS:0.000=4;
#COMBOS:0.000=1;
#SPEEDS:0.000=1.000=0.000=0;
#SCROLLS:0.000=1.000;
#FAKES:;
#LABELS:0.000=Song Start;
#BGCHANGES:;
#KEYSOUNDS:;
#ATTACKS:
;

//---------------dance-single - ----------------
#NOTEDATA:;
#CHARTNAME:;
#STEPSTYPE:dance-single;
#DESCRIPTION:;
#CHARTSTYLE:;
#DIFFICULTY:Hard;
#METER:9;
#RADARVALUES:0.549749,0.581357,0.197769,0.032961,0.148326,439.000000,24.000000,4.000000,0.000000,0.000000,0.000000,0.000000,0.000000,0.549749,0.581357,0.197769,0.032961,0.148326,439.000000,24.000000,4.000000,0.000000,0.000000,0.000000,0.000000,0.000000;
#CREDIT:;
#NOTES:
0001
0100
0001
0100
0001
0100
0010
0000
,
1000
0100
1000
0100
1000
0100
0010
0000
,
0001
1000
0001
1000
0001
1000
0010
0000
,
1001
0000
0000
0000
,
0001
0100
0010
0100
0001
0000
0001
0100
,
0000
0100
0000
0001
1000
0000
0000
0001
,
0010
0000
0100
1000
0000
0010
0100
0000
,
0001
1000
0000
0100
1000
0010
0000
0000
,
1000
0001
0010
0001
1000
0000
0100
1000
,
0000
0010
0000
0100
0010
0000
1000
0001
,
0010
0000
0001
1000
0000
0001
0100
0000
,
0001
1000
0000
1000
0001
0100
0000
0000
,
0100
0010
1000
0100
0010
0000
0001
0010
,
0000
0010
0000
0001
0010
0000
0001
0100
,
0010
0000
1000
0010
0000
0100
0010
0000
,
1000
0001
0000
0001
0010
0100
0000
0000
,
0010
0001
1000
0010
0100
0000
0010
1000
,
0000
0010
0000
1000
0010
0000
0100
0010
,
1000
0001
1000
0001
1000
0001
1000
0001
,
0100
0100
0100
0100
,
1001
0000
0001
0100
0000
0010
1000
0000
,
0100
0010
0000
0100
0001
0000
0100
0001
,
1000
0000
0001
1000
0000
1000
0100
0000
,
0010
0001
0000
0010
0100
0000
0010
0001
,
1000
0000
0001
0100
0000
0010
0100
0000
,
0010
1000
0000
0100
0010
0000
0100
1000
,
0001
0000
1000
0100
0000
0010
0001
0000
,
0010
0100
0000
1000
0010
0000
0100
0010
,
1000
0000
0001
1000
0000
0001
0100
0000
,
0001
1000
0000
1000
0001
0000
1000
0001
,
0100
0000
0010
1000
0000
0010
0100
0000
,
0010
1000
0000
0001
0100
0000
0010
1000
,
0001
0000
0010
0100
0000
1000
0100
0000
,
0010
0001
0000
1000
0010
0000
0100
0001
,
0020
0000
0000
0230
0000
0000
2000
0000
,
0000
0000
0000
3300
,
0000
0001
0000
0001
0000
0001
0000
0001
,
0000
0100
0000
0100
0000
0100
0000
0100
,
0000
0010
0000
0010
0000
0010
0000
0010
,
0000
0100
0010
1000
0001
0000
1001
0000
,
0000
1000
0000
0100
0000
0010
0000
0001
,
0000
0010
0000
0100
0000
1000
0000
0000
,
0000
0100
0000
0010
0000
0001
0000
2000
,
0000
0000
0000
3000
,
0001
0100
1000
0100
,
0010
1000
0010
0001
,
0010
0100
0010
1000
,
0001
0000
0000
0000
,
1000
0001
0100
0001
,
0010
0100
0010
0001
,
1000
0000
0001
0100
0000
0010
1000
0000
,
0001
0001
0001
0001
,
1000
1000
1100
0101
,
1001
0000
0001
0010
0100
0010
0100
0010
0100
1000
0000
1000
,
0001
0001
1001
1010
,
0101
0000
0001
1000
0000
0100
0000
0000
0010
0001
0000
0001
,
1000
1000
1010
0011
,
0110
0000
0100
1000
0001
1000
0001
1000
0001
0100
0000
0010
,
1000
1000
1010
0101
,
0001
0000
0010
0100
0000
0010
0000
0000
0100
0010
0000
0010
,
0001
0001
0011
1010
,
1001
0000
1000
0100
0010
0100
0010
0100
0010
0001
0000
0001
,
1000
1000
1001
0101
,
1010
0000
1000
0001
0000
0010
0000
0000
0100
1000
0000
1000
,
0001
0001
0101
1100
,
0110
0000
0010
0001
1000
0001
1000
0001
1000
0010
0000
0100
,
0001
0000
1000
0000
0100
0000
0010
0001
,
0001
0000
0001
1000
0000
0100
0000
1000
,
0001
0100
0001
0100
0010
0000
0100
0010
,
0000
0010
0000
0100
0010
0000
1000
0010
,
0100
0000
0001
0010
0000
0100
1000
0000
,
0100
0010
0000
0100
1000
0010
0000
0000
,
0100
0001
0100
0010
1000
0000
0010
0100
,
0000
0100
0000
0010
1000
0000
0010
0100
,
0001
0000
1000
0100
0000
0100
1000
0000
,
0100
0010
0000
0100
1000
0010
0000
0000
,
0100
0001
1000
0010
1000
0000
0001
0100
,
0000
0001
0000
1000
0100
0000
1000
0010
,
0100
0000
0010
1000
0000
0010
0100
0000
,
0100
0001
0000
0100
0001
0010
0000
0000
,
0100
0010
0001
1000
0010
0100
0010
1000
,
0001
0010
0100
1000
0100
0010
0001
0010
,
0001
1000
0001
1000
0001
1000
0001
1000
,
1001
0000
0000
0000
;

//---------------dance-single - ----------------
#NOTEDATA:;
#CHARTNAME:;
#STEPSTYPE:dance-single;
#DESCRIPTION:;
#CHARTSTYLE:;
#DIFFICULTY:Medium;
#METER:6;
#RADARVALUES:0.395537,0.410370,0.263691,0.032961,0.000000,300.000000,32.000000,4.000000,0.000000,0.000000,0.000000,0.000000,0.000000,0.395537,0.410370,0.263691,0.032961,0.000000,300.000000,32.000000,4.000000,0.000000,0.000000,0.000000,0.000000,0.000000;
#CREDIT:;
#NOTES:
0001
0010
0100
1100
,
1000
0100
0010
0011
,
0001
0001
0001
0001
,
1001
0000
0000
0000
,
0001
0000
0100
0000
0001
0000
0000
1000
,
0000
0001
0000
0000
1000
0000
0000
0000
,
0100
0000
0000
0010
0000
0000
0100
0000
,
0000
0100
0000
0000
0010
0001
0000
0000
,
0010
0000
0001
0000
1000
0000
0000
0001
,
0000
1000
0000
0000
0001
0000
0000
0000
,
0010
0000
0000
0100
0000
0000
1000
0000
,
0000
0100
0000
0000
1000
0001
0000
0000
,
0000
1000
0001
0000
,
0100
0000
0001
0100
0000
0000
0000
0000
,
0000
0010
0010
0000
,
0000
0100
0010
1000
0001
0000
1000
0000
,
0001
0010
0100
1000
,
0001
0010
0100
1000
,
0001
1000
0001
1000
0001
1000
0001
1000
,
0001
0001
0001
0001
,
1000
0000
0000
1100
0000
0000
0110
0000
,
0000
0011
0000
0000
1100
0000
0010
0000
,
1001
0000
0000
0000
0001
1000
0000
0010
,
0000
0100
0000
0001
0000
1000
0000
0100
,
0000
0000
0000
0000
1000
0100
0010
0001
,
0000
0010
0000
0001
0000
0000
0000
0001
,
0100
0000
0010
1000
0000
0001
0100
0001
,
1000
0001
0000
1000
0000
0020
0000
0000
,
1030
0010
0100
0001
,
1000
0000
0001
0000
0010
0000
0100
0010
,
0001
1000
0010
0100
,
0001
0000
1000
0000
0001
0000
0100
0001
,
0100
0010
1000
0001
,
0010
0100
1000
0001
,
0010
0000
0000
0100
0000
0000
2000
0000
,
0000
0000
0000
0000
,
3000
0001
0000
0001
0000
0001
0000
0001
,
0000
1000
0000
1000
0000
1000
0000
1000
,
0000
0010
0000
0010
0000
0010
0000
0010
,
0000
0100
0010
1001
,
0000
0001
0000
1000
0000
0010
0000
1000
,
0000
0001
0000
1000
0000
0010
0000
2000
,
0000
0000
0000
0000
,
3000
0000
0000
0000
,
1000
0010
1000
0001
,
0010
0001
0100
0001
,
1000
0100
1000
0001
,
2000
0000
0000
0000
,
3001
1000
0100
1000
,
0010
0100
0001
0010
,
0100
0010
0001
1000
,
0001
0001
0001
0001
,
1000
0100
0010
0001
,
1001
0110
1001
0110
,
1001
0001
1000
1000
,
0010
0100
0010
1000
,
0001
0001
1000
1000
,
1001
0110
1001
0110
,
1001
0001
1000
0010
,
0110
0000
0000
0000
,
0100
0001
0010
0100
,
1100
0101
1100
0101
,
1100
0100
1000
1000
,
0010
0101
0010
1100
,
0010
0010
0100
0100
,
0110
1001
0101
1001
,
1100
0000
0100
0000
0010
0000
0001
1000
,
0010
0000
0100
0010
0000
0100
0000
0010
,
1000
0000
0001
0000
0010
0000
0100
0010
,
0000
0100
0000
0000
1000
0000
0000
0000
,
0100
0000
0000
1000
0000
0000
0010
0000
,
0000
0100
0000
0000
0010
1000
0000
0000
,
0001
0000
1000
0000
0010
0000
1000
0010
,
0000
0010
0000
0000
0100
0000
0000
0000
,
0001
0000
0000
1000
0000
0000
0100
0000
,
0000
1000
0000
0000
0010
0100
0000
0000
,
0010
0000
0100
0000
0001
0000
1000
0100
,
0000
1000
0000
0000
0100
0000
0000
0000
,
1000
0000
0000
0010
0000
0000
1000
0000
,
0000
0001
0000
0000
0010
0100
0000
0000
,
0010
0001
0010
0001
1000
0000
0000
0001
,
0000
0100
0000
0000
0010
0000
0000
0000
,
1000
0001
1000
0001
1000
0001
1000
0001
,
0010
0000
0000
0000
;

//---------------dance-single - ----------------
#NOTEDATA:;
#CHARTNAME:;
#STEPSTYPE:dance-single;
#DESCRIPTION:;
#CHARTSTYLE:;
#DIFFICULTY:Easy;
#METER:5;
#RADARVALUES:0.330791,0.410370,0.354335,0.057682,0.000000,231.000000,43.000000,7.000000,0.000000,0.000000,0.000000,0.000000,0.000000,0.330791,0.410370,0.354335,0.057682,0.000000,231.000000,43.000000,7.000000,0.000000,0.000000,0.000000,0.000000,0.000000;
#CREDIT:;
#NOTES:
1000
1000
1000
0001
,
1000
1000
1000
0001
,
0010
0010
0010
0010
,
1001
0000
0000
0000
,
1000
0000
0100
0000
,
1000
0000
0010
0000
,
0100
0000
0001
0000
,
0010
0000
0001
0000
,
1000
0000
0001
0000
,
0100
0000
0001
0000
,
1000
0000
0100
0000
,
0010
0000
0100
0000
,
1000
0000
0100
0000
,
1000
1000
1000
0000
,
0010
0000
0100
0000
,
0001
1000
0010
1000
,
0010
0100
0010
0100
,
0001
1000
0001
1000
,
0001
0010
0100
1000
,
1001
1001
1001
1001
,
0001
0000
0000
0100
0000
0000
0001
0000
,
0000
1000
0000
0000
0100
0000
1000
0000
,
0010
0000
0000
0100
0000
0000
0001
0000
,
0000
1000
0000
0000
0100
0000
1000
0000
,
0010
0000
0000
0100
0000
0000
0001
0000
,
0000
0010
0000
0000
0100
0000
0010
0000
,
0001
0000
0000
1000
0000
0000
0010
0000
,
0000
1000
0000
0000
0010
0000
0100
0000
,
0001
0000
0000
1000
0000
0000
0010
0000
,
0000
0100
0000
0000
0001
0000
1000
0000
,
0100
0000
0000
1000
0000
0000
0010
0000
,
0000
0100
0000
0000
0001
0000
0010
0000
,
0100
0000
0000
0010
0000
0000
0001
0000
,
0000
1000
0000
0000
0010
0000
0000
0000
,
2000
0000
0000
3002
0000
0000
2000
0000
,
0000
0000
0000
3003
,
1000
0000
0001
0000
,
0100
0000
0001
0000
,
0010
0000
0100
0000
,
0000
1000
1000
1000
,
0001
0000
1000
0000
,
0010
1000
0001
0010
,
0200
0000
0000
0000
,
0300
0000
0000
0000
,
0010
0001
1000
0010
,
1000
0001
0100
0001
,
1000
0100
0010
0001
,
1001
0000
0000
0000
,
0001
1000
0010
1000
,
0010
0100
0001
0000
,
1000
0001
0100
0010
,
2000
0000
0000
3000
,
0001
0001
1000
1000
,
1001
1001
1001
1001
,
0001
0001
0100
0100
,
0110
0110
0110
0110
,
0010
0010
1000
1000
,
1010
1010
1010
1010
,
0010
1000
0001
0001
,
1001
0000
0000
0000
,
1000
1000
1000
1000
,
1100
1100
1100
1100
,
0100
0100
0100
0010
,
0100
1001
0000
0110
,
0010
0010
0010
0010
,
0110
0110
0110
0110
,
0100
0010
1000
0002
,
2000
0000
0000
3003
,
1001
0000
0001
0000
,
0101
0000
0100
0000
,
1001
0000
1000
0000
,
1100
0000
0100
0000
,
0110
0000
0100
0000
,
1100
0000
1000
0000
,
1010
0000
0100
0000
,
0101
0000
0001
0000
,
1001
0000
0001
0000
,
0011
0000
0010
0000
,
0110
0000
0100
0000
,
1100
0000
1000
0000
,
1001
0000
0001
0000
,
1000
0000
0010
0000
,
0100
0010
1000
0001
,
1001
0000
0000
0000
;

//---------------dance-single - ----------------
#NOTEDATA:;
#CHARTNAME:;
#STEPSTYPE:dance-single;
#DESCRIPTION:;
#CHARTSTYLE:;
#DIFFICULTY:Beginner;
#METER:2;
#RADARVALUES:0.168339,0.205185,0.074163,0.000000,0.000000,134.000000,9.000000,0.000000,0.000000,0.000000,0.000000,0.000000,0.000000,0.168339,0.205185,0.074163,0.000000,0.000000,134.000000,9.000000,0.000000,0.000000,0.000000,0.000000,0.000000,0.000000;
#CREDIT:;
#NOTES:
// measure 0
0000
0000
0000
1000
,  // measure 1
0000
0000
0000
1000
,  // measure 2
0000
0000
0000
1000
,  // measure 3
1001
0000
0000
0000
,  // measure 4
0010
0000
0000
0000
,  // measure 5
0100
0000
0000
0000
,  // measure 6
0001
0000
0000
0000
,  // measure 7
1000
0000
0000
0000
,  // measure 8
0100
0000
0000
0000
,  // measure 9
1000
0000
0000
0000
,  // measure 10
0010
0000
0000
0000
,  // measure 11
0100
0000
0000
0000
,  // measure 12
0001
0000
0000
0000
,  // measure 13
0001
0000
0001
0000
,  // measure 14
1000
0000
0000
0000
,  // measure 15
1000
0000
0000
0000
,  // measure 16
0010
0000
0000
0000
,  // measure 17
0100
0000
0000
0000
,  // measure 18
0001
0000
1000
0000
,  // measure 19
0110
0000
0000
0000
,  // measure 20
0100
0000
0010
0000
,  // measure 21
0100
0000
0100
0000
,  // measure 22
0100
0000
0001
0000
,  // measure 23
0001
0000
0000
0000
,  // measure 24
1000
0000
1000
0000
,  // measure 25
1000
1000
1000
0000
,  // measure 26
0001
0000
0100
0000
,  // measure 27
0010
0010
0010
0000
,  // measure 28
0100
0000
0010
0000
,  // measure 29
0100
0000
0100
0000
,  // measure 30
0001
0000
1000
0000
,  // measure 31
0001
0001
0001
0000
,  // measure 32
1000
0000
0010
0000
,  // measure 33
0100
0000
0001
0000
,  // measure 34
1001
0000
0000
0000
,  // measure 35
0000
0000
0000
0000
,  // measure 36
1000
0000
0000
0000
,  // measure 37
0100
0000
0000
0000
,  // measure 38
1000
0000
0000
0000
,  // measure 39
0000
0010
0010
0010
,  // measure 40
0100
0000
0000
0000
,  // measure 41
0001
0000
0000
0000
,  // measure 42
1000
0000
0001
0000
,  // measure 43
0100
0000
0000
0000
,  // measure 44
1001
0000
0001
0000
,  // measure 45
1000
0000
0001
0000
,  // measure 46
0100
0100
0100
0000
,  // measure 47
0010
0000
0000
0000
,  // measure 48
0110
0000
0000
0000
,  // measure 49
0100
0000
0010
0000
,  // measure 50
1000
1000
1000
0000
,  // measure 51
1001
0000
0000
0000
,  // measure 52
1001
0000
0001
0000
,  // measure 53
1000
0000
0001
0001
,  // measure 54
0001
0000
0000
0000
,  // measure 55
0100
0000
0010
0000
,  // measure 56
1000
0000
0010
0000
,  // measure 57
0100
0100
0100
0000
,  // measure 58
0010
0010
0010
0000
,  // measure 59
1001
0000
0000
0000
,  // measure 60
0001
0000
0000
0000
,  // measure 61
1000
1000
1000
0000
,  // measure 62
0010
0000
0000
0000
,  // measure 63
0100
0100
0000
0100
,  // measure 64
0100
0000
0010
0000
,  // measure 65
1000
1000
1000
0000
,  // measure 66
0001
0000
1000
0000
,  // measure 67
0010
0000
0000
0000
,  // measure 68
0100
0000
0000
0000
,  // measure 69
0001
0000
0000
0000
,  // measure 70
0100
0000
0000
0000
,  // measure 71
0001
0000
0000
0000
,  // measure 72
1000
0000
0000
0000
,  // measure 73
0100
0000
0000
0000
,  // measure 74
0010
0000
0000
0000
,  // measure 75
0100
0000
0000
0000
,  // measure 76
1000
0000
0000
0000
,  // measure 77
0001
0000
0000
0000
,  // measure 78
0100
0000
0000
0000
,  // measure 79
0001
0000
0000
0000
,  // measure 80
1000
0001
0001
0000
,  // measure 81
1000
0000
0010
0000
,  // measure 82
0100
0010
1000
0001
,  // measure 83
1001
0000
0000
0000
;
