#VERSION:0.82;
#TITLE:Alien Sonic;
#SUBTITLE:;
#ARTIST:Ephexis;
#TITLETRANSLIT:;
#SUBTITLETRANSLIT:;
#ARTISTTRANSLIT:;
#GENRE:;
#ORIGIN:;
#CREDIT:;
#BANNER:Alien Sonic.png;
#BACKGROUND:Alien Sonic-bg.png;
#PREVIEWVID:;
#JACKET:Alien Sonic-jacket.png;
#CDIMAGE:;
#DISCIMAGE:;
#LYRICSPATH:;
#CDTITLE:CDtitle.png;
#MUSIC:Alien Sonic.ogg;
#OFFSET:-5.648000;
#SAMPLESTART:67.760002;
#SAMPLELENGTH:12.000000;
#SELECTABLE:YES;
#BPMS:0.000=170.000,
294.000=113.334,
295.500=170.004,
295.667=170.000;
#STOPS:12.000=1.069,
169.000=1.059,
295.500=0.441;
#DELAYS:;
#WARPS:;
#TIMESIGNATURES:0.000=4=4;
#TICKCOUNTS:0.000=4;
#COMBOS:0.000=1;
#SPEEDS:0.000=1.000=0.000=0;
#SCROLLS:0.000=1.000;
#FAKES:;
#LABELS:0.000=Song Start;
#BGCHANGES:;
#KEYSOUNDS:;
#ATTACKS:
;

//---------------dance-single - ----------------
#NOTEDATA:;
#CHARTNAME:;
#STEPSTYPE:dance-single;
#DESCRIPTION:;
#CHARTSTYLE:;
#DIFFICULTY:Challenge;
#METER:12;
#RADARVALUES:0.873982,1.000000,0.401172,0.429827,1.000000,738.000000,56.000000,60.000000,0.000000,0.000000,0.000000,0.000000,0.000000,0.873982,1.000000,0.401172,0.429827,1.000000,738.000000,56.000000,60.000000,0.000000,0.000000,0.000000,0.000000,0.000000;
#CREDIT:;
#NOTES:
// measure 0
0001
0020
1030
0000
0010
0000
0001
0000
,  // measure 1
0100
0000
0010
0000
1000
0100
1000
0001
,  // measure 2
0020
0001
0100
1000
,  // measure 3
0030
0000
0000
0000
1001
0000
0000
0101
0000
0000
1001
0000
0000
1100
0000
0000
,  // measure 4
1001
0000
0000
0101
0000
0000
1001
0000
0000
1100
0000
0000
1000
0001
0010
0000
,  // measure 5
0100
0000
1000
0001
0100
0000
0000
0011
0000
0000
0110
0000
0000
1100
0000
0000
,  // measure 6
1001
0000
0000
1000
0010
0000
0000
0101
0000
0000
1010
0000
0000
1100
0000
0000
,  // measure 7
0011
0000
0000
0001
1000
0000
0000
1100
0000
0000
0110
0000
0000
0011
0000
0000
,  // measure 8
0110
0000
0000
1100
0000
0000
1001
0000
0000
0101
0000
0000
0010
1000
0001
0000
,  // measure 9
0010
0000
0010
0100
1000
0000
0000
1100
0000
0000
0011
0000
0000
0101
0000
0000
,  // measure 10
1001
0000
0000
0001
1000
0000
0000
1100
0000
0000
1001
0000
0000
0101
0000
0000
,  // measure 11
1010
0000
0000
1000
1002
0000
0000
0103
0000
0000
2001
0000
0000
3010
0000
0000
,  // measure 12
0210
0000
0000
0301
0000
0000
0120
0000
0000
1030
0000
0000
1000
0001
0010
0000
,  // measure 13
0110
0000
0000
0000
0210
0000
0000
1300
0000
0000
2100
0000
0000
3010
0000
0000
,  // measure 14
0102
0000
0000
0103
0201
0000
0000
0310
0000
0000
2010
0000
0000
3100
0000
0000
,  // measure 15
1002
0000
0000
0103
0001
1000
0001
1000
0001
1000
0001
1000
0001
1000
0001
1000
,  // measure 16
0001
1000
0001
1000
0001
1000
0001
1000
0001
1000
0001
1000
0001
1000
0001
1000
,  // measure 17
0001
0000
0000
1000
0000
0000
0001
0000
0000
1000
0000
0000
0001
0000
0000
0000
1000
0000
0000
0000
0010
0000
0000
0000
0100
0000
0000
0000
0001
0000
0000
0000
0010
0000
0000
0000
0100
0000
0000
0000
1000
0000
0000
0000
0100
0000
0000
0000
,  // measure 18
1000
0000
0000
0000
0010
0000
0000
0000
0100
0000
0000
0000
0001
0000
0000
0000
0000
0000
1000
0000
0000
1001
0000
0000
0000
0000
0000
0001
0000
0000
1001
0000
0000
0000
0000
0000
1000
0000
0000
1001
0000
0000
0000
0000
0000
0001
0000
0000
,  // measure 19
1001
0000
0001
0100
0020
0000
0000
0000
0000
0000
0000
0000
0000
0000
0000
0000
,  // measure 20
0000
0000
0000
0000
,  // measure 21
0000
2030
0000
0000
,  // measure 22
0000
0000
0000
3002
2003
3002
2003
3002
2003
3002
0003
2000
,  // measure 23
0000
0000
3000
0200
0000
0000
0000
0000
0000
0000
0000
0000
,  // measure 24
0000
0000
0000
0000
,  // measure 25
0300
0020
0000
0000
,  // measure 26
0030
0002
0000
0000
,  // measure 27
0003
0000
0000
0000
1000
0000
0000
0010
0000
0000
0100
0000
0000
0010
0000
0000
,  // measure 28
1000
0000
0000
0100
0000
0000
0010
0000
0000
0100
0000
0000
0010
0000
0001
0000
,  // measure 29
0000
0000
0000
0000
1000
0000
0000
0010
0000
0000
0100
0000
0000
0010
0000
0000
,  // measure 30
1000
0000
0000
0001
1000
0000
0000
0100
0000
0000
0010
0000
0000
0001
0000
0000
,  // measure 31
0100
0000
0000
0010
1000
0000
0000
0010
0000
0000
0001
0000
0000
0010
0000
0000
,  // measure 32
1000
0000
0000
0100
0000
0000
0001
0000
0000
0100
0000
0000
1000
0000
0001
0000
,  // measure 33
0000
0000
0000
0000
0100
0000
0000
0010
0000
0000
0001
0000
0000
0010
0000
0000
,  // measure 34
1000
0000
0000
0010
0100
0000
0000
0001
0000
0000
0100
0000
0000
1000
0000
0000
,  // measure 35
0100
0000
0000
0010
1000
0000
0000
0001
0000
1000
0100
0000
0100
1000
0000
1000
,  // measure 36
0100
0000
0100
1000
0000
1000
0100
0000
0100
1000
0000
1000
0100
0000
0100
1000
,  // measure 37
0001
0000
0001
1000
0010
0000
0100
0001
0000
0001
0100
0000
0100
0001
0000
0001
,  // measure 38
0100
0000
0010
1000
0001
0000
0100
0001
0000
0001
0100
0000
0100
0001
0000
0001
,  // measure 39
0100
0000
0100
0010
1000
0100
1000
0100
1000
0100
1000
0100
1000
0100
1000
0100
,  // measure 40
1000
0100
1000
0100
1000
0010
0100
0001
1000
0100
0010
0100
1000
0010
0100
0001
,  // measure 41
0010
0100
1000
0001
1000
0000
0001
0100
0000
1000
0100
0000
0010
0001
0000
0010
,  // measure 42
1000
0000
0001
1000
0010
0000
0000
0000
1001
0000
0001
0100
0000
0010
1000
0000
,  // measure 43
1000
0100
0000
0010
0001
0000
0001
1000
0000
0010
1000
0000
1000
0001
0000
0001
,  // measure 44
0010
0100
1000
0000
0001
0000
0001
1000
0010
0000
0100
0010
0000
1000
0001
0000
,  // measure 45
0010
0100
0000
1000
0010
0000
0100
0001
0010
0000
0100
0010
0000
0001
0100
0000
,  // measure 46
0010
1000
0000
0001
1000
0000
0001
1000
0010
0000
0100
0001
0000
0001
0100
0000
,  // measure 47
0100
0010
0000
0010
1000
0000
1000
0001
0000
0001
1000
0000
1000
0001
0000
0001
,  // measure 48
1000
0010
0100
0000
0001
0000
0001
1000
0010
0000
0100
0001
0000
0010
0100
0000
,  // measure 49
1000
0010
0000
0100
0001
0000
0001
1000
0010
0000
0100
0001
0000
0010
0100
0000
,  // measure 50
1000
0001
0000
0100
0010
0000
0100
0001
1000
0000
1000
0100
0000
0010
0001
0000
,  // measure 51
0001
0100
0000
0010
1000
0000
1000
0100
0000
0010
0001
0000
0001
0100
0000
0010
,  // measure 52
1000
0001
0100
0000
0010
0000
1000
0001
1000
0000
1000
0100
0000
0010
0001
0000
,  // measure 53
0001
0100
0000
0010
1000
0000
1000
0100
0010
0000
0010
0001
0000
0001
0100
0000
,  // measure 54
0100
0010
0000
0010
1000
0000
0001
0100
0010
0000
0100
0001
0000
0010
1000
0000
,  // measure 55
0100
0010
0000
0100
1000
0000
0010
0100
0000
0100
0001
0000
0001
1000
0000
0100
,  // measure 56
0010
0001
1000
0000
0001
0000
0000
0000
0220
0000
0000
0000
0000
0000
0000
0000
,  // measure 57
0000
0000
0000
0000
,  // measure 58
0000
0000
0000
0000
0000
0000
0330
0000
1001
0000
1000
0100
0000
0100
0001
0000
,  // measure 59
0100
0010
0000
0010
0001
0000
0001
0010
0000
0010
1000
0000
1000
0010
0000
0100
,  // measure 60
0010
0001
0010
0000
0100
0000
1000
0001
0100
0000
1000
0100
0000
0001
0100
0000
,  // measure 61
0010
0100
0000
0001
0100
0000
0010
1000
0100
0000
0001
0100
0000
0010
0001
0000
,  // measure 62
0100
0010
0000
0100
0001
0000
1000
0001
0010
0000
0100
0100
0000
1000
1000
0000
,  // measure 63
0001
0001
0000
0100
0100
0000
0010
0010
0000
0100
0100
0000
0010
0010
0000
1000
,  // measure 64
1000
0000
0001
0000
0010
0000
0001
1000
0100
0000
0010
0010
0000
0001
0001
0000
,  // measure 65
1000
1000
0000
0001
0001
0000
1000
0100
0010
0000
0100
0100
0000
0010
0010
0000
,  // measure 66
0001
0001
0000
1000
1000
0000
0010
0100
0001
0000
1000
0000
0001
0000
0010
0000
,  // measure 67
0100
0010
0001
1000
0010
1000
0100
0010
,  // measure 68
0001
0000
1000
0000
0010
0000
0100
0000
0010
1000
0010
1000
0010
1000
0010
1000
,  // measure 69
0010
1000
0010
1000
0010
1000
0010
1000
0001
0010
0001
0010
0001
0010
0001
0010
,  // measure 70
0001
0010
0001
0010
0001
0010
0001
0010
0001
0010
0100
0010
1000
0001
0100
0010
,  // measure 71
1000
0100
0010
0100
1000
0010
0100
0001
0010
0100
0010
0001
1000
0010
1000
0100
,  // measure 72
0010
0100
1000
0010
0100
0001
1000
0001
1001
0000
0000
0000
0000
0000
1010
0000
,  // measure 73
0000
0000
0000
0000
0101
0000
0000
0000
0220
0000
0330
2002
0000
3003
0220
0330
,  // measure 74
1001
0002
0010
0003
1000
0001
1000
0000
,  // measure 75
0010
0100
1000
0010
0100
0001
1000
0001
,  // measure 76
0010
2000
0010
3000
0100
0010
0001
0000
,  // measure 77
1000
0010
0200
0301
1000
0002
0013
0100
,  // measure 78
0010
0002
1000
0003
0100
0010
0001
0000
,  // measure 79
0010
0000
0001
0000
0100
0000
0010
0000
1000
0001
1000
0001
1000
0000
0010
0000
,  // measure 80
0100
0002
0010
0013
0000
0100
1000
0001
,  // measure 81
0000
0000
0000
1000
0001
1000
0010
0100
,  // measure 82
0001
0020
1000
0030
0100
0010
0001
0000
,  // measure 83
1000
0000
0001
0100
0010
0000
0100
0010
1000
0000
0001
0010
0100
0000
0010
0000
,  // measure 84
0001
2000
0100
3000
0010
0100
0001
0000
,  // measure 85
1000
0001
0020
0000
0130
0020
0000
0030
,  // measure 86
0001
2000
0010
3000
1000
0010
0100
0000
,  // measure 87
0001
0000
0001
0100
0010
0000
0100
0010
1000
0000
0001
1000
0100
0000
0010
0000
,  // measure 88
0001
0020
0100
0030
0100
1000
0010
0000
,  // measure 89
2000
0000
0000
3002
2003
3002
2003
0000
0000
3002
2003
3002
2003
3002
2003
3002
2003
3002
0023
0000
0000
0000
0000
0000
,  // measure 90
0030
0000
0000
0000
;

//---------------dance-single - ----------------
#NOTEDATA:;
#CHARTNAME:;
#STEPSTYPE:dance-single;
#DESCRIPTION:;
#CHARTSTYLE:;
#DIFFICULTY:Hard;
#METER:11;
#RADARVALUES:0.741964,1.000000,0.623249,0.236405,0.791598,605.000000,87.000000,33.000000,0.000000,0.000000,0.000000,0.000000,0.000000,0.741964,1.000000,0.623249,0.236405,0.791598,605.000000,87.000000,33.000000,0.000000,0.000000,0.000000,0.000000,0.000000;
#CREDIT:;
#NOTES:
0001
0010
0100
0000
1000
0000
0010
0000
,
0100
0001
0010
0100
,
0010
0001
0100
0000
0010
0000
1000
0000
,
0000
0000
0000
0000
1001
0000
0000
0001
0000
0000
0100
0000
0000
1000
0000
0000
,
0100
0000
0000
0001
0000
0000
0100
0000
0000
1000
0000
0000
0100
0000
0010
0000
,
1000
0000
0000
0000
0010
0000
0000
0100
0000
0000
0010
0000
0000
1000
0000
0000
,
0100
0000
0000
0000
0010
0000
0000
0001
0000
0000
0010
0000
0000
0100
0000
0000
,
0010
0000
0000
0000
0100
0000
0000
1000
0000
0000
0100
0000
0000
0001
0000
0000
,
0100
0000
0000
1000
0000
0000
0010
0000
0000
0001
0000
0000
0010
0000
0100
0000
,
0001
0000
0000
0000
0100
0000
0000
0010
0000
0000
1000
0000
0000
0001
0000
0000
,
0010
0000
0000
0000
0100
0000
0000
0010
0000
0000
0001
0000
0000
1000
0000
0000
,
0010
0000
0000
0000
0101
0000
0000
0001
0000
0000
0100
0000
0000
0010
0000
0000
,
1000
0000
0000
0010
0000
0000
0100
0000
0000
0010
0000
0000
1000
0000
0010
0000
,
0100
0000
0000
0000
0101
0000
0000
0001
0000
0000
0100
0000
0000
0010
0000
0000
,
1000
0000
0000
0000
1100
0000
0000
0100
0000
0000
0010
0000
0000
0001
0000
0000
,
0010
0000
0000
0100
1000
0001
1000
0001
1000
0001
1000
0001
1000
0001
1000
0001
,
1000
0001
0100
0010
1000
0100
0010
0001
0010
0100
1000
0010
0100
0001
0010
0100
,
1000
0000
0000
0100
0000
0000
0010
0000
0000
0001
0000
0000
1000
0000
0000
0000
0010
0000
0000
0000
0100
0000
0000
0000
0001
0000
0000
0000
1000
0000
0000
0000
0001
0000
0000
0000
0100
0000
0000
0000
0010
0000
0000
0000
1000
0000
0000
0000
,
0100
0000
0000
0000
0010
0000
0000
0000
0001
0000
0000
0000
1000
0000
0000
0000
0000
0000
1000
0000
0000
0010
0000
0000
0000
0000
0000
0100
0000
0000
0001
0000
0000
0000
0000
0000
0001
0000
0000
0010
0000
0000
0000
0000
0000
0100
0000
0000
,
1000
0000
0001
1000
1002
0000
0000
0000
0000
0000
0000
0000
0000
0000
0000
0000
,
0000
0000
0000
0000
,
0003
2000
0000
0000
,
3000
0020
0000
0000
,
0030
2000
0000
0000
,
0000
0000
0000
0000
,
3000
0002
0000
0000
,
0003
0020
0000
0000
,
0030
0000
0000
0000
0100
0000
0000
0010
0000
0000
0010
0000
0000
0100
0000
0000
,
0100
0000
0000
0010
0000
0000
0010
0000
0000
0100
0000
0000
0100
0000
1000
0000
,
0000
0000
0000
0000
0001
0000
0000
0100
0000
0000
0010
0000
0000
1000
0000
0000
,
0010
0000
0000
0000
0100
0000
0000
0010
0000
0000
1000
0000
0000
0001
0000
0000
,
0010
0000
0000
0000
0100
0000
0000
0010
0000
0000
0010
0000
0000
0001
0000
0000
,
0001
0000
0000
1000
0000
0000
1000
0000
0000
0010
0000
0000
0010
0000
0100
0000
,
0000
0000
0000
0000
0010
0000
0000
0100
0000
0000
0001
0000
0000
1000
0000
0000
,
0010
0000
0000
0000
0100
0000
0000
0001
0000
0000
0010
0000
0000
0100
0000
0000
,
1000
0000
0000
0000
1001
0000
0000
0002
0000
0000
0103
0000
0000
0200
0000
0000
,
0310
0000
0000
0020
0000
0000
1030
0000
0000
2000
0000
0000
3001
0010
0100
0000
,
0010
0000
0001
1000
0020
0000
0000
0130
0000
0000
0200
0000
0000
0301
0000
0000
,
1001
0000
0000
0000
2000
0000
0000
3100
0000
0000
0200
0000
0000
0310
0000
0000
,
0020
0000
0000
0031
1000
0010
1000
0010
1000
0010
1000
0010
1000
0010
1000
0010
,
1000
0010
1000
0010
1000
0010
1000
0010
1000
0010
1000
0010
1000
0010
1000
0010
,
1000
0010
1000
0010
1000
0000
0001
0100
0000
0010
1000
0000
1000
0100
0000
0100
,
0010
0000
0001
1000
2002
3003
0000
0000
1001
0000
0000
0011
0000
0000
1100
0000
,
0000
0011
0000
0000
1100
0000
0000
0011
0000
0000
1100
0000
0000
0011
0000
0000
,
1100
0000
0100
0000
0100
0000
0000
0000
1100
0000
0000
0110
0000
0000
0011
0000
,
0000
0110
0000
0000
1001
0000
0000
0000
1001
0000
0000
0011
0000
0000
0110
0000
,
0000
1100
0000
0000
1001
0000
0000
0000
0101
0000
0000
1001
0000
0000
1100
0000
,
0000
1001
0000
0000
0101
0000
0000
1001
0000
0000
1100
0000
0000
1001
0000
0000
,
0101
0000
0100
0000
0100
0000
0000
0000
0110
0000
0000
1010
0000
0000
0110
0000
,
0000
0011
0000
0000
0110
0000
0000
0000
0101
0000
0000
1010
0000
0000
1100
0000
,
0000
0110
0000
0000
0011
0000
0000
0000
1001
0000
0000
1010
0000
0000
1001
0000
,
0000
0011
0000
0000
1001
0000
0000
1010
0000
0000
1001
0000
0000
0011
0000
0000
,
1001
0000
1000
0000
0001
0000
1000
0001
0101
0000
0000
1010
0000
0000
1100
0000
,
0000
0110
0000
0000
0011
0000
0000
0010
0001
0000
0000
0110
0000
0000
1100
0000
,
0000
0110
0000
0000
1001
0000
0000
0000
0101
0000
0000
1010
0000
0000
1100
0000
,
0000
0110
0000
0000
0011
0000
0000
0110
0000
0000
1001
0000
0000
0101
0000
0000
,
1010
1000
0010
0000
2002
0000
0000
0000
,
0000
0000
0000
0000
,
0000
0000
0000
0000
3003
0000
0000
0000
1001
0000
0001
0100
0000
0100
0010
0000
,
0010
1000
0000
1000
0100
0000
0100
0010
0000
0010
0001
0000
0001
0010
0000
0010
,
0100
0000
0010
0000
0001
0000
1000
0001
1000
0000
0001
0100
0000
0100
0010
0000
,
0010
1000
0000
1000
0100
0000
0100
1000
0010
0000
0100
0010
0000
0010
1000
0000
,
1000
0001
0000
0001
0010
0000
0100
0010
0001
0000
0001
0100
0000
0100
0010
0000
,
0010
1000
0000
1000
0100
0000
0010
0001
0000
0001
0010
0000
0010
0100
0000
1000
,
0100
0000
0010
0000
0100
0000
1000
0010
0100
0000
0010
1000
0000
0010
0100
0000
,
0010
0001
0000
0010
0100
0000
0100
0001
0100
0000
0001
0010
0000
0010
0100
0000
,
0100
1000
0000
1000
0001
0000
0001
0100
0010
0000
0100
0001
0000
0001
0010
0000
,
0010
1000
0000
0010
0100
0000
0100
1000
0000
1000
0100
0000
0010
0001
0000
0001
,
0100
0010
1000
0000
0010
0000
0100
0010
1000
0001
1000
0001
1000
0001
1000
0001
,
1000
0001
1000
0001
1000
0001
1000
0001
0100
0001
0100
0001
0100
0001
0100
0001
,
0100
0001
0100
0001
0100
0001
0100
0001
0100
0010
1000
0100
0010
0001
0010
0100
,
1000
0010
0100
0001
1000
0010
0100
0001
0010
0001
1000
0010
0100
0001
0010
0100
,
1000
0100
0010
0100
1000
0010
0100
0001
1000
0000
0000
0011
0000
0000
1000
0000
,
0000
0000
0000
0101
0000
0000
0000
0000
0000
0000
0000
0000
0011
0000
0000
0000
0000
0000
0000
0000
0000
0000
0000
0000
1002
0000
0000
0000
0000
0000
0000
0000
0003
0200
0000
0000
0000
0000
0000
0000
0000
0000
0320
0000
0000
0000
0000
0000
,
1030
0001
1001
0000
1000
0000
0100
0000
,
1000
0000
0010
0000
0100
0001
0100
1000
,
0100
0010
0110
0000
0010
0000
1000
0000
,
0010
0100
0001
1000
0100
0001
0100
1000
,
0010
0100
0101
0000
0001
0000
0010
0000
,
0100
0000
0000
0000
0010
0000
0000
0000
0001
1000
0001
1000
0001
0000
0000
0000
,
0010
0100
1100
0100
0000
1000
0001
0100
,
0000
0000
0000
0010
0100
0001
1000
0010
,
0100
0001
0101
0000
0001
0000
0100
0000
,
0010
0010
1000
1000
0001
0001
0010
0010
,
0100
0010
0011
0000
0001
0000
0010
0000
,
0100
1000
0010
0100
0001
1000
0100
0001
,
0100
1000
1010
0000
0010
0000
0100
0000
,
0001
1000
0010
0100
,
0010
1000
1001
0000
0001
0000
1000
0000
,
0002
0000
2003
3002
0023
0000
0230
2300
3020
0230
0320
0230
0002
0000
0000
0000
,
0303
0000
0000
0000
;

//---------------dance-single - ----------------
#NOTEDATA:;
#CHARTNAME:;
#STEPSTYPE:dance-single;
#DESCRIPTION:;
#CHARTSTYLE:;
#DIFFICULTY:Medium;
#METER:8;
#RADARVALUES:0.498395,0.548030,0.293715,0.171931,0.300879,422.000000,41.000000,24.000000,0.000000,0.000000,0.000000,0.000000,0.000000,0.498395,0.548030,0.293715,0.171931,0.300879,422.000000,41.000000,24.000000,0.000000,0.000000,0.000000,0.000000,0.000000;
#CREDIT:;
#NOTES:
0001
1000
0010
0000
1000
0000
0010
0000
,
0100
0001
0010
0100
,
2100
0100
0010
0001
,
3000
0000
0000
0000
0001
0000
0000
1000
0000
0000
0010
0000
0000
1000
0000
0000
,
0001
0000
0000
0010
0000
0000
0001
0000
0000
1000
0000
0000
0001
0000
0100
0000
,
0010
0000
0000
0000
0100
0000
0000
1000
0000
0000
0100
0000
0000
0001
0000
0000
,
0010
0000
0000
0000
0100
0000
0000
0010
0000
0000
0001
0000
0000
1000
0000
0000
,
0010
0000
0000
0000
0100
0000
0000
0010
0000
0000
1000
0000
0000
0001
0000
0000
,
0010
0000
0000
0001
0000
0000
1000
0000
0000
0010
0000
0000
0100
0000
0010
0000
,
1000
0000
0000
0000
0001
0000
0000
0010
0000
0000
1000
0000
0000
0010
0000
0000
,
0100
0000
0000
0000
0100
0000
0000
1000
0000
0000
0100
0000
0000
0001
0000
0000
,
0100
0000
0000
0000
0110
0000
0000
0100
0000
0000
0010
0000
0000
0001
0000
0000
,
1000
0000
0000
0010
0000
0000
1000
0000
0000
0001
0000
0000
1000
0000
0001
0000
,
0100
0000
0000
0000
0001
0000
0000
0100
0000
0000
0010
0000
0000
1000
0000
0000
,
0010
0000
0000
0000
1000
0000
0000
0010
0000
0000
0100
0000
0000
0001
0000
0000
,
1000
0000
0001
0100
0010
1000
0001
0100
,
0010
1000
0001
0010
0100
1000
0100
0010
,
0001
0000
0010
0000
0100
0000
0000
0010
0000
0000
0001
0000
0000
1000
0000
0000
,
0010
0000
0000
0000
0101
0000
0000
1010
0000
0000
0101
0000
0000
1001
0000
0000
,
1100
2002
0000
0000
,
0000
0000
0000
0000
,
3003
2000
0000
0000
,
3000
0002
0000
0000
,
0003
0200
0000
0000
,
0000
0000
0000
0000
,
0300
0020
0000
0000
,
0030
2000
0000
0000
,
3000
0002
0000
1000
,
0000
1000
0000
1000
,
1003
0020
0000
0000
,
0130
0200
0000
0000
,
0310
0000
2000
0000
0000
0001
0000
0000
,
0001
0000
0000
0001
0000
0000
0001
0000
,
3001
0200
0000
0000
,
0310
0020
0000
0000
,
0130
0000
0000
0000
1001
0000
0000
0001
0000
0000
1000
0000
0000
0001
0000
0000
,
1000
0000
0000
0001
0000
0000
1000
0000
0000
0001
0000
0000
1000
0000
0001
0000
,
0001
0000
0000
0000
0100
0000
0000
0010
0000
0000
1000
0000
0000
0100
0000
0000
,
0010
0000
0000
0000
0100
0000
0000
1000
0000
0000
0001
0000
0000
0010
0000
0000
,
0100
0000
0010
0001
0100
0010
1000
0010
,
0100
0010
1000
0001
0010
0100
1000
0100
,
0010
0001
0000
1000
1001
0000
0000
0001
,
1001
0000
0000
0000
0110
0000
0000
0000
1001
0000
0000
0001
0000
0000
0010
0000
,
0000
0001
0000
0000
1000
0000
0000
0010
0000
0000
1000
0000
0000
0001
0000
0000
,
0100
0000
0010
0000
0010
0000
0000
0000
0100
0000
0000
1000
0000
0000
0100
0000
,
0000
0001
0000
0000
0010
0000
0000
0000
0100
0000
0000
0010
0000
0000
0001
0000
,
0000
1000
0000
0000
0010
0000
0000
0000
1001
0000
0000
0001
0000
0000
1000
0000
,
0000
0100
0000
0000
1000
0000
0000
0010
0000
0000
0100
0000
0000
0001
0000
0000
,
1000
0000
0100
0000
0100
0000
0000
0000
1000
0000
0000
0010
0000
0000
0100
0000
,
0000
0001
0000
0000
0011
0000
0000
0000
0001
0000
0000
0100
0000
0000
0010
0000
,
0000
1000
0000
0000
1100
0000
0000
0000
1001
0000
0000
0001
0000
0000
0100
0000
,
0000
0001
0000
0000
0100
0000
0000
0010
0000
0000
1000
0000
0000
0010
0000
0000
,
0100
0000
0010
0000
1000
0000
0001
0000
0010
0000
0000
0100
0000
0000
0010
0000
,
0000
0001
0000
0000
1001
0000
0000
0000
0001
0000
0000
1000
0000
0000
0010
0000
,
0000
0100
0000
0000
0010
0000
0000
0000
1001
0000
0000
0001
0000
0000
1000
0000
,
0000
0010
0000
0000
1000
0000
0000
0001
0000
0000
0010
0000
0000
0100
0000
0000
,
0010
0001
1000
0010
2002
0000
0000
0000
,
0000
0000
0000
0000
,
0000
0000
0000
0000
0000
0000
3003
0000
0101
0000
0000
0001
0000
0000
0101
0000
,
0000
0100
0000
0000
0101
0000
0000
0001
0000
0000
0101
0000
0000
0100
0000
0000
,
0001
0000
0100
0000
0010
0000
1000
0000
0010
0000
0000
1010
0000
0000
1000
0000
,
0000
0010
0000
0000
1010
0000
0000
0000
1001
0000
0000
0001
0000
0000
1001
0000
,
0000
1000
0000
0000
1001
0000
0000
0000
0001
0000
0000
0101
0000
0000
0100
0000
,
0000
0110
0000
0000
0010
0000
0000
1010
0000
0000
1000
0000
0000
1001
0000
0000
,
0001
0000
1000
0000
0010
0000
1000
0000
0010
0000
0000
0110
0000
0000
0100
0000
,
0000
0101
0000
0000
1001
0000
0000
0000
0001
0000
0000
0101
0000
0000
0100
0000
,
0000
0110
0000
0000
1001
0000
0000
0000
0001
0000
0100
0000
0010
0000
0000
0000
,
0100
0010
1000
0000
0001
1000
0010
1000
,
0001
0010
0100
0000
0010
0001
0100
0010
,
1000
0001
1000
0000
0001
1000
0010
0100
,
0010
0100
0010
0000
0010
0001
0100
1000
,
0100
0010
1000
0001
0010
0100
0010
0001
,
1000
0000
0010
0000
0100
0000
0010
0000
1000
0000
0001
0100
0000
0010
1000
0000
,
0001
0100
0000
0010
1000
0000
0000
0000
2002
0000
0000
0000
0000
0000
3003
0000
,
0001
1000
0010
0000
1000
0000
0001
0000
,
0010
0100
0010
0001
,
1000
0001
0100
0000
0001
0000
1000
0000
,
0100
1000
0010
0000
0100
0010
0000
0010
,
0100
0001
1000
0000
0001
0000
0010
0000
,
0100
0000
0010
0000
0001
0010
0001
0000
,
0010
0100
1000
0001
0000
0000
0001
1000
,
0000
0000
0000
0100
1000
0010
0100
0010
,
1000
0001
0010
0000
0100
0000
0010
0000
,
1002
0100
1000
0103
,
1000
0001
0010
0000
0100
0000
0010
0000
,
0001
0000
1000
0000
0010
0100
0000
0010
,
1000
0001
0010
0000
0100
0000
0010
0000
,
0001
1000
0001
0100
,
0001
1000
0010
0000
1000
0000
0001
0000
,
2000
0000
3020
0000
0230
0302
0020
0000
,
0033
0000
0000
0000
;

//---------------dance-single - ----------------
#NOTEDATA:;
#CHARTNAME:;
#STEPSTYPE:dance-single;
#DESCRIPTION:;
#CHARTSTYLE:;
#DIFFICULTY:Easy;
#METER:5;
#RADARVALUES:0.376610,0.451319,0.272224,0.214914,0.000000,300.000000,38.000000,30.000000,0.000000,0.000000,0.000000,0.000000,0.000000,0.376610,0.451319,0.272224,0.214914,0.000000,300.000000,38.000000,30.000000,0.000000,0.000000,0.000000,0.000000,0.000000;
#CREDIT:;
#NOTES:
0001
0100
0001
0000
0100
0000
0100
0000
,
0001
0001
1000
1000
,
0200
0000
0000
0000
,
0300
1100
0100
0010
,
0001
1000
0010
1000
,
1000
1001
0001
0100
,
0001
1001
1000
0100
,
1000
1001
0001
0100
,
0010
1000
0010
0100
,
0100
0101
0001
0010
,
0100
1100
0100
0010
,
0001
1001
0001
1000
,
0010
1000
0001
0010
,
0010
0110
0100
1000
,
0010
0110
0100
0010
,
1000
0002
1003
2000
,
3001
0002
0103
0200
,
0310
2002
0000
0000
,
3003
0220
0000
0000
,
0330
2002
0000
0000
,
0000
0000
0000
3003
,
0000
0002
0000
0000
,
0000
0100
0000
0003
,
0000
0200
0000
0000
,
0000
0000
0000
0000
,
0300
0020
0000
0000
,
0030
2000
0000
0000
,
3000
0002
0000
0000
,
0000
0000
0000
0000
,
0003
0020
0000
0000
,
0000
0030
0002
0000
0000
0000
0000
0000
,
0003
2000
0000
0000
,
0000
0000
0000
0000
,
3000
0020
0000
0000
,
0030
0200
0000
0000
,
0300
0102
0000
0100
,
0000
0100
0000
0100
,
0100
0023
0000
0000
,
0030
0200
0000
0000
,
0300
2001
0000
0001
,
0000
0010
0000
0100
,
0000
0000
3010
1000
0010
0000
0000
0100
,
0010
0000
1001
0001
,
0010
0100
0010
0001
,
1000
0001
1000
0000
0001
0000
0100
0000
,
0010
1010
1000
0010
,
0100
0101
0001
1000
,
0100
1000
0001
0100
,
0010
1000
0010
0000
0100
0000
0001
0000
,
0010
0100
0010
0001
,
1000
0010
1000
0000
0110
0000
0010
0000
,
1000
0001
0010
0100
,
1000
0100
1000
0000
1100
0000
0100
0000
,
0010
0001
0011
0001
,
0010
0001
1001
0001
,
0100
0001
1000
0010
,
0100
0010
1000
0000
2002
0000
0000
0000
,
0000
0000
0000
0000
,
0000
3003
0101
0001
,
0100
0010
1000
0010
,
0100
0001
0100
0001
0100
0000
0010
0000
,
1000
0100
0001
0100
,
1000
0010
0100
0001
,
1000
0100
1000
0010
,
0100
0010
1000
0001
1000
0000
0001
0000
,
0010
0100
0010
0001
,
1000
0010
0110
0010
,
1000
0001
0010
0100
,
0100
0010
0001
1000
1001
0000
0001
0000
,
0100
0010
1010
0010
,
0100
0001
0101
1010
,
0101
1001
1001
1100
,
0011
0000
0110
0000
1100
0000
0000
0011
,
0000
0000
1001
0000
0220
0000
0000
0330
,
0100
0010
0100
0000
0010
0000
1000
0000
,
0001
0010
0001
1000
,
0001
0100
0001
0000
0100
0000
0010
0000
,
1000
0000
0001
0000
0000
1000
0000
0010
,
0100
0001
0100
0000
0010
0000
1000
0000
,
0001
0000
0010
0000
0100
1000
0100
0000
,
1000
0010
0100
0000
0010
0000
1000
0000
,
0001
0000
1000
0000
0001
0100
0010
1000
,
0001
1000
0010
0100
,
0001
0100
0000
0100
0010
0000
1000
0000
,
0001
1000
0001
0000
1000
0000
0100
0000
,
1000
0000
0010
0000
0000
0010
0000
0010
,
0100
0001
0100
0000
0001
0000
1000
0000
,
0100
1000
0010
0100
,
0001
0100
0001
0000
0100
0000
0010
0000
,
1000
0000
0001
0000
0010
0100
2000
0000
,
3000
0000
0000
0000
;

//---------------dance-single - ----------------
#NOTEDATA:;
#CHARTNAME:;
#STEPSTYPE:dance-single;
#DESCRIPTION:;
#CHARTSTYLE:;
#DIFFICULTY:Beginner;
#METER:2;
#RADARVALUES:0.167837,0.225659,0.093129,0.136112,0.000000,132.000000,13.000000,19.000000,0.000000,0.000000,0.000000,0.000000,0.000000,0.167837,0.225659,0.093129,0.136112,0.000000,132.000000,13.000000,19.000000,0.000000,0.000000,0.000000,0.000000,0.000000;
#CREDIT:;
#NOTES:
1000
1000
0000
0000
,
0001
0000
0000
0000
,
0100
0000
0000
0000
,
0000
0010
0000
0010
,
0000
0010
0000
0010
,
0010
1000
0000
0000
,
0000
0001
0000
0000
,
0000
0100
0000
0100
,
0000
0100
0000
0100
,
0100
0010
0000
0000
,
0000
1000
0000
0000
,
0000
0001
0000
0000
,
0000
1000
0000
0000
,
0010
0010
0000
0000
,
0000
0100
0000
0000
,
0000
0002
0000
0000
,
0000
0000
0000
0000
,
0003
2000
0000
0000
,
3000
1001
0000
0110
,
0000
1001
0000
0000
,
0000
0000
0000
0000
,
0000
0010
0000
0000
,
0000
0100
0000
0000
,
0000
0001
0000
0000
,
0000
0000
0000
0000
,
0000
1000
0000
0000
,
0000
0010
0000
0000
,
0000
1000
0000
0000
,
0000
0000
0000
0000
,
0000
0100
0000
0000
,
0000
0010
0000
0000
,
0000
0001
0000
0000
,
0000
0000
0000
0000
,
0000
1000
0000
0000
,
0000
0010
0000
0000
,
0000
1001
0000
0000
,
0000
0000
0000
0000
,
0000
0010
0000
0000
,
0000
0100
0000
0000
,
0000
0002
0000
0000
,
0000
0000
0000
0000
,
0003
1001
0000
0110
,
0000
1001
0110
0000
,
0010
0000
0100
0000
,
0010
0010
1000
0000
,
0001
0000
0100
0000
,
0001
0000
1000
0000
,
1000
0000
1000
0000
,
1000
1000
0010
0000
,
0010
0000
0010
0000
,
0100
0000
1001
0000
,
0001
0000
1000
0000
,
0010
0010
1000
0000
,
0001
0000
0100
0000
,
0001
0000
1000
0000
,
0001
0000
0100
0000
,
0010
0000
1001
0000
,
0000
0000
0000
0000
,
0000
0000
2000
0000
,
0000
3000
0002
0000
,
0003
0000
0100
0000
,
0010
0000
1000
0000
,
0001
0000
2000
3000
,
0002
0003
0200
0300
,
0020
0030
0200
0000
,
0000
0300
0020
0000
,
0000
0030
2000
3000
,
2000
3000
2000
3000
,
2000
3000
0002
0000
,
0000
0003
0020
0000
,
0000
0030
0200
0000
,
0000
0000
0000
0000
,
0000
0300
0110
0000
,
1001
0000
0110
0000
,
0010
0001
0000
0000
,
0000
0000
0000
0000
,
0010
0100
0000
0000
,
0000
0010
0000
0010
,
1000
0100
0000
0000
,
0000
0000
0001
0001
,
0000
0100
0000
0010
,
0000
0000
0001
0001
,
1000
0010
0000
0000
,
0001
0000
0010
0000
,
0100
0010
0000
0000
,
0000
0100
0000
0010
,
1000
0001
0000
0000
,
0000
0000
1000
1000
,
0001
1000
0000
0000
,
0001
1000
0010
0200
,
0300
0000
0000
0000
;
