#TITLE:ℵ0;
#SUBTITLE:;
#ARTIST:LeaF & Optie;
#TITLETRANSLIT:Aleph-0;
#SUBTITLETRANSLIT:;
#ARTISTTRANSLIT:;
#GENRE:MUSIC;
#CREDIT:;
#BANNER:Aleph-0.png;
#BACKGROUND:Aleph-0-bg.png;
#LYRICSPATH:;
#CDTITLE:;
#MUSIC:Aleph-0.ogg;
#OFFSET:0.028000;
#SAMPLESTART:46.099430;
#SAMPLELENGTH:15.000000;
#SELECTABLE:YES;
#BPMS:0.000000=249.999985
,24.000000=124.999992
,32.000000=249.999985
,93.000000=140.000000
,125.000000=70.000000
,126.000000=124.999992
,134.000000=249.999985
,135.000000=251.000000
,136.000000=251.999985
,137.000000=253.000000
,138.000000=253.999985
,139.000000=255.000000
,140.000000=256.000000
,141.000000=257.000000
,142.000000=258.000000
,143.000000=259.000000
,144.000000=260.000000
,145.000000=261.000000
,146.000000=262.000000
,147.000000=263.000000
,148.000000=264.000000
,149.000000=265.000000
,150.000000=266.000000
,151.000000=267.000000
,152.000000=268.000000
,153.000000=269.000000
,154.000000=270.000000
,155.000000=271.000000
,156.000000=272.000000
,157.000000=273.000000
,158.000000=274.000000
,159.000000=275.000000
,160.000000=276.000000
,161.000000=277.000000
,162.000000=278.000000
,163.000000=279.000000
,164.000000=280.000000
,165.000000=281.000000
,166.000000=282.000000
,167.000000=283.000000
,168.000000=284.000000
,169.000000=285.000000
,170.000000=286.000000
,171.000000=287.000000
,172.000000=288.000000
,173.000000=289.000000
,174.000000=290.000000
,175.000000=291.000000
,176.000000=292.000000
,177.000000=293.000000
,178.000000=294.000000
,179.000000=295.000000
,180.000000=296.000000
,181.000000=297.000000
,182.000000=298.000000
,183.000000=299.000000
,184.000000=300.000000
,185.000000=301.000000
,186.000000=302.000000
,187.000000=303.000000
,188.000000=304.000000
,189.000000=305.000000
,190.000000=306.000000
,191.000000=307.000000
,192.000000=308.000000
,193.000000=309.000000
,194.000000=310.000000
,195.000000=311.000000
,196.000000=312.000000
,197.000000=313.000000
,198.000000=314.000000
,199.000000=315.000000
,200.000000=316.000000
,201.000000=317.000000
,202.000000=318.000000
,203.000000=319.000000
,204.000000=320.000000
,205.000000=321.000000
,206.000000=322.000000
,207.000000=323.000000
,208.000000=324.000000
,209.000000=325.000000
,210.000000=326.000000
,211.000000=327.000000
,212.000000=328.000000
,213.000000=329.000000
,214.000000=330.000000
,215.000000=331.000000
,216.000000=332.000000
,217.000000=333.000000
,218.000000=334.000000
,219.000000=335.000000
,220.000000=336.000000
,221.000000=337.000000
,222.000000=338.000000
,223.000000=339.000000
,224.000000=340.000000
,225.000000=341.000000
,226.000000=342.000000
,227.000000=343.000000
,228.000000=344.000000
,229.000000=345.000000
,230.000000=346.000000
,231.000000=347.000000
,232.000000=348.000000
,233.000000=349.000000
,234.000000=350.000000
,235.000000=351.000000
,236.000000=352.000000
,237.000000=353.000000
,238.000000=354.000000
,239.000000=355.000000
,240.000000=356.000000
,241.000000=357.000000
,242.000000=358.000000
,243.000000=359.000000
,244.000000=360.000000
,245.000000=361.000000
,246.000000=362.000000
,247.000000=363.000000
,248.000000=364.000000
,249.000000=365.000000
,250.000000=366.000000
,251.000000=367.000000
,252.000000=368.000000
,253.000000=369.000000
,254.000000=370.000000
,255.000000=371.000000
,256.000000=372.000000
,257.000000=373.000000
,258.000000=374.000000
,259.000000=375.000000
,260.000000=376.000000
,261.000000=377.000000
,262.000000=378.000000
,263.000000=379.000000
,264.000000=380.000000
,265.000000=381.000000
,266.000000=382.000000
,267.000000=383.000000
,268.000000=384.000000
,269.000000=385.000000
,270.000000=386.000000
,271.000000=387.000000
,272.000000=388.000000
,273.000000=389.000000
,274.000000=390.000000
,275.000000=391.000000
,276.000000=392.000000
,277.000000=393.000000
,278.000000=394.000000
,279.000000=395.000000
,280.000000=396.000000
,281.000000=397.000000
,282.000000=398.000000
,283.000000=399.000000
,284.000000=800.000000
,332.000000=249.999985
,363.000000=124.999992
,399.000000=249.999985
,407.000000=124.999992
,409.000000=249.999985
,425.000000=124.999992
,427.000000=249.999985
,435.000000=124.999992
,437.000000=249.999985
,453.000000=124.999992
,455.000000=31.249998
,459.000000=62.499996
;
#STOPS:24.000000=0.960000,
60.000000=0.720000,
126.000000=1.800000,
316.000000=0.037000,
316.500000=0.037000,
317.000000=0.037000,
317.500000=0.037000,
318.000000=0.037000,
318.500000=0.037000,
319.000000=0.037000,
319.500000=0.037000,
320.000000=0.037000,
320.500000=0.037000,
321.000000=0.037000,
321.500000=0.037000,
322.000000=0.037000,
322.500000=0.037000,
323.000000=0.037000,
323.500000=0.037000,
324.000000=0.037000,
324.500000=0.037000,
325.000000=0.037000,
325.500000=0.037000,
326.000000=0.037000,
326.500000=0.037000,
327.000000=0.037000,
327.500000=0.037000,
328.000000=0.037000,
328.500000=0.037000,
329.000000=0.037000,
329.500000=0.037000,
330.000000=0.037000,
330.500000=0.037000,
331.000000=0.037000,
331.500000=0.037000,
332.000000=1.680000,
336.000000=0.960000,
340.000000=0.240000,
347.000000=0.960000,
351.000000=0.240000
;
#BGCHANGES:;
#KEYSOUNDS:;
#ATTACKS:;

//---------------dance-single - ----------------
#NOTES:
     dance-single:
     :
     Hard:
     11:
     0.618963,0.867178,0.453427,0.136748,0.035986,602.000000,539.000000,63.000000,19.000000,0.000000,0.000000,0.618963,0.867178,0.453427,0.136748,0.035986,602.000000,539.000000,63.000000,19.000000,0.000000,0.000000:
0000
0000
0000
0000
,
0000
0000
0000
0000
,
0000
0000
0000
0000
,
0000
0000
0000
0000
,
0000
0000
0000
0000
,
0000
0000
0000
0000
,
2002
3003
0000
0000
0000
0000
0000
0000
0000
0000
0000
0000
0000
0000
0000
0000
0000
0000
0000
0000
0000
0000
0000
0000
0201
0000
0000
0000
0000
0000
0000
0000
,
0310
1000
0100
0001
0100
0010
0001
0100
,
0010
0000
1000
0100
1000
0000
0001
0000
,
0100
0000
0001
0010
0000
0010
0001
0000
,
1000
0001
0000
0001
0010
0000
0100
0000
,
0010
0001
0101
0000
,
0001
0000
1000
0010
1000
0000
0100
0000
,
0010
0000
0001
0010
0000
0010
0100
0000
,
0100
0010
0000
0010
0001
0000
1000
0000
,
0101
0000
1010
0000
1000
0010
0100
0000
,
0001
0000
0010
0000
0100
0010
0000
0010
,
0001
0000
1000
0001
0000
0001
0100
0000
,
0010
1000
0100
1100
,
0000
0000
0100
0000
0010
0001
0010
0000
,
0001
0000
0100
0000
0010
1000
0000
0001
,
0100
0000
0010
1000
0000
1000
0100
0000
,
0010
0011
0000
1100
,
0001
0000
1001
0001
0100
1000
0100
0100
,
0010
1000
0100
0010
0011
0001
1001
1002
,
0000
0103
0001
0010
0010
0001
1000
0100
,
0001
0100
0100
0010
0001
1000
0100
1000
,
0001
0100
0110
0010
1000
0001
0010
1000
,
0010
0100
0010
0001
0011
0001
0101
0102
,
0000
1003
0010
0001
0010
0100
0100
0010
,
1000
0000
0001
0000
0010
0000
0100
0000
0100
0000
0010
0000
0001
1000
0100
1000
,
0010
0100
0001
0010
0100
0000
0000
0000
2002
0000
0000
0000
0000
0000
0000
0000
,
0000
0000
0000
0000
,
3003
0000
0000
1000
0010
0000
0000
0100
,
0000
0000
0010
0000
1000
0001
1000
0000
,
0001
0000
0010
0000
0100
0010
0000
0010
,
0001
1000
0101
1010
,
1100
0000
0011
0000
1001
0000
0000
0001
,
0000
0000
1000
0000
0010
1000
0010
0000
,
0100
0000
0001
0000
0010
0100
0000
0100
,
0010
0001
0011
1010
,
0011
0000
1001
0000
1100
0000
0000
0100
,
0000
0000
1000
0000
0010
1000
0010
0000
,
0100
0000
0001
0000
0010
0100
0000
0100
,
1000
0001
0011
0101
,
1010
0000
1100
0000
1001
0000
0000
0001
,
0000
0000
0100
0000
0001
0010
0001
0000
,
0100
0000
0010
0000
1000
0010
0000
0010
,
0100
0001
0011
1100
,
1010
0101
1001
0001
,
0010
0000
0001
0000
0100
0010
0100
0000
,
0001
0000
1000
0000
0100
0010
0000
0010
,
0001
1000
0101
0011
,
1100
1010
1001
0001
,
0010
0000
0001
0000
1000
0100
1000
0000
,
0100
0000
0010
0000
0001
1000
0000
0001
,
0100
0001
0101
1010
,
1100
0110
0011
0010
,
0001
0000
0100
0000
0010
0100
0010
0000
,
1000
0000
0001
0000
0010
0100
0000
0100
,
1000
0001
0011
0101
,
1010
1100
0110
0100
,
1000
0000
0010
0000
0100
0001
0100
0000
,
0001
0000
0010
0000
0100
0010
0000
0010
,
0001
1000
0101
1001
,
1100
0000
1001
0000
0001
0010
0001
0010
,
0001
0000
1000
0100
1000
0100
1000
0000
,
0010
1000
0010
1000
0010
0000
0100
0001
,
0100
0001
0100
0000
0010
0100
0010
0100
,
0010
0000
1000
0001
1000
0001
1000
0000
,
0001
0100
0001
0100
0010
1000
0010
1000
,
0001
0000
0000
0000
,
0000
0000
0000
0000
,
0000
0000
0000
0000
,
0000
0000
0000
0000
,
0000
0000
0000
0000
,
0000
0000
0000
0000
,
0000
0000
0000
0000
,
0000
0000
0000
0000
,
1000
0010
1000
0001
0100
0001
0010
0100
,
0010
0100
1000
0100
1000
0001
1000
0001
,
0100
0010
1000
0001
0010
0100
0010
0001
,
0100
0010
1000
0001
0010
0100
1000
0001
,
1000
0000
0001
0100
0000
0010
0000
1000
,
0100
0000
0010
0010
0000
0001
0000
1000
,
0100
0000
1000
0000
0000
0010
0000
0000
,
0100
0001
0000
0010
0000
0100
0010
0000
,
1000
1000
0000
0001
0000
0100
0010
0000
,
1000
0100
0010
0001
1000
0010
0200
0000
,
0000
0301
0010
1000
,
0100
0000
0000
0000
0000
0000
0000
0000
0000
0000
0000
0000
0000
0000
0000
0000
0001
0000
0000
0000
0000
0000
0000
0000
0000
0000
0000
0000
0000
0000
0000
0000
1000
0000
0000
0000
0000
0000
0000
0000
0000
0000
0000
0000
0000
0000
0000
0000
1001
0000
0000
0000
0000
0000
0000
0000
0000
0000
0000
0000
0000
0000
0000
1000
,
0000
0000
0000
0000
0000
0000
0000
0010
0000
0000
0000
0000
0000
0000
0000
0001
0000
0000
0000
0000
0000
0000
0000
0100
0000
0000
0000
0000
0000
0000
0000
1000
0000
0000
0000
0000
0000
0000
0000
0001
0000
0000
0000
0000
0000
0000
0000
0000
1001
0000
0000
0000
0000
0000
0000
0000
0000
0000
0000
0000
0000
0000
0000
0000
,
0000
0001
1000
1100
,
0100
1000
0010
0101
,
0001
0020
1030
0020
,
0130
2000
3010
0101
,
0001
1000
0001
0021
,
0031
0200
0301
0020
,
0031
0010
0100
2000
,
3100
0000
2000
0000
3002
0000
0103
0010
,
1000
0010
0100
0001
0010
0001
0100
0010
,
1000
0100
0010
0001
0010
0100
1000
0000
,
0010
0000
0100
0010
1000
0010
0100
0001
,
0010
0001
0100
0010
1000
0100
1000
0010
,
0100
0001
0010
0100
0010
0001
1000
0010
,
1000
0001
0010
0100
0010
0001
1000
0010
,
1000
0100
0010
0000
0100
0000
1000
0010
,
1000
0010
0100
0010
0100
0001
0100
0001
,
0010
0001
0010
0100
0010
0100
1000
0000
,
0100
0000
0010
0001
0100
0010
1000
0001
,
0010
0100
0010
0001
0100
0010
1000
0001
,
0010
0100
0010
0001
1000
0010
0100
0001
,
0010
0100
1000
0010
0100
0001
0010
0100
,
0010
0001
1000
0000
0001
0000
0220
0000
,
0000
0000
0000
0330
;

//---------------dance-single - ----------------
#NOTES:
     dance-single:
     :
     Medium:
     8:
     0.406130,0.578119,0.151142,0.107959,0.000000,395.000000,374.000000,21.000000,15.000000,0.000000,0.000000,0.406130,0.578119,0.151142,0.107959,0.000000,395.000000,374.000000,21.000000,15.000000,0.000000,0.000000:
0000
0000
0000
0000
,
0000
0000
0000
0000
,
0000
0000
0000
0000
,
0000
0000
0000
0000
,
0000
0000
0000
0000
,
0000
0000
0000
0000
,
0110
0000
0000
0000
,
1000
0010
0100
0001
0010
0001
1000
0100
,
0010
0100
1000
0001
,
0100
0000
0000
0001
0000
0000
0010
0000
,
0001
1000
0100
1000
,
0001
0000
1001
0000
,
0001
0010
0001
0100
,
0010
0000
0000
1000
0000
0000
0010
0000
,
0100
0010
1000
0001
,
1001
1000
0010
0100
,
0010
0000
1000
0000
0000
0001
0000
0000
,
1000
0001
0100
0010
,
0100
0001
0000
1001
,
0000
0001
0010
0100
,
0010
0000
0001
0000
0000
1000
0000
0000
,
0001
0000
1000
0010
0000
0010
0100
0000
,
0001
1000
0000
0110
,
0100
1001
0001
0100
,
0010
0000
1000
0000
1010
0000
0001
2001
,
0000
3100
1000
0010
,
0100
0000
0001
0000
1000
0100
0010
0001
,
0010
0100
1100
0000
0100
0000
0010
0000
,
0001
0000
0010
0000
0110
0000
0100
2001
,
0000
3001
0010
0001
,
0100
0000
0001
0000
0010
0000
0100
0010
,
0001
1000
0000
0000
0110
0000
0000
0000
,
0000
0000
0000
0000
,
0000
0000
0000
0010
1000
0000
0000
1000
,
0000
1000
0001
0100
,
0010
0000
1000
0000
0001
1000
0000
0001
,
1000
0001
1000
1000
,
0010
0000
0010
0000
0100
0000
0000
0100
,
0000
0100
0010
1000
,
0001
0000
0010
0000
0100
0010
0000
0010
,
0100
1000
0001
0001
,
0010
0000
0010
0000
0001
0000
0000
1000
,
0000
0010
1000
0100
,
0001
0000
0100
0000
0010
0001
0000
0001
,
0010
0100
0010
0010
,
0001
0000
0001
0000
1000
0000
0000
0001
,
0000
0100
0010
1000
,
0001
0000
0010
0000
0100
0010
0000
0010
,
0001
1000
0001
0001
,
1000
1000
0001
0100
,
0010
1000
0001
0100
,
0010
0000
1000
0000
0001
1000
0000
0001
,
1000
0001
1000
1000
,
0010
0010
1000
0010
,
0100
0001
1000
0010
,
0100
0000
0001
0000
1000
0001
0000
1000
,
0001
0100
0010
0010
,
1000
1000
0100
0010
,
0001
0100
0010
1000
,
0100
0000
0010
0000
0001
0010
0000
0001
,
0010
0001
1000
1000
,
0001
0001
0100
0010
,
1000
0001
0100
0010
,
1000
0000
0001
0000
0010
0001
0000
0001
,
0100
0010
1000
1000
,
0001
0000
0001
0000
1000
0001
1000
0000
,
0000
0000
0001
1000
0001
0000
0000
0000
,
1000
0001
1000
0000
0000
0000
0001
1000
,
0001
0000
0000
0000
0010
0100
0010
0000
,
0000
0000
0100
0010
0100
0000
0000
0000
,
0010
0100
0010
0100
0010
0100
0010
0100
,
0010
0000
0000
0000
,
0000
0000
0000
0000
,
0000
0000
0000
0000
,
0000
0000
0000
0000
,
0000
0000
0000
0000
,
0000
0000
0000
0000
,
0000
0000
0000
0000
,
0000
0000
0000
0000
,
4000
0004
0000
0000
0000
0000
0000
0000
,
0000
0000
0000
0000
,
0000
0000
0000
0000
,
0000
0000
0000
0000
,
3003
0000
1000
0000
0000
0001
0000
0000
,
0101
0000
0001
1000
0000
0100
0000
0000
,
1100
0000
0100
0000
0000
0010
0000
0000
,
0001
0000
0000
1000
0000
0000
1010
0000
,
1000
0010
0000
0100
0000
0000
1001
0000
,
0001
0000
0000
1000
0000
0000
0110
0000
,
0000
1000
0010
0100
,
0001
0010
0100
1001
,
0001
0100
0010
1000
0001
0010
1001
0000
,
0000
0001
1000
0020
,
0000
1030
0001
0200
,
0000
0301
0010
0200
,
0310
0020
0031
2001
,
0000
3100
1000
0020
,
0130
0002
0000
2000
,
0000
0000
0003
0200
,
3000
0320
0032
1003
,
0010
0100
0010
1000
,
0001
0010
0100
0010
,
0001
0100
0010
1000
,
0010
0100
0001
0010
,
0100
0010
0001
1000
,
0010
0100
0001
0010
,
0100
1000
0100
0001
,
0100
1000
0010
0001
,
0010
0100
0010
1000
,
0010
0001
0010
0100
,
0010
0100
0001
1000
,
0010
0100
0001
0010
,
0100
0000
1000
0000
0100
0010
0000
0000
,
0001
1000
0010
2002
,
0000
0000
0000
3003
;

//---------------dance-single - ----------------
#NOTES:
     dance-single:
     :
     Easy:
     5:
     0.236481,0.371648,0.064775,0.107959,0.000000,230.000000,221.000000,9.000000,15.000000,0.000000,0.000000,0.236481,0.371648,0.064775,0.107959,0.000000,230.000000,221.000000,9.000000,15.000000,0.000000,0.000000:
0000
0000
0000
0000
,
0000
0000
0000
0000
,
0000
0000
0000
0000
,
0000
0000
0000
0000
,
0000
0000
0000
0000
,
0000
0000
0000
0000
,
0000
0000
0000
0000
,
1000
0010
0100
0001
,
1000
0000
0001
0000
,
0100
0000
0001
0000
,
0010
0000
0001
0000
,
1000
0000
1001
0000
,
0001
0000
0010
0000
,
0001
0000
1000
0000
,
0100
0000
0010
0000
,
0100
0010
0000
0001
,
0000
1000
0000
1000
,
0000
0001
0000
1000
,
0000
0010
0000
1001
,
0000
0001
0000
1000
,
0000
0010
0000
1000
,
0000
0001
0000
0100
,
0000
0010
0000
0000
,
0000
1001
0000
0001
,
0000
0000
1000
0000
1000
0000
0001
1000
,
0000
0010
0000
1000
,
0000
0001
1000
0010
,
0100
0110
0000
0100
,
0000
0000
0010
0000
0010
0000
0100
0010
,
0000
1000
0000
0001
,
0000
0100
0010
1000
,
0001
0000
1001
0000
,
0000
0000
0000
0000
,
0000
0000
0000
1000
0001
0000
0000
0000
,
0100
0000
0001
0000
,
0010
0000
0001
0000
,
1000
0000
0001
0100
,
0010
1000
0001
0000
,
0100
0000
0010
0000
,
1000
0000
0010
0000
,
0100
0000
0001
0010
,
0100
1000
0100
0000
,
1000
0000
0010
0000
,
0100
0000
0001
0000
,
1000
0000
0001
0100
,
0010
1000
0001
0000
,
1000
0000
0100
0000
,
1000
0000
0010
0000
,
0100
0000
0001
0010
,
0100
1000
0100
0000
,
1000
0000
0010
0000
,
0100
0000
0001
0000
,
1000
0000
0001
0100
,
0010
1000
0001
0000
,
0100
0000
0010
0000
,
1000
0000
0001
0000
,
0010
0000
0100
0010
,
0001
1000
0100
0000
,
1000
0000
0010
0000
,
0100
0000
0001
0000
,
1000
0000
0001
0100
,
0010
1000
0001
0000
,
1000
0000
0010
0000
,
0100
0000
0001
0000
,
0100
0000
0010
0100
,
0001
1000
0010
0000
,
0000
1000
0000
0000
,
0001
0000
0000
0010
,
0000
0000
0100
0000
,
0000
1000
0000
0000
,
0001
0000
1000
0000
,
2002
0000
0000
0000
,
0000
0000
0000
0000
,
0000
0000
0000
0000
,
0000
0000
0000
0000
,
0000
0000
0000
0000
,
0000
0000
0000
0000
,
0000
0000
0000
0000
,
0000
0000
0000
0000
,
0000
0000
0000
0000
,
0000
0000
0000
0000
,
0000
0000
0000
0000
,
0000
0000
0000
0000
,
3003
0000
1000
0000
0000
0001
0000
0000
,
0000
0000
0010
0000
0000
0010
0000
0000
,
0000
0000
0100
0000
0000
0010
0000
0000
,
1000
0000
0000
0001
0000
0000
0000
0000
,
0100
0000
0000
0100
0000
0000
0010
0000
,
0100
0000
0000
0010
0000
0000
1001
0000
,
0000
0001
0000
0100
,
0000
0000
0010
0000
0000
1000
0001
0000
,
1000
0100
0010
1001
,
0000
0001
1000
0020
,
0000
1030
0001
0200
,
0000
0301
0100
0010
,
0100
0001
1000
0200
,
0000
1300
0001
2000
,
3010
0200
0000
0320
,
0000
0000
0000
2030
,
0000
3002
2003
3001
,
0000
0100
0000
0010
,
0000
1000
0000
0100
,
1000
0010
0000
0100
,
0000
0001
0000
0010
,
0000
0001
0000
0010
,
0000
0100
0000
0010
,
0000
0001
1000
0100
,
0000
0000
0000
1000
,
0000
0100
0000
1000
,
0010
0100
0000
0000
,
0000
0020
0000
0000
,
0000
0000
0000
0000
,
0000
0000
2000
0030
0000
0000
0000
0000
,
0000
3001
1000
0220
,
0000
0000
0000
0330
;

//---------------dance-single - ----------------
#NOTES:
     dance-single:
     :
     Beginner:
     2:
     0.103846,0.245606,0.064775,0.000000,0.000000,101.000000,92.000000,9.000000,0.000000,0.000000,0.000000,0.103846,0.245606,0.064775,0.000000,0.000000,101.000000,92.000000,9.000000,0.000000,0.000000,0.000000:
0000
0000
0000
0000
,
0000
0000
0000
0000
,
0000
0000
0000
0000
,
0000
0000
0000
0000
,
0000
0000
0000
0000
,
0000
0000
0000
0000
,
0000
0000
0000
0000
,
0000
0000
0000
0000
,
1000
0000
0000
0000
,
0001
0000
0000
0000
,
1000
0000
1000
0000
,
1000
0000
0000
0000
,
0001
0000
0000
0000
,
0100
0000
0000
0000
,
0010
0000
0010
0000
,
0010
0100
0000
0000
,
0000
0010
0000
0000
,
0000
1000
0000
1000
,
0000
1000
0000
0000
,
0000
0001
0000
0000
,
0000
1000
0000
0000
,
0000
0010
0000
0010
,
0000
0100
0000
0000
,
0000
1001
0000
0000
,
0000
0000
1000
0000
,
0000
0001
0000
0000
,
0000
0000
0000
0000
,
0000
0110
0000
0000
,
0000
0000
0100
0000
,
0000
0010
0000
0000
,
0000
1000
0000
0001
,
0000
0000
1001
0000
,
0000
0000
0000
0000
,
0000
0000
0010
0000
,
0000
0000
0000
0000
,
0000
0000
1000
0000
,
0000
0000
0001
0000
,
0000
0000
0001
0000
,
0000
0000
0000
0000
,
0000
0000
0000
0000
,
0000
0000
1000
0000
,
0000
0000
1000
0000
,
0000
0000
0000
0000
,
0000
0000
0000
0000
,
0000
0000
0010
0000
,
0000
0000
0010
0000
,
0000
0000
0000
0000
,
0000
0000
0000
0000
,
0000
0000
0100
0000
,
0000
0000
0100
0000
,
0000
0000
0000
0000
,
0000
0000
0000
0000
,
0000
0000
0010
0000
,
0000
0000
0010
0000
,
0000
0000
0000
0000
,
0000
0000
0000
0000
,
0000
0000
1000
0000
,
0000
0000
1000
0000
,
0000
0000
0000
0000
,
0000
0000
0000
0000
,
0000
0000
0001
0000
,
0000
0000
0001
0000
,
0000
0000
0000
0000
,
0000
0000
0000
0000
,
0000
0000
1000
0000
,
0000
0000
1001
0000
,
0000
0000
0000
0000
,
1001
0000
0000
0000
,
0000
0000
0110
0000
,
0000
0000
0000
0000
,
0110
0000
0000
0000
,
0000
0000
0000
0000
,
0000
0000
0000
0000
,
0000
0000
0000
0000
,
0000
0000
0000
0000
,
0000
0000
0000
0000
,
0000
0000
0000
0000
,
0000
0000
0000
0000
,
0000
0000
0000
0000
,
0010
0000
0000
0000
,
0000
0000
0000
0000
,
0000
0000
0000
0000
,
0000
0000
0000
0000
,
0000
1000
0000
0000
,
0000
0001
0000
0000
,
0000
0000
0000
0000
,
1000
0000
0000
0000
,
0001
0000
0000
0000
,
1000
0000
0000
0000
,
0000
0000
0000
0000
,
0000
0000
0000
1001
,
0000
0000
0000
0010
,
0000
0000
0000
0100
,
0000
0000
0000
0001
,
0000
0000
0000
1000
,
0000
1000
0000
0010
,
0000
0000
0000
0100
,
0000
0010
0000
0010
,
0000
0000
0000
1000
,
0000
0001
0000
0100
,
0000
0000
0000
0010
,
0000
0010
0000
0010
,
0000
1000
0000
1000
,
0000
1000
0000
0000
,
0000
0001
0000
0001
,
0000
0100
0000
0100
,
0000
0010
0010
1000
,
0000
0000
0000
0001
,
0000
0001
0000
1000
,
0001
1000
0000
0000
,
0000
0010
0000
0000
,
0000
0000
0000
0000
,
0000
0100
0000
0000
,
0000
0010
1000
1001
;

//---------------dance-single - ----------------
#NOTES:
     dance-single:
     :
     Challenge:
     12:
     0.675513,1.073649,0.323876,0.511005,0.237509,657.000000,612.000000,45.000000,71.000000,0.000000,0.000000,0.675513,1.073649,0.323876,0.511005,0.237509,657.000000,612.000000,45.000000,71.000000,0.000000,0.000000:
// measure 0
0000
0000
0000
0000
,  // measure 1
0000
0000
0000
0000
,  // measure 2
0000
0000
0000
0000
,  // measure 3
0000
0000
0000
0000
,  // measure 4
0000
0000
0000
0000
,  // measure 5
0000
0000
0000
0000
,  // measure 6
0220
0330
0000
0000
0000
0000
0000
0000
0000
0000
0000
0000
0000
0000
0000
0000
0000
0000
0000
0000
0000
0000
0000
0000
0000
0000
0000
0000
0000
0000
0000
0000
0000
0000
0000
0000
0000
0000
0000
0000
0000
0000
0000
0000
0000
0000
0000
0000
0000
0000
0000
0000
0000
0000
0000
0000
0000
0000
0000
0000
0000
0000
0000
0000
0000
0000
0000
0000
0000
0000
0000
0000
0000
0000
0000
0000
0000
0000
0000
0000
0000
0000
0000
0000
0000
0000
0000
0000
0000
0000
0000
0000
0000
0000
0000
0000
0000
0000
0000
0000
0000
0000
0000
0000
0000
0000
0000
0000
0000
0000
0000
0000
0000
0000
0000
0000
0000
0000
0000
0000
0000
0000
0000
0000
0000
0000
0000
0000
0000
0000
0000
0000
0000
0000
0000
0000
0000
0000
0000
0000
0000
0000
0000
0000
1000
0000
0000
0000
0000
0000
0000
0000
0000
0000
0000
0000
0000
0000
0000
0000
0000
0000
0000
0000
0000
0000
0000
0000
0001
0000
0000
0000
0000
0000
0000
0000
1000
0000
0000
0000
0000
0000
0000
0000
0001
0000
0000
0000
0000
0000
0000
0000
,  // measure 7
1000
0012
0103
2010
3100
0021
0130
2010
,  // measure 8
3100
0000
0010
0001
0100
0000
0010
0000
,  // measure 9
1001
0000
0001
0010
0000
0010
1000
0000
,  // measure 10
0110
0000
0100
0010
0001
0000
0011
0000
,  // measure 11
2100
0000
3010
0000
,  // measure 12
0101
0000
0001
0100
0010
0000
1000
0000
,  // measure 13
1001
0000
1000
0010
0000
0010
0001
0000
,  // measure 14
0001
0100
0000
0100
1000
0000
0100
0000
,  // measure 15
1001
0000
0011
0000
0001
1000
0100
0000
,  // measure 16
1000
0000
1010
0000
1000
0010
0000
0010
,  // measure 17
0001
0000
0010
0000
0100
0010
1000
0000
,  // measure 18
0011
0201
0000
0310
,  // measure 19
0000
0000
1001
0000
0001
1000
0010
0000
,  // measure 20
1000
0000
1010
0000
0010
1000
0000
1000
,  // measure 21
0100
0000
0100
0100
0000
0010
0010
0000
,  // measure 22
0001
0000
1001
0000
0000
0000
0001
0100
,  // measure 23
0010
1000
0100
1000
0010
0001
0010
1000
,  // measure 24
0001
0100
0001
0010
0110
0100
1100
1100
,  // measure 25
0100
0001
0100
0010
0001
0010
1000
0010
,  // measure 26
0001
0000
0100
0000
1000
0000
0100
0000
0010
0000
1000
0000
0001
0100
0010
1000
,  // measure 27
0100
0010
0100
1000
1001
0000
0001
0000
0010
0000
1000
0000
0010
0000
0001
0000
,  // measure 28
0100
1000
0100
0001
0011
0001
1001
1000
,  // measure 29
0100
0001
0100
0010
0001
0010
1000
0010
,  // measure 30
0100
0000
1000
0000
0010
0000
0100
0000
0001
0000
0010
0000
0100
1000
0100
1000
,  // measure 31
0001
0010
0001
0010
0100
0000
0000
0000
4004
0000
0000
0000
0000
0000
0000
0000
,  // measure 32
0000
0000
0000
0000
,  // measure 33
0000
0000
3003
0010
1001
0000
1000
0000
,  // measure 34
0010
0000
0100
0000
0001
0100
0010
0000
,  // measure 35
0100
0000
0001
0000
0010
0010
0000
0100
,  // measure 36
0100
0000
0010
0000
0001
0100
0010
1000
,  // measure 37
0001
0100
0010
1000
0001
0000
1000
0000
,  // measure 38
0100
0000
1000
0000
0010
1000
0010
0000
,  // measure 39
0100
0000
0001
0000
0010
0010
0000
0001
,  // measure 40
0001
0000
1000
0000
0001
0100
0010
1000
,  // measure 41
0001
0100
0010
1000
0001
0000
0010
0000
,  // measure 42
0001
0000
0100
0000
0010
0100
0010
0000
,  // measure 43
1000
0000
0001
0000
0010
0010
0000
0100
,  // measure 44
0100
0000
1000
0000
0001
0100
0010
1000
,  // measure 45
0001
0100
0010
1000
0001
0000
0010
0000
,  // measure 46
0001
0000
1000
0000
0100
1000
0100
0000
,  // measure 47
1000
0000
0001
0000
0100
0100
0000
0001
,  // measure 48
0001
0000
1000
0000
0001
0100
0010
1000
,  // measure 49
0001
0100
0010
1000
0001
0000
0010
0000
,  // measure 50
0001
0000
1000
0000
0100
0010
0001
0000
,  // measure 51
0010
0000
0001
0000
1000
1000
0000
0001
,  // measure 52
0001
0000
1001
0000
1000
0010
0100
0001
,  // measure 53
1000
0010
0100
0001
1000
0000
0010
0000
,  // measure 54
0100
0000
0001
0000
0010
0100
1000
0000
,  // measure 55
0100
0000
1000
0000
0010
0010
0000
1000
,  // measure 56
1000
0000
1001
0000
0001
0100
0010
1000
,  // measure 57
0001
0100
0010
1000
0001
0000
0010
0000
,  // measure 58
0001
0000
1000
0000
0100
1000
0100
0000
,  // measure 59
1000
0000
0010
0000
0100
0010
0000
0010
,  // measure 60
1000
0000
0001
0000
1000
0010
0100
0001
,  // measure 61
1000
0010
0100
0001
1000
0000
0100
0000
,  // measure 62
0010
0000
0100
0000
1000
0001
0100
0000
,  // measure 63
0001
0000
0010
0000
0100
0010
0000
0010
,  // measure 64
0001
0000
0001
0000
1000
0010
0100
0001
,  // measure 65
1000
0010
0100
0001
1000
0001
0010
0001
,  // measure 66
1000
0000
0001
1000
0100
1000
0001
0000
,  // measure 67
1000
0001
0010
0001
1000
0000
0001
1000
,  // measure 68
0100
1000
0001
0000
1000
0010
0100
0001
,  // measure 69
0010
0000
0100
0010
0001
0100
0010
0000
,  // measure 70
0100
0010
1000
0001
0010
0100
0010
0004
,  // measure 71
4000
0000
0000
0000
,  // measure 72
0000
0000
0000
0000
,  // measure 73
0000
0000
0000
0000
,  // measure 74
0000
0000
0000
0000
,  // measure 75
0000
0000
0000
0000
,  // measure 76
0000
0000
0000
0000
,  // measure 77
0000
0000
0000
0000
,  // measure 78
0000
0000
0000
3003
,  // measure 79
0002
0203
0320
2030
3200
0320
0230
2300
,  // measure 80
3020
0230
0302
2003
3200
2300
3020
0230
,  // measure 81
0302
0023
0032
0203
0320
2030
3200
0320
,  // measure 82
0230
2300
3020
0230
0302
2003
3200
0320
,  // measure 83
0032
0003
1000
0010
0100
0001
1000
0100
,  // measure 84
0020
0030
0000
0000
0000
0000
0000
0000
0100
0000
0000
0000
1100
0000
0000
0000
0000
0000
0000
0000
1100
0000
0000
0000
0000
0000
0000
0000
0010
0000
0000
0000
,  // measure 85
2002
3003
0000
0000
0000
0000
0000
0000
0001
0000
0000
0000
0100
0000
0000
0000
0010
0000
0000
0000
1000
0000
0000
0000
0100
0000
0000
0000
0010
0000
0000
0000
,  // measure 86
0001
0000
0000
0000
0010
0000
0000
0000
0001
0000
0000
0000
0100
0000
0000
0000
0010
0000
0000
0000
1000
0000
0000
0000
0200
0300
0000
0000
0000
0000
0000
0000
,  // measure 87
0100
0110
0000
0011
0000
0001
1001
0000
,  // measure 88
0001
0100
1000
0100
0001
0010
0100
0000
,  // measure 89
0000
0000
2000
0000
0200
3000
0002
0300
,  // measure 90
0020
0003
2000
0030
0002
3003
1001
0000
,  // measure 91
0002
0000
0200
0003
2000
0300
0020
3000
0002
0030
2000
3003
1020
0000
0000
0000
,  // measure 92
0000
1000
0100
0002
,  // measure 93
0030
0010
0100
0023
,  // measure 94
0000
0100
1000
0230
,  // measure 95
0302
0023
0230
2300
,  // measure 96
0000
0100
0010
3002
,  // measure 97
0100
2003
0000
0020
,  // measure 98
0000
0000
3000
0200
,  // measure 99
0030
0000
0320
0000
2030
0000
3100
1000
,  // measure 100
0010
0000
0000
0100
0000
0000
0001
0000
0000
0010
0000
0000
0100
0000
0000
1000
0000
0000
0001
0000
1000
0000
0001
0000
,  // measure 101
1000
0000
0000
0010
0000
0000
0100
0000
0001
0000
0100
0000
0001
0000
0000
0010
0000
0000
0110
0000
0000
0000
0000
0000
,  // measure 102
1100
0000
0000
0000
0000
0000
1000
0000
0010
0000
1000
0000
0010
0000
0000
0100
0000
0000
0001
0000
0100
0000
0001
0000
,  // measure 103
0100
0000
0000
0010
0000
0000
1000
0000
0001
0000
1000
0000
0001
0000
0000
0010
0000
0000
0001
0000
0000
1000
0000
0000
,  // measure 104
0100
0000
0000
1000
0000
0000
0010
0000
0100
0000
0010
0000
0100
0000
0000
0001
0000
0000
0010
0000
0100
0000
0010
0000
,  // measure 105
0100
0000
0000
1000
0000
0000
0001
0000
0100
0000
0001
0000
0100
0000
0000
0010
0000
0000
1000
0000
0010
0000
1000
0000
,  // measure 106
0010
0000
0000
0100
0000
0000
0110
0000
0000
0000
0000
0000
0101
0000
0000
0000
0000
0000
0001
0000
0010
0000
0001
0000
,  // measure 107
0010
0000
0000
0100
0000
0000
1000
0000
0000
0010
0000
0000
0100
0000
0000
0001
0000
0000
1000
0000
0010
0000
1000
0000
,  // measure 108
0010
0000
0000
0100
0000
0000
0001
0000
0100
0000
0001
0000
0100
0000
0000
0010
0000
0000
1010
0000
0000
0000
0000
0000
,  // measure 109
0011
0000
0000
1001
1000
0001
1000
0001
1000
0001
1000
0001
,  // measure 110
1000
0001
1000
0010
0100
0010
0100
0010
0100
0010
0100
0010
,  // measure 111
0100
0010
0100
0010
0100
0010
0100
0010
0100
0010
0100
0010
,  // measure 112
0100
0010
0100
0001
0010
0001
0010
0001
0010
0001
0010
0001
,  // measure 113
0010
0001
0010
0001
0000
0000
1000
0000
0000
0440
0000
0000
,  // measure 114
0000
0000
0000
0330
;
