#TITLE:Alcarda;
#SUBTITLE:;
#ARTIST:ATB;
#TITLETRANSLIT:;
#SUBTITLETRANSLIT:;
#ARTISTTRANSLIT:;
#GENRE:;
#CREDIT:;
#BANNER:Alcarda-banner.png;
#BACKGROUND:Alcarda-background.png;
#LYRICSPATH:;
#CDTITLE:cdtitle.png;
#MUSIC:Alcarda.ogg;
#OFFSET:-14.242997;
#SAMPLESTART:88.900002;
#SAMPLELENGTH:12.000000;
#SELECTABLE:YES;
#BPMS:0.000000=135.000000
;
#STOPS:
;
#BGCHANGES:;
#KEYSOUNDS:;
#ATTACKS:;

//---------------dance-single - ----------------
#NOTES:
     dance-single:
     :
     Hard:
     6:
     0.341848,0.357707,0.057562,0.016446,0.000000,282.000000,7.000000,2.000000,0.000000,0.000000,0.000000,0.341848,0.357707,0.057562,0.016446,0.000000,282.000000,7.000000,2.000000,0.000000,0.000000,0.000000:
0100
0000
0010
1000
0000
0001
0100
0000
,
0010
0100
0000
0010
1000
0000
0101
0000
,
0001
0000
0100
0010
0000
1000
0100
0000
,
0010
0001
0000
0010
0100
0000
0011
0000
,
1000
0000
0001
0100
0000
0001
1000
0000
,
0001
0010
0000
0001
1000
0000
0101
0000
,
1010
0000
1000
0001
0000
1000
0100
0000
,
1000
0010
0000
0100
0010
0000
0101
0000
,
0001
1000
0001
1000
0100
1000
0010
1000
,
0010
1000
0100
1000
0001
0100
0010
0000
,
1000
0001
1000
0001
0010
0001
0100
0001
,
0100
0001
0010
0001
1000
0010
0100
0000
,
0100
0001
1000
0001
0010
0001
0100
1000
,
0100
0010
1000
0001
1000
0100
1000
0000
,
0001
0010
0100
1000
0001
0010
0100
0010
,
0001
1000
0100
0010
0001
1000
0100
0000
,
2002
0000
0000
0000
,
3003
0000
0000
0000
,
0001
0001
0001
0001
,
0001
0001
0001
0001
,
1000
1000
1000
1000
,
1000
1000
1000
1000
,
0010
0010
0010
0010
,
0010
0010
0010
0010
,
1000
1000
1000
1000
,
1000
1000
1000
1000
,
0101
0000
0000
0000
0000
0000
0000
0001
,
0100
0000
0000
0010
0000
1000
0000
0000
,
0001
0000
0000
0000
,
0100
0000
0000
0001
0000
0000
0000
0000
,
1000
0000
0000
0000
0000
0000
0000
0100
,
1000
0000
0000
0010
0000
0000
0000
0010
,
0100
0000
0000
0000
0000
0000
0000
0100
,
0010
0000
0000
1000
0000
0000
0000
0001
,
0100
0000
0100
0000
0100
0000
0000
0010
,
0100
0000
0100
0001
0000
1000
0000
0001
,
0100
0100
0100
0000
,
0001
0000
1000
0100
0000
1000
0000
0001
,
0010
0000
0010
0000
0010
0000
0000
0100
,
0010
0000
0010
0100
0000
1000
0000
0001
,
0100
0000
0100
0000
0100
0000
0001
1000
,
0010
0000
0100
0010
0000
1000
0000
0010
,
0100
0001
0100
0001
0010
0000
0100
0000
,
1000
0100
1000
0100
1000
0000
0010
0000
,
0100
0010
0100
0010
0100
0000
0001
0000
,
0010
0001
0010
0001
0010
0000
0100
0000
,
0010
0001
0100
0010
1000
0000
0001
0000
,
1000
0010
0100
0001
0010
0000
0100
0000
,
0010
0001
1000
0010
0100
0000
0001
0000
,
1000
0100
0001
0100
0010
0001
0010
0100
,
1000
0000
1000
0001
0100
0000
0001
1000
,
0100
0000
0100
0010
0000
0010
0000
0010
,
0100
0000
0010
0001
0010
0000
0001
0100
,
0001
0000
0100
0001
0000
1000
0000
0001
,
0100
0000
0010
1000
0010
0000
1000
0010
,
0100
0000
0010
1000
0000
1000
0000
1000
,
0001
0000
0010
0001
0010
0000
0001
0010
,
0100
0000
0010
0001
0000
1000
0000
0010
,
0100
0000
0000
0000
;

//---------------dance-single - ----------------
#NOTES:
     dance-single:
     :
     Medium:
     4:
     0.193831,0.190777,0.032893,0.000000,0.000000,161.000000,4.000000,0.000000,0.000000,0.000000,0.000000,0.193831,0.190777,0.032893,0.000000,0.000000,161.000000,4.000000,0.000000,0.000000,0.000000,0.000000:
0001
0100
0001
1000
,
0001
0010
0001
0001
,
1000
0010
1000
0001
,
1000
0100
1000
1000
,
0010
1000
0010
0001
,
0010
0100
0010
0010
,
0100
1000
0100
0010
,
0100
0001
0100
0100
,
0001
0000
0000
1000
0000
0000
0100
0000
,
0000
1000
0000
0000
0010
0000
0100
0000
,
0001
0000
0000
1000
0000
0000
0001
0000
,
0000
0100
0000
0000
0001
0000
0010
0000
,
0100
0000
0000
0010
0000
0000
0001
0000
,
0000
1000
0000
0000
0010
0100
0000
0100
,
0010
0000
0000
1000
0000
0000
0001
0000
,
0000
0010
0000
0000
0100
0000
0010
0000
,
1001
0000
0000
0000
,
0000
0000
0000
0000
,
0001
0000
0001
0000
,
0001
0000
0001
0000
,
0100
0000
0100
0000
,
0100
0000
0100
0000
,
0010
0000
0010
0000
,
0010
0000
0010
0000
,
1000
0000
1000
0000
,
1000
0000
1000
0000
,
1001
0000
0000
0000
,
0001
0000
0000
0100
0000
0001
0000
0000
,
1000
0000
0000
0000
,
0100
0000
0000
1000
0000
0000
0000
0000
,
0001
0000
0000
0000
,
0100
0000
0000
0010
0000
0000
0000
1000
,
0001
0000
0000
0000
0000
0000
0000
0001
,
1000
0000
0000
0010
0000
0000
0000
0100
,
0001
0000
0001
0000
0001
0000
0000
1000
,
0010
0000
0000
0100
0000
0001
0000
1000
,
0000
1000
0000
0000
0000
0000
0000
0000
,
0001
0000
0000
0100
0000
0000
0000
0000
,
0001
0000
0000
0000
0000
0000
0000
1000
,
0100
0000
0000
1000
0000
0000
0000
0001
,
0100
0000
0100
0000
0100
0000
0000
0010
,
0100
0000
0000
0001
0000
0000
0000
1000
,
1001
0000
0000
0000
0000
0000
0000
0001
,
0100
0000
0010
1000
0000
0100
0000
0010
,
0000
0100
0000
1000
0000
0001
0000
0000
,
1000
0000
0001
0100
0000
0000
0000
0000
,
0110
0000
0000
0000
0000
0000
0000
0100
,
0010
0000
0000
0100
0000
0001
0000
1000
,
0100
0000
0100
0000
0100
0000
0000
1000
,
0010
0000
0000
0100
0000
0000
0000
0001
,
1000
0001
0100
0000
0000
0000
0000
0001
,
1000
0000
0000
0010
0000
0100
0000
0001
,
1000
0000
0000
0000
,
0100
0000
0000
1000
0000
0000
0000
0000
,
0010
0000
0000
0000
0000
0000
0000
0100
,
0001
0000
0000
1000
0000
0000
0000
0010
,
0100
0000
0000
0000
0000
0000
0000
0010
,
1000
0000
0000
0001
0000
0000
0000
0010
,
0100
0000
0000
0000
;

//---------------dance-single - ----------------
#NOTES:
     dance-single:
     :
     Easy:
     1:
     0.106901,0.119236,0.016446,0.057562,0.000000,82.000000,2.000000,7.000000,0.000000,0.000000,0.000000,0.106901,0.119236,0.016446,0.057562,0.000000,82.000000,2.000000,7.000000,0.000000,0.000000,0.000000:
0001
0000
0001
0000
,
0001
0000
0000
0000
,
1000
0000
1000
0000
,
1000
0000
0000
0000
,
0010
0000
0010
0000
,
0010
0000
0000
0000
,
0100
0000
0100
0000
,
0100
0000
0000
0000
,
0010
0000
1000
0000
,
0001
0000
0000
0000
,
1000
0000
0001
0000
,
0100
0000
0000
0000
,
0010
0000
0100
0000
,
0001
0000
0000
0000
,
1000
0000
0001
0000
,
0100
0000
0000
0000
,
1001
0000
0000
0000
,
0000
0000
0000
0000
,
0002
0000
0000
0000
,
0000
0000
0000
0003
,
2000
0000
0000
0000
,
0000
0000
0000
3000
,
0002
0000
0000
0000
,
0000
0000
0000
0003
,
2000
0000
0000
0000
,
0000
0000
0000
3000
,
1001
0000
0000
0000
,
0010
0000
0100
0000
,
0000
0000
0000
0000
,
0001
0000
0000
0000
,
0100
0000
0000
0000
,
0001
0000
1000
0000
,
0100
0000
0000
0000
,
1000
0000
0001
0000
,
0010
0000
0000
0000
,
0100
0000
1000
0000
,
0000
0000
0000
0000
,
0100
0000
0000
0000
,
1000
0000
0000
0000
,
0001
0000
0010
0000
,
0100
0000
0000
0000
,
0010
0000
0001
0000
,
1000
1000
1000
0000
,
0001
0000
0100
0000
,
0010
0010
0010
0000
,
0100
0000
0010
0000
,
1000
1000
1000
0000
,
0001
0000
0010
0000
,
0001
0001
0001
0000
,
0100
0000
0010
0000
,
2000
0000
3000
0000
,
0001
0000
0100
0000
,
0020
0000
0030
0000
,
0100
0000
0010
0000
,
2000
0000
3000
0000
,
0001
0000
1000
0000
,
0010
0000
0000
0000
,
0100
0000
0001
0000
,
1000
0000
0000
0000
;

//---------------dance-single - ----------------
#NOTES:
     dance-single:
     :
     Beginner:
     1:
     0.097503,0.119236,0.008223,0.000000,0.000000,82.000000,1.000000,0.000000,0.000000,0.000000,0.000000,0.097503,0.119236,0.008223,0.000000,0.000000,82.000000,1.000000,0.000000,0.000000,0.000000,0.000000:
// measure 0
1000
0000
1000
0000
,  // measure 1
1000
0000
0000
0000
,  // measure 2
0001
0000
0001
0000
,  // measure 3
0001
0000
0000
0000
,  // measure 4
0100
0000
0100
0000
,  // measure 5
0100
0000
0000
0000
,  // measure 6
0010
0000
0010
0000
,  // measure 7
0010
0000
0000
0000
,  // measure 8
0100
0000
0001
0000
,  // measure 9
1000
0000
0000
0000
,  // measure 10
0001
0000
1000
0000
,  // measure 11
0010
0000
0000
0000
,  // measure 12
0100
0000
0010
0000
,  // measure 13
1000
0000
0000
0000
,  // measure 14
0001
0000
1000
0000
,  // measure 15
0010
0000
0000
0000
,  // measure 16
1001
0000
0000
0000
,  // measure 17
0000
0000
0000
0000
,  // measure 18
1000
0000
0000
0000
,  // measure 19
0000
0000
0000
0000
,  // measure 20
0001
0000
0000
0000
,  // measure 21
0000
0000
0000
0000
,  // measure 22
1000
0000
0000
0000
,  // measure 23
0000
0000
0000
0000
,  // measure 24
0001
0000
0000
0000
,  // measure 25
0000
0000
0000
0000
,  // measure 26
1000
0000
0000
0000
,  // measure 27
0100
0000
0010
0000
,  // measure 28
0000
0000
0000
0000
,  // measure 29
1000
0000
0000
0000
,  // measure 30
0010
0000
0000
0000
,  // measure 31
1000
0000
0001
0000
,  // measure 32
0010
0000
0000
0000
,  // measure 33
0001
0000
1000
0000
,  // measure 34
0100
0000
0000
0000
,  // measure 35
0010
0000
0001
0000
,  // measure 36
0000
0000
0000
0000
,  // measure 37
0010
0000
0000
0000
,  // measure 38
0001
0000
0000
0000
,  // measure 39
1000
0000
0100
0000
,  // measure 40
0010
0000
0000
0000
,  // measure 41
0100
0000
1000
0000
,  // measure 42
0001
0001
0001
0000
,  // measure 43
1000
0000
0010
0000
,  // measure 44
0100
0100
0100
0000
,  // measure 45
0010
0000
0100
0000
,  // measure 46
0001
0001
0001
0000
,  // measure 47
1000
0000
0100
0000
,  // measure 48
1000
1000
1000
0000
,  // measure 49
0010
0000
0100
0000
,  // measure 50
0001
0000
0000
0000
,  // measure 51
1000
0000
0010
0000
,  // measure 52
0100
0000
0000
0000
,  // measure 53
0010
0000
0100
0000
,  // measure 54
0001
0000
0000
0000
,  // measure 55
1000
0000
0001
0000
,  // measure 56
0100
0000
0000
0000
,  // measure 57
0010
0000
1000
0000
,  // measure 58
1000
0000
0000
0000
;
