#VERSION:0.83;
#TITLE:エアポートシャトル;
#SUBTITLE:;
#ARTIST:Chilt Featuring AquesTone;
#TITLETRANSLIT:Airport shuttle;
#SUBTITLETRANSLIT:;
#ARTISTTRANSLIT:;
#GENRE:;
#ORIGIN:;
#CREDIT:;
#BANNER:Airport Shuttle.png;
#BACKGROUND:Airport Shuttle-bg.png;
#PREVIEWVID:;
#JACKET:Airport Shuttle-jacket.png;
#CDIMAGE:;
#DISCIMAGE:;
#LYRICSPATH:;
#CDTITLE:;
#MUSIC:Airport Shuttle.mp3;
#OFFSET:-5.375002;
#SAMPLESTART:62.825981;
#SAMPLELENGTH:13.137249;
#SELECTABLE:YES;
#BPMS:0.000=153.000;
#STOPS:;
#DELAYS:;
#WARPS:;
#TIMESIGNATURES:0.000=4=4;
#TICKCOUNTS:0.000=4;
#COMBOS:0.000=1;
#SPEEDS:0.000=1.000=0.000=0;
#SCROLLS:0.000=1.000;
#FAKES:;
#LABELS:0.000=Song Start;
#BGCHANGES:;
#KEYSOUNDS:;
#ATTACKS:
;

//---------------dance-single - ----------------
#NOTEDATA:;
#CHARTNAME:;
#STEPSTYPE:dance-single;
#DESCRIPTION:;
#CHARTSTYLE:;
#DIFFICULTY:Hard;
#METER:7;
#RADARVALUES:0.370350,0.432584,0.252723,0.203809,0.000000,318.000000,287.000000,31.000000,25.000000,0.000000,0.000000,0.000000,0.000000,0.000000,0.370350,0.432584,0.252723,0.203809,0.000000,318.000000,287.000000,31.000000,25.000000,0.000000,0.000000,0.000000,0.000000,0.000000;
#CREDIT:;
#NOTES:
0000
0000
0000
0000
,
0000
0000
0000
0000
,
0000
0000
0000
0000
,
0000
0000
0000
0000
0000
0000
0000
0110
,
0000
1000
1000
0001
0000
0000
0000
0000
,
0100
0000
0001
0000
0100
0000
0010
0100
,
0000
0001
0000
0100
0010
1000
0010
0100
,
0001
0000
1000
0000
0001
0010
0000
0001
,
0000
0001
0000
1000
0100
0010
0100
1000
,
0001
0000
1000
0000
1000
0010
0010
0100
,
0000
0000
0001
0000
0010
0000
0100
0020
,
0000
0000
0000
0000
,
0030
0001
0010
1000
0000
1000
0010
0001
,
1000
0000
0001
0000
1000
0000
0010
1000
,
0000
1000
0000
1000
0000
0010
0100
0001
,
0010
0000
0010
0001
1000
1000
0000
0010
,
0000
0010
0000
0100
0010
1000
0001
0010
,
0001
0000
1000
0000
0010
1000
1000
0010
,
0000
0000
0100
0010
1000
0001
0000
2000
,
0000
0000
0000
0000
0000
0100
0100
3100
,
0000
1100
0000
0011
0000
0101
0000
1000
,
0001
0011
0010
0011
,
0001
0011
0010
0011
,
1000
1100
0100
1100
,
1000
1100
0100
1100
,
1000
1001
0001
1001
,
1000
1001
0001
1001
,
0001
0010
0000
1000
0000
0010
0000
0001
,
0000
1000
0000
0001
0000
1000
1000
0000
,
0100
1100
1000
1100
,
0100
1100
1000
1100
,
0100
0110
0010
0110
,
0100
0110
0010
0110
,
1001
0000
0001
0020
0000
0000
0030
0000
,
0001
0000
1000
0001
0000
0100
0000
0002
,
0000
0000
0000
0000
0000
1003
1000
1001
,
0000
0001
0100
1010
0000
1000
0010
0101
,
0000
0000
0000
0000
0000
0010
0100
0100
,
0010
0000
1000
0000
0010
1000
0001
0100
,
0000
0000
0000
0000
0000
0001
0010
0010
,
0001
0000
1000
0000
0100
0000
1000
0010
,
0100
0010
1000
0010
,
0100
0000
0001
0000
0000
0010
0010
0001
,
0000
1000
1000
0000
0001
0001
0000
0100
,
0000
0010
0010
0000
1000
0010
0100
0001
,
1000
0100
0010
0001
,
0020
0230
2300
3002
,
1003
0010
0100
0001
,
2000
3200
0320
0032
,
1003
0000
0000
0010
0000
1000
0000
0001
,
0000
0000
1000
0000
0001
0100
1000
0100
,
0000
0010
1000
0100
0000
0010
0001
0100
,
0000
0000
0010
0000
0100
0010
1000
1001
,
0000
0000
0000
0000
0000
0001
0010
0010
,
0001
0000
1000
0000
0100
0000
1000
0001
,
0000
0000
0000
0000
0000
0100
0010
0010
,
1000
0000
0001
0000
0010
0000
0001
0100
,
0010
0000
1000
0000
0001
0000
0010
0200
,
1300
0000
0100
0010
0001
0001
1000
0001
,
0000
1000
1000
0000
0010
0010
0000
0100
,
0000
0001
0001
0000
0010
0010
0001
1000
,
0100
1000
0010
0100
,
0002
0203
0320
2030
,
3010
0100
0001
1000
,
0002
0023
0230
2300
,
3002
0000
0000
0020
0000
0000
0000
0000
,
0000
0000
0000
0000
0000
0000
0000
0033
,
0000
0000
0000
0000
0000
0000
0000
0110
,
0000
1000
0001
1001
0000
0001
0100
0010
,
2000
0000
0000
0002
0000
0000
0000
0000
,
0000
0000
0000
3003
;

//---------------dance-single - ----------------
#NOTEDATA:;
#CHARTNAME:;
#STEPSTYPE:dance-single;
#DESCRIPTION:;
#CHARTSTYLE:;
#DIFFICULTY:Medium;
#METER:5;
#RADARVALUES:0.281838,0.346067,0.016305,0.114133,0.000000,242.000000,240.000000,2.000000,14.000000,0.000000,0.000000,0.000000,0.000000,0.000000,0.281838,0.346067,0.016305,0.114133,0.000000,242.000000,240.000000,2.000000,14.000000,0.000000,0.000000,0.000000,0.000000,0.000000;
#CREDIT:;
#NOTES:
0000
0000
0000
0000
,
0000
0000
0000
0000
,
0000
0000
0000
0000
,
0000
0000
0000
0000
0000
0000
0000
0110
,
0000
1000
0001
1000
0000
0000
0000
0000
,
0001
0000
0000
0200
0000
0000
0000
0000
,
0300
0000
0000
0010
1000
0000
0001
0000
,
1000
0000
0100
2000
0000
0000
0000
0000
,
3000
0000
0000
0100
1000
0000
0010
0000
,
0100
0000
0001
0020
0000
0000
0000
0000
,
0030
0000
0001
0000
0010
0000
0100
2000
,
0000
0000
0000
3000
,
0000
0100
1000
0010
0000
0010
0100
0001
,
1000
0000
0000
0002
0000
0000
0000
0000
,
0003
0000
0000
0100
0000
0001
0010
0100
,
1000
0000
0100
2000
0000
0000
0000
0000
,
3000
0000
0000
0100
1000
0010
0100
0001
,
1000
0000
0001
0200
0000
0000
0000
0000
,
0300
0000
0010
0100
0001
1000
0000
0002
,
0000
0000
0000
0000
,
0003
1000
0000
0001
0000
1000
0000
0001
,
0100
0010
0100
0010
,
1000
0001
1000
0001
,
0010
0100
0010
0100
,
1000
0001
1000
0001
,
1000
0010
1000
0010
,
0100
0001
0100
0001
,
1000
0001
0000
0010
0000
0001
0000
1000
,
0000
0100
0000
1000
0000
0001
1000
0000
,
0010
1000
0001
0100
,
0010
1000
0001
0100
,
0001
0010
0100
1000
,
0001
0010
0100
1000
,
0001
0000
1000
0020
0000
0000
0030
0000
,
0100
0000
0010
1000
0000
0001
0000
0020
,
0000
0000
0000
0000
0000
0000
0000
0130
,
0000
0010
0001
0010
0000
0001
1000
0010
,
0000
0100
0010
1000
,
0010
0100
0001
0010
,
0001
1000
0100
1000
,
0001
0100
0010
1000
,
0010
0100
0001
0010
,
0100
0000
0010
0000
0000
0001
0010
0100
,
0000
0000
0010
0000
0001
0000
1000
0010
,
0000
0000
0000
0000
0000
1000
0010
0200
,
0000
0310
1000
0001
,
0010
0001
1000
0100
,
1000
0001
1000
0010
,
0100
0001
0010
0001
,
1000
0000
0000
0001
0000
0100
0000
0010
,
0000
0000
1000
0000
0010
0100
0010
1000
,
0000
0001
1000
0010
0000
1000
0001
0100
,
0000
0000
0001
0000
0100
0010
1000
0001
,
0000
1000
0100
1000
,
0100
0010
0100
0010
,
0001
0010
0001
0010
,
0001
0001
1000
0001
,
0100
0010
1000
0010
,
0100
0000
0001
0000
0010
0000
0000
0001
,
0000
0000
0010
0000
0001
0000
0000
1000
,
0000
0010
0100
0001
,
1000
0001
0100
0001
,
0010
0010
0100
0100
,
1000
0100
1000
0010
,
1000
1000
0001
0001
,
0100
0000
0000
0020
0000
0000
0000
0000
,
0000
0000
0000
0030
,
0000
0000
0000
0000
0000
0000
0000
0110
,
0000
0100
0010
1000
0000
0001
1000
0010
,
2000
0000
0000
0002
0000
0000
0000
0000
,
0000
0000
0000
3003
;

//---------------dance-single - ----------------
#NOTEDATA:;
#CHARTNAME:;
#STEPSTYPE:dance-single;
#DESCRIPTION:;
#CHARTSTYLE:;
#DIFFICULTY:Easy;
#METER:3;
#RADARVALUES:0.166541,0.259550,0.024457,0.089676,0.000000,143.000000,140.000000,3.000000,11.000000,0.000000,0.000000,0.000000,0.000000,0.000000,0.166541,0.259550,0.024457,0.089676,0.000000,143.000000,140.000000,3.000000,11.000000,0.000000,0.000000,0.000000,0.000000,0.000000;
#CREDIT:;
#NOTES:
0000
0000
0000
0000
,
1001
0000
0000
0000
,
0000
0000
0000
0000
,
0000
0000
0000
0000
0000
0000
0000
0010
,
0000
0000
0000
0000
,
1000
0000
1000
0000
,
0000
0000
0001
1000
,
0001
0000
0001
0000
,
0000
0000
0100
0010
,
0100
0000
0100
0000
,
0000
0010
1000
0001
,
0100
0000
0000
0000
,
0002
0000
0000
0003
,
1000
0000
1000
0000
,
0000
0000
0001
0100
,
0001
0000
0001
0000
,
0000
0000
0010
0100
,
0010
0000
0100
0000
,
0000
0010
0001
1000
,
0001
0000
0000
0000
,
0000
0200
0000
0000
0000
0000
0300
0000
,
0010
1000
0010
1000
,
0010
0000
0000
0000
,
0100
0001
0100
0001
,
0100
0000
0000
0000
,
0001
1000
0001
1000
,
0001
0100
0001
0100
,
0002
0000
0000
0000
,
0000
0000
0000
0003
,
1000
0010
1000
0010
,
1000
0000
0000
0000
,
0100
1000
0100
1000
,
0100
0000
0010
0001
,
1000
0000
0000
1000
0000
0000
0000
0000
,
0001
0000
0000
1000
0000
0001
0000
0200
,
0000
0000
0000
0000
0000
0000
0000
0300
,
0000
0000
0000
0000
0000
0000
0000
1001
,
0000
0000
0000
0001
,
1000
0010
1000
0001
,
0000
0000
0000
0100
,
0100
0010
1000
0001
,
0100
0000
0000
0000
,
0000
0000
0000
0000
0000
0010
0000
1000
,
0000
0000
0001
0000
1000
0000
0000
0001
,
0000
0000
0000
0100
,
0001
0010
0001
1000
,
0200
0000
0000
0300
,
1000
0010
0100
0001
,
0020
0000
0000
0030
,
0001
0000
1000
0000
,
0010
0000
1000
0000
,
0001
0000
1000
0000
,
0100
1000
0010
0100
,
1001
0000
0000
0001
,
0001
1000
0010
0100
,
0000
0000
0000
0010
,
0010
1000
0001
0100
,
0000
0000
0000
0000
0000
0000
0000
0010
,
0000
0000
0000
0000
0000
0000
0000
1000
,
0000
0000
0001
0000
1000
0000
0000
0010
,
0000
0000
0000
1000
,
0010
0100
0001
0010
,
0200
0000
0000
0300
,
0010
0001
1000
0010
,
0200
0000
0000
0300
,
0010
0000
0000
0020
0000
0000
0000
0000
,
0000
0000
0000
0000
0000
0000
0000
0030
,
0000
0000
0000
0000
0000
0000
0000
1000
,
0000
0000
0000
0001
0000
0000
0000
0000
,
0200
0000
0000
0020
0000
0000
0000
0000
,
0000
0000
0000
0330
;

//---------------dance-single - ----------------
#NOTEDATA:;
#CHARTNAME:;
#STEPSTYPE:dance-single;
#DESCRIPTION:;
#CHARTSTYLE:;
#DIFFICULTY:Beginner;
#METER:1;
#RADARVALUES:0.071042,0.168754,0.008152,0.000000,0.000000,61.000000,60.000000,1.000000,0.000000,0.000000,0.000000,0.000000,0.000000,0.000000,0.071042,0.168754,0.008152,0.000000,0.000000,61.000000,60.000000,1.000000,0.000000,0.000000,0.000000,0.000000,0.000000,0.000000;
#CREDIT:;
#NOTES:
// measure 0
0000
0000
0000
0000
,  // measure 1
0000
0000
0000
0000
,  // measure 2
0000
0000
0000
0000
,  // measure 3
0000
0000
0000
0000
,  // measure 4
0000
0000
0000
0000
,  // measure 5
1000
0000
0000
0000
,  // measure 6
0000
0000
0000
0000
,  // measure 7
0001
0000
0000
0000
,  // measure 8
0000
0000
0000
0000
,  // measure 9
0100
0000
0000
0000
,  // measure 10
0000
0000
0000
0000
,  // measure 11
0010
0000
0000
0000
,  // measure 12
0000
1000
0000
1000
,  // measure 13
0001
0000
0000
0000
,  // measure 14
0000
0000
0001
0000
,  // measure 15
1000
0000
0000
0000
,  // measure 16
0000
0000
0010
0000
,  // measure 17
0100
0000
0000
0000
,  // measure 18
0000
0000
0001
0000
,  // measure 19
0001
0000
0000
0000
,  // measure 20
0000
0000
0000
0000
,  // measure 21
1000
0000
0000
0000
,  // measure 22
0000
0000
0000
0000
,  // measure 23
0010
0000
0000
0000
,  // measure 24
0000
0000
0000
0000
,  // measure 25
1000
0000
0000
0000
,  // measure 26
0001
0000
0000
0000
,  // measure 27
0100
0000
0000
0000
,  // measure 28
0000
0000
0000
0000
,  // measure 29
0010
0000
0000
0000
,  // measure 30
0000
0000
0000
0000
,  // measure 31
1000
0000
0000
0000
,  // measure 32
0000
0000
0001
0000
,  // measure 33
1000
0000
0000
0000
,  // measure 34
0010
0000
0100
0000
,  // measure 35
0010
0000
0000
0000
,  // measure 36
0000
0000
0000
0000
,  // measure 37
1001
0000
0000
0000
,  // measure 38
1000
0000
1000
0000
,  // measure 39
1000
0000
0000
0000
,  // measure 40
0001
0000
0001
0000
,  // measure 41
0001
0000
0000
0000
,  // measure 42
0100
0000
0000
0000
,  // measure 43
0000
0000
0000
0000
,  // measure 44
0000
0000
0000
0000
,  // measure 45
0010
0000
0000
0000
,  // measure 46
1000
0000
0000
0000
,  // measure 47
0010
0000
0000
0000
,  // measure 48
0100
0000
0000
0000
,  // measure 49
0001
0000
0000
0000
,  // measure 50
1000
0000
0000
0000
,  // measure 51
1000
0000
0001
0000
,  // measure 52
1000
0000
0001
0001
,  // measure 53
0001
0000
0000
0100
,  // measure 54
0100
0000
0000
0000
,  // measure 55
0010
0000
0000
1000
,  // measure 56
1000
0000
0000
0000
,  // measure 57
0001
0000
0000
0000
,  // measure 58
0010
0000
0000
0000
,  // measure 59
0001
0000
0000
0000
,  // measure 60
0000
0000
0000
0000
,  // measure 61
1000
0000
0000
0000
,  // measure 62
0100
0000
0000
0000
,  // measure 63
1000
0000
0000
0000
,  // measure 64
0100
0000
0000
0000
,  // measure 65
0010
0000
0000
0000
,  // measure 66
0000
0000
0000
0000
,  // measure 67
0000
0000
0000
0000
,  // measure 68
0000
0000
0000
0001
,  // measure 69
0001
0000
0000
0000
;
