#TITLE:Air Guardian '17;
#SUBTITLE:;
#ARTIST:fractilx vs アイスベア;
#TITLETRANSLIT:;
#SUBTITLETRANSLIT:;
#ARTISTTRANSLIT:;
#GENRE:;
#CREDIT:;
#BANNER:Air Guardian '17.png;
#BACKGROUND:Air Guardian '17-bg.png;
#LYRICSPATH:;
#CDTITLE:CDtitle.png;
#MUSIC:Air Guardian '17.mp3;
#OFFSET:1.300000;
#SAMPLESTART:96.011345;
#SAMPLELENGTH:10.666672;
#LASTBEATHINT:0.840000;
#SELECTABLE:YES;
#BPMS:0.000000=180.000000
;
#STOPS:160.000000=0.167000,
160.500000=0.167000,
161.000000=0.167000,
161.500000=0.167000,
286.000000=0.167000,
286.500000=0.167000,
287.000000=0.167000,
287.500000=0.167000
;
#BGCHANGES:;
#KEYSOUNDS:;
#ATTACKS:;

//---------------dance-single - ----------------
#NOTES:
     dance-single:
     :
     Hard:
     9:
     0.531976,0.752915,0.440015,0.008148,0.150746,457.000000,403.000000,54.000000,1.000000,0.000000,0.000000,0.531976,0.752915,0.440015,0.008148,0.150746,457.000000,403.000000,54.000000,1.000000,0.000000,0.000000:
0000
0000
0000
0000
,
0000
0000
0000
0000
,
0000
0000
0000
0000
,
0000
0000
0000
0000
,
0000
0000
0000
0000
,
0000
0000
0000
0000
,
0000
0000
0000
0000
,
0000
0000
0000
0000
,
0000
0000
0000
0000
,
0000
0001
0100
0010
0100
0001
0000
0001
,
0000
0000
1000
0000
0010
0000
0100
0000
0010
0000
0000
1000
0000
0000
0100
0000
,
1000
0010
0000
0100
0001
0010
0000
0100
,
0010
0000
0000
0010
0000
0000
0001
0000
1000
0000
0000
0001
0000
0000
0100
0000
,
0000
0010
1000
0100
1000
0001
0000
0001
,
0000
0000
1000
0000
0001
0000
0010
0000
0100
0000
0000
0010
0000
0000
0001
0000
,
1000
0010
0100
0001
1000
0100
0010
0100
,
1000
0000
0000
1000
0000
0000
1000
0000
0001
0000
0000
0001
0000
0000
0001
0000
,
0101
0000
0001
0000
,
0010
0000
0001
0000
,
1000
0000
0100
0000
,
1000
0000
0001
0000
,
0100
0010
1000
0000
,
0010
0100
0001
0000
,
1000
0001
0010
0000
,
0100
0010
0001
0000
,
0010
0001
0100
0100
,
0010
1000
0001
0001
,
1000
0010
0100
0100
,
0010
1000
0001
0001
,
0010
0100
1000
1000
,
0100
1000
0010
0010
,
0100
0001
1000
1000
,
0001
0100
0010
0010
,
1001
1000
0001
0000
,
1000
0001
0100
0000
,
0110
0010
1000
0000
,
0010
0100
0001
1000
,
1001
0001
0010
0100
,
1001
1000
0100
0010
,
1001
0010
1001
0100
,
0101
1010
1100
0011
1001
0000
0101
0000
,
0001
0000
0000
0010
0000
0000
0001
0000
0100
0000
0000
0000
1010
0000
0000
0000
,
0010
0000
0000
1000
0000
0000
0001
0000
1000
0000
0000
0000
1100
0000
0000
0000
,
1000
0000
0000
0100
0000
0000
1000
0000
0010
0000
0000
0000
0110
0000
0000
0000
,
0100
0000
0000
0001
0000
0000
0010
0000
0100
0000
0000
0000
1100
0000
0000
0000
,
0100
0000
0000
1000
0000
0000
0010
0000
0100
0000
0000
0000
0101
0000
0000
0000
,
0001
0000
0000
1000
0000
0000
0100
0000
1000
0000
0000
0000
1010
0000
0000
0000
,
0010
0000
0000
0100
0000
0000
0001
0000
1000
0000
0000
0000
1100
0000
0000
0000
,
1000
0000
0000
0001
0000
0000
0100
0000
0010
0000
0000
0000
1010
0000
0000
0000
,
1100
0000
0000
1000
0000
0000
0100
0000
0010
0000
0000
0000
0011
0000
0000
0000
,
0101
0000
0000
0100
0000
0000
0001
0000
0010
0000
0000
0000
0110
0000
0000
0000
,
1100
0000
0000
0100
0000
0000
1000
0000
0010
0000
0000
0000
1010
0000
0000
0000
,
0110
0000
0000
0010
0000
0000
0100
0000
0001
0000
0000
0000
0011
0000
0000
0000
,
0101
0000
0000
0001
0000
0000
0100
0000
0010
0000
0000
0000
1010
0000
0000
0000
,
1100
0000
0000
0100
0000
0000
1000
0000
0001
0000
0000
0000
0101
0000
0000
0000
,
0110
0000
0000
0010
0000
0000
0100
0000
0001
0000
0000
0000
1000
0000
0000
0000
,
0010
0100
0001
1000
,
0001
0010
0100
1000
0001
0000
1000
0000
,
0010
0100
0001
1000
0001
0000
1000
0000
,
0100
0010
0001
0010
0100
0000
0010
0000
,
0001
0010
0100
1000
0001
0000
1000
0000
,
0010
0100
0001
0010
0001
0000
1000
0000
,
0010
0100
0010
1000
0001
0000
0010
0000
,
0100
0010
0001
0100
0010
1000
0001
0010
,
0100
0010
0001
1000
0100
0000
1100
0000
,
1000
0010
0100
0001
0010
0000
0110
0000
,
0010
0001
0100
0010
1000
0000
1010
0000
,
1000
0010
0100
0001
0010
0000
0011
0000
,
0001
0010
0100
1000
0001
0000
1001
0000
,
1000
0001
0010
0001
1000
0000
1100
0000
,
1000
0010
0100
0001
0010
0000
0110
0000
,
0010
0001
0100
0010
1010
0101
0011
1010
,
1001
0000
0000
1000
0000
0000
0010
0000
0000
1000
0000
0000
0010
0000
0100
0000
,
0001
0000
0000
0001
0000
0000
0010
0000
0000
0001
0000
0000
0010
0000
0100
0000
,
1000
0000
0000
0100
0000
0000
1000
0000
0000
0010
0000
0000
0100
0000
0001
0000
,
0010
0000
0000
0010
0000
0000
0001
0000
0000
1000
0000
0000
0001
0000
1000
0000
,
0100
0000
0000
1000
0000
0000
0010
0000
0000
0100
0000
0000
0010
0000
0000
1000
,
0000
0000
0001
0000
0000
0010
0000
0000
0001
0000
0000
1000
0000
0000
0010
0000
,
1000
0000
0000
1000
0000
0000
0001
0000
0010
0000
0000
0010
0000
0000
0100
0000
,
0010
0001
0100
1000
0100
0010
1000
0001
,
0011
0010
0110
0100
,
1100
1000
1001
0001
,
0101
0100
0110
0010
,
1010
1000
1001
0001
,
1000
0010
0100
0001
1000
0010
0100
0001
,
1000
0100
0010
0001
1000
0100
0010
0001
,
1000
0010
0100
0001
1000
0100
0010
0001
,
1000
0000
0010
0000
0001
0000
0010
0000
1000
0000
0010
0200
0000
0000
0000
0000
,
0301
0000
0000
0000
;

//---------------dance-single - ----------------
#NOTES:
     dance-single:
     :
     Medium:
     7:
     0.417898,0.537796,0.057039,0.008148,0.073336,359.000000,352.000000,7.000000,1.000000,0.000000,0.000000,0.417898,0.537796,0.057039,0.008148,0.073336,359.000000,352.000000,7.000000,1.000000,0.000000,0.000000:
0000
0000
0000
0000
,
0000
0000
0000
0000
,
0000
0000
0000
0000
,
0000
0000
0000
0000
,
0000
0000
0000
0000
,
0000
0000
0000
0000
,
0000
0000
0000
0000
,
0000
0000
0000
0000
,
0000
0000
0000
0000
,
0000
0001
0100
0000
0010
1000
0000
0001
,
0000
0000
1000
0000
0100
0000
0000
0000
0010
0000
0000
0001
0000
0000
1000
0000
,
0001
1000
0100
0000
0010
0001
0100
0000
,
0010
1000
0001
0010
,
0000
0001
1000
0000
0001
0100
0000
0010
,
0000
0100
0001
0000
0010
0001
0000
1000
,
0000
0001
1000
0000
0010
1000
0000
0100
,
1000
0000
0000
0010
0000
0000
0100
0000
0001
0000
0000
0010
0000
0000
0100
0000
,
1100
0000
1000
0000
,
0010
0000
0100
0000
,
0001
0000
0010
0000
,
0001
0000
1000
0000
,
0100
0000
1000
0000
,
0010
0000
0100
0000
,
0001
0000
0010
0000
,
0100
0000
1000
0000
,
0001
1000
0010
0000
,
1000
0001
0100
0000
,
0001
0100
0010
0000
,
0010
1000
0100
0000
,
0100
0010
0001
0000
,
0001
0010
0100
0000
,
0100
1000
0010
0000
,
0010
0100
0001
0000
,
1001
0001
1000
0000
,
1000
0010
0100
0000
,
0101
0001
0010
0000
,
0100
1000
0010
0100
,
1001
0001
0100
0001
,
0011
0001
0100
0010
,
1010
0010
0110
0010
,
1000
0001
1000
0001
1000
0000
0010
0000
,
0100
0010
0100
0000
0001
0000
0010
0000
,
0100
1000
0100
0000
0010
0000
0001
0000
,
1000
0001
1000
0000
0001
0000
0100
0000
,
0010
0100
0010
0000
0100
0000
0001
0000
,
1000
0010
1000
0000
0100
0000
1000
0000
,
0010
0100
0010
0000
0100
0000
0001
0000
,
0010
0001
0010
0000
0001
0000
1000
0000
,
0100
1000
0100
0000
1000
0000
0010
0000
,
0100
0010
0100
0000
0010
0000
1000
0000
,
0001
1000
0001
0000
0010
0000
0001
0000
,
0100
0010
0100
0000
0010
0000
1000
0000
,
0001
0100
0001
0000
0010
0000
0100
0000
,
1000
0010
1000
0000
0100
0000
1000
0000
,
0010
0100
0010
0000
0100
0000
0001
0000
,
1000
0001
1000
0000
0001
0000
1000
0000
,
0010
0100
0001
1000
,
0001
0100
0010
1000
0001
0000
1000
0000
,
0001
0100
0010
1000
0001
0000
1000
0000
,
0001
0100
0010
1000
0001
0000
1000
0000
,
0001
0100
0010
1000
0001
0000
1000
0000
,
0001
0010
0100
1000
0001
0000
1000
0000
,
0001
0010
0100
1000
0001
0000
1000
0000
,
0001
0010
0100
1000
0100
0010
0001
1000
,
0100
0010
0001
0000
0100
0000
0100
0000
,
0010
0010
1000
1000
,
0001
0001
1000
0010
,
1000
0010
0100
0001
,
0100
0001
1000
0100
,
0001
0100
1000
0010
,
0001
0010
1000
0010
,
0100
0000
0001
0000
1000
0001
0100
0010
,
0100
0000
0000
0001
0000
0000
0010
0000
0000
0001
0000
0000
1000
0000
0000
0000
,
0010
0000
0000
1000
0000
0000
0100
0000
0000
1000
0000
0000
0001
0000
0000
0000
,
0100
0000
0000
0010
0000
0000
1000
0000
0000
0001
0000
0000
0010
0000
0000
0000
,
0001
0000
0000
0010
0000
0000
0001
0000
0000
1000
0000
0000
0100
0000
0000
0000
,
1000
0000
0000
0010
0000
0000
0100
0000
0000
0001
0000
0000
0010
0000
0000
0001
,
0000
0000
1000
0000
0000
0010
0000
0000
0100
0000
0000
0001
0000
0000
0010
0000
,
0001
0000
0000
1000
0000
0000
0001
0000
0000
0100
0000
0000
0010
0000
1000
0000
,
0100
0010
0001
0010
0100
0010
0001
1000
,
0100
1000
0010
0100
,
0001
0010
0001
1000
,
0100
1000
0010
0100
,
0001
0000
0010
0001
0000
0001
0010
0000
,
0100
0010
0001
0100
,
0010
1000
0001
0010
,
0001
1000
0100
0010
,
0001
0010
0100
0010
0001
1000
0020
0000
,
0130
0000
0000
0000
;

//---------------dance-single - ----------------
#NOTES:
     dance-single:
     :
     Easy:
     4:
     0.292179,0.430237,0.122226,0.154820,0.000000,251.000000,236.000000,15.000000,19.000000,0.000000,0.000000,0.292179,0.430237,0.122226,0.154820,0.000000,251.000000,236.000000,15.000000,19.000000,0.000000,0.000000:
0000
0000
0000
0000
,
0000
0000
0000
0000
,
0000
0000
0000
0000
,
0000
0000
0000
0000
,
0000
0000
0000
0000
,
0000
0000
0000
0000
,
0000
0000
0000
0000
,
0000
0000
0000
0000
,
0000
0000
0000
0000
,
0000
1000
0001
1000
,
0000
0010
0100
0010
,
0000
1000
0010
0100
,
0001
0010
0001
1000
,
0000
0001
0100
0001
,
0000
1000
0010
1000
,
0000
0001
0010
0001
,
0100
0001
1000
0100
,
0110
0000
0100
0000
,
0010
0000
0001
0000
,
1000
0000
0001
0000
,
0100
0000
0010
0000
,
1000
0000
0001
0000
,
0010
0000
0001
0000
,
1000
0000
0100
0000
,
1000
0000
0001
0000
,
0100
0010
0100
0000
,
0010
0000
1000
0000
,
0001
0100
0001
0000
,
0010
0000
0001
0000
,
1000
0100
1000
0000
,
0100
0000
1000
0000
,
0010
0100
0010
0000
,
0100
0000
0001
0000
,
1001
0000
0001
0000
,
1000
0000
0010
0000
,
1001
0000
1000
0000
,
0001
0000
0100
0000
,
1001
0000
0010
0000
,
1001
0000
0100
0000
,
1001
0000
0000
0100
0010
0000
0000
0000
,
2002
0000
0000
3003
0001
0000
1000
0000
,
0010
0000
0000
1000
0000
0000
0001
0000
,
0100
0000
0001
0010
,
0100
0000
0010
0001
,
1000
0000
0100
1000
,
0010
0000
0100
0001
,
0010
0000
0001
1000
,
0100
0000
1000
0001
,
0100
0001
0010
0001
,
1000
0000
0100
1000
,
0010
0000
0100
0010
,
1000
0000
0010
0100
,
0001
0000
1000
0001
,
0010
0000
0100
0010
,
0001
0000
0001
0010
,
0100
0000
0100
1000
,
0010
0000
0100
0010
,
2000
0000
3001
1000
,
0200
0000
1300
0010
,
0200
0000
0310
1000
,
0002
0000
0013
0100
,
2000
0000
3100
0010
,
0002
0000
0013
0100
,
0020
0000
0230
0000
,
0000
0000
0310
0001
,
2000
0000
3001
1000
,
0020
0000
1030
0010
,
0200
0000
0310
1000
,
0002
0000
0013
0001
,
0200
0000
0310
1000
,
0002
0000
1003
0001
,
0200
0000
0000
0000
0320
0000
0000
0030
,
1000
0010
0100
0001
,
0010
0010
0010
0001
,
1000
0001
0100
0001
,
1000
1000
0001
1000
,
0010
0010
1000
0001
,
1000
0010
1000
0001
,
0100
0100
0001
0001
,
1000
0100
0010
0001
,
1001
0001
0100
0010
,
1010
0010
1000
0100
,
1100
0100
0010
0001
,
0011
0001
0100
0010
,
0110
0010
1000
0001
,
0011
0010
0100
1000
,
1100
1000
1010
0010
,
0100
0000
0010
0000
1000
0200
0000
0000
,
0310
0000
0000
0000
;

//---------------dance-single - ----------------
#NOTES:
     dance-single:
     :
     Beginner:
     2:
     0.118734,0.250972,0.016297,0.000000,0.000000,102.000000,100.000000,2.000000,0.000000,0.000000,0.000000,0.118734,0.250972,0.016297,0.000000,0.000000,102.000000,100.000000,2.000000,0.000000,0.000000,0.000000:
0000
0000
0000
0000
,
0000
0000
0000
0000
,
0000
0000
0000
0000
,
0000
0000
0000
0000
,
0000
0000
0000
0000
,
0000
0000
0000
0000
,
0000
0000
0000
0000
,
0000
0000
0000
0000
,
0000
0000
0000
0000
,
1000
0000
0000
0000
,
0001
0000
0000
0000
,
1000
0000
1000
0000
,
1000
0000
0000
0000
,
0010
0000
0000
0000
,
0100
0000
0000
0000
,
0001
0000
0001
0000
,
0001
0000
0000
0000
,
1001
0000
0000
0000
,
0000
0000
0000
0000
,
0000
0000
0000
0000
,
0000
0000
0000
0000
,
0010
0000
0000
0000
,
1000
0000
0000
0000
,
0001
0000
0000
0000
,
0100
0000
0000
0000
,
0001
0000
0000
0000
,
1000
0000
0000
0000
,
0010
0000
0000
0000
,
0100
0000
0000
0000
,
0001
0000
0000
0000
,
1000
0000
0000
0000
,
0100
0000
0000
0000
,
1000
0000
0000
0000
,
0001
0001
0001
0000
,
0000
0000
0000
0000
,
1000
1000
1000
0000
,
0000
0000
0000
0000
,
0010
0000
0000
0000
,
0100
0000
0000
0000
,
0010
0000
0100
0000
,
0010
0000
1000
0000
,
0000
0000
0001
0000
,
0000
0000
0100
0000
,
0000
0000
0010
0000
,
0000
0000
1000
0000
,
0000
0000
0010
0000
,
0000
0000
0100
0000
,
0000
0000
0001
0000
,
1000
0000
0001
0000
,
0000
0000
0100
0000
,
0000
0000
0010
0000
,
0000
0000
1000
0000
,
0000
0000
0100
0000
,
0000
0000
1000
0000
,
0000
0000
0001
0000
,
1000
0000
0001
0000
,
0000
0000
0100
0000
,
0010
0000
0000
0000
,
0010
0000
0000
0000
,
1000
0000
0000
0000
,
1000
0000
0000
0000
,
0001
0000
0000
0000
,
0001
0000
0000
0000
,
0010
0000
0001
0000
,
0000
0000
1000
0000
,
0001
0000
0000
0000
,
1000
0000
0000
0000
,
0010
0000
0000
0000
,
0100
0000
0000
0000
,
0010
0000
0000
0000
,
0010
0000
0000
0000
,
1000
0000
0001
0000
,
1000
0000
0001
0000
,
0100
0000
0000
0000
,
0001
0000
1000
0000
,
0010
0000
0000
0000
,
1000
0000
0010
0000
,
0100
0000
0000
0000
,
0010
0000
0100
0000
,
0001
0000
0000
0000
,
1000
0000
1000
0000
,
1000
0000
1000
0000
,
0001
0000
0001
0000
,
0001
0000
0001
0000
,
0100
0000
0100
0000
,
0010
0000
0010
0000
,
1000
0000
0010
0000
,
0100
0000
0001
1000
,
1001
0000
0000
0000
;

//---------------dance-single - ----------------
#NOTES:
     dance-single:
     :
     Challenge:
     10:
     0.703093,0.968034,0.440015,0.065187,0.611132,604.000000,550.000000,54.000000,8.000000,0.000000,0.000000,0.703093,0.968034,0.440015,0.065187,0.611132,604.000000,550.000000,54.000000,8.000000,0.000000,0.000000:
// measure 0
0000
0000
0000
0000
,  // measure 1
0000
0000
0000
0000
,  // measure 2
0000
0000
0000
0000
,  // measure 3
0000
0000
0000
0000
,  // measure 4
0000
0000
0000
0000
,  // measure 5
0000
0000
0000
0000
,  // measure 6
0000
0000
0000
0000
,  // measure 7
0000
0000
0000
0000
,  // measure 8
0000
0000
0000
0000
,  // measure 9
0001
1000
0010
0100
0010
1000
0000
0001
,  // measure 10
0000
0000
0001
0000
0100
0000
0010
0000
0100
0000
0010
1000
0000
0001
0010
0000
,  // measure 11
0001
0100
0000
0010
1000
0100
0000
0010
,  // measure 12
0100
0000
1000
0100
0000
0100
1000
0000
0001
0000
1000
0010
0000
0010
1000
0000
,  // measure 13
0000
0100
0010
0001
1000
0010
0000
1000
,  // measure 14
0000
0000
0001
0000
1000
0000
0100
0000
0010
0000
0010
0100
0000
0100
1000
0000
,  // measure 15
0001
0100
0010
1000
0001
0010
0100
0010
,  // measure 16
0001
0000
1000
0001
0000
0001
1000
0000
0010
0000
1000
0100
0000
0010
0001
0000
,  // measure 17
1001
0000
1000
0000
,  // measure 18
0100
0000
1000
0000
,  // measure 19
0001
0000
0010
0000
,  // measure 20
0001
0000
0000
1000
0000
0000
0001
0000
,  // measure 21
0010
0100
1000
0000
,  // measure 22
0100
0010
0001
0000
,  // measure 23
1000
0001
0010
0000
,  // measure 24
0100
0010
0001
0000
,  // measure 25
1001
1010
1000
0001
,  // measure 26
0101
1001
1000
0001
,  // measure 27
0011
1001
1000
0001
,  // measure 28
0101
1001
1000
0010
,  // measure 29
1010
0101
1000
0010
,  // measure 30
1100
0011
0010
0001
,  // measure 31
0101
1010
1000
0100
,  // measure 32
0011
1100
0100
0010
,  // measure 33
1001
0000
0000
0000
0001
0000
0000
0000
1000
0000
0000
0010
0000
0000
0100
0000
,  // measure 34
0001
0000
0000
0000
0010
0000
0000
0000
0001
0000
0000
0010
0000
0000
0001
0000
,  // measure 35
0101
0000
0000
0000
0100
0000
0000
0000
0010
0000
0000
0100
0000
0000
0001
0000
,  // measure 36
1000
0000
0000
0000
0001
0000
0000
0000
1000
0000
0001
0000
1000
0010
0000
0010
,  // measure 37
0100
0001
0010
1000
0010
0001
0100
0000
,  // measure 38
1001
1000
0010
0001
0010
0100
0001
0000
,  // measure 39
0101
0001
1010
1000
,  // measure 40
0002
2003
3020
0130
1001
0000
1010
0000
,  // measure 41
0001
0000
0000
0010
0000
0000
0001
0000
0101
0000
0000
0000
1010
0000
0000
0000
,  // measure 42
0010
0000
0000
1000
0000
0000
0001
0000
1001
0000
0000
0000
1100
0000
0000
0000
,  // measure 43
1000
0000
0000
0100
0000
0000
1000
0000
1010
0000
0000
0000
0110
0000
0000
0000
,  // measure 44
0100
0000
0000
0001
0000
0000
0010
0000
0110
0000
0000
0000
1100
0000
0000
0000
,  // measure 45
0100
0000
0000
1000
0000
0000
0010
0000
0110
0000
0000
0000
0101
0000
0000
0000
,  // measure 46
0001
0000
0000
1000
0000
0000
0100
0000
1100
0000
0000
0000
1010
0000
0000
0000
,  // measure 47
0010
0000
0000
0100
0000
0000
0001
0000
1001
0000
0000
0000
1100
0000
0000
0000
,  // measure 48
1000
0000
0000
0001
0000
0000
0100
0000
0101
0000
0000
0000
1010
0000
0000
0000
,  // measure 49
1000
0000
0001
1000
0000
0001
0100
0000
0101
0000
0000
0000
1010
0000
0000
0000
,  // measure 50
1000
0000
0100
1000
0000
0010
0001
0000
1001
0000
0000
0000
0101
0000
0000
0000
,  // measure 51
1000
0000
0100
1000
0000
1000
0001
0000
0101
0000
0000
0000
1100
0000
0000
0000
,  // measure 52
0100
0000
0010
0001
0000
0001
1000
0000
1010
0000
0000
0000
1100
0000
0000
0000
,  // measure 53
0100
0000
0010
0001
0000
0001
1000
0000
1010
0000
0000
0000
1100
0000
0000
0000
,  // measure 54
0100
0000
0010
0001
0000
0001
0100
0000
0110
0000
0000
0000
0101
0000
0000
0000
,  // measure 55
0001
0000
1000
0010
0000
0010
0100
0000
0110
0000
0000
0000
1001
0000
0000
0000
,  // measure 56
1000
0000
0001
0100
0000
0100
0001
0000
1000
0000
0000
0000
0001
0000
0000
0000
,  // measure 57
1000
0001
0100
0001
1000
0100
1000
0001
1000
0000
0000
0000
0001
0000
0000
0000
,  // measure 58
1000
0001
0100
0001
1000
0100
1000
0001
0100
0000
0000
0000
0001
0000
0000
0000
,  // measure 59
0010
0100
1000
0010
0100
0001
1000
0001
0100
0000
0000
0000
0001
0000
0000
0000
,  // measure 60
0010
0100
1000
0010
0100
0001
1000
0001
0100
0000
0000
0000
0001
0000
0000
0000
,  // measure 61
0010
0100
1000
0010
0100
0001
1000
0001
0100
0000
0000
0000
0001
0000
0000
0000
,  // measure 62
0010
0100
1000
0010
0100
0001
1000
0001
1000
0000
0000
0000
0100
0000
0000
0000
,  // measure 63
0010
0100
1000
0010
0100
0001
1000
0100
1000
0100
0010
0001
0010
0100
0010
0001
,  // measure 64
0100
0010
1000
0100
0010
0100
1000
0001
0100
0000
0000
0000
0001
0000
0000
0000
,  // measure 65
0010
0100
1000
0001
0100
0010
1000
0001
0100
0000
0000
0000
0001
0000
0000
0000
,  // measure 66
0010
0100
1000
0001
0100
0010
1000
0001
0010
0000
0000
0000
0100
0000
0000
0000
,  // measure 67
1000
0010
0100
0001
1000
0100
1000
0001
0010
0000
0000
0000
0001
0000
0000
0000
,  // measure 68
1000
0001
0010
0001
0100
0010
1000
0100
0010
0000
0000
0000
0100
0000
0000
0000
,  // measure 69
1000
0010
0100
0001
1000
0100
0010
0001
0010
0000
0000
0000
0100
0000
0000
0000
,  // measure 70
1000
0010
0100
0001
1000
0100
0010
0001
1000
0000
0000
0000
0001
0000
0000
0000
,  // measure 71
0100
0010
1000
0001
0100
0001
0010
0100
2000
0000
3200
0000
0320
0000
0032
0000
,  // measure 72
1003
0000
0010
1000
0000
1000
0001
0000
0010
0000
0001
0100
0000
0100
0010
0000
,  // measure 73
1000
0000
0000
0100
0000
0000
1000
0000
0000
0000
0001
0000
0100
0001
0100
0000
,  // measure 74
0010
0000
1000
0010
0000
0100
0001
0000
0010
0000
0001
0010
0000
0100
1000
0000
,  // measure 75
0001
0000
0000
1000
0000
0000
0010
0000
0000
0100
0000
0000
0001
0000
1000
0000
,  // measure 76
0010
0000
0000
1000
0000
0000
0100
0000
0000
1000
0000
0000
0001
0000
0000
0010
,  // measure 77
0000
0000
0001
0000
0000
1000
0000
0000
0010
0000
0000
0100
0000
0000
0001
0000
,  // measure 78
1000
0000
0000
0001
0000
0000
0010
0000
0001
0000
0000
0100
0000
0000
0010
0000
,  // measure 79
1000
0010
0100
0001
1000
0100
0010
0100
1000
0010
0100
0001
0010
0100
0010
0001
,  // measure 80
1000
0000
0000
0001
0000
0000
0010
0000
0001
0000
0100
0001
0000
1000
0010
0000
,  // measure 81
1000
0000
0000
0100
0000
0000
1000
0000
0001
0000
0100
0001
0000
0001
0010
0000
,  // measure 82
0100
0000
0000
1000
0000
0000
0010
0000
0100
0000
0001
0100
0000
0100
0010
0000
,  // measure 83
1000
0000
0000
0001
0000
0000
0010
0000
0100
0000
1000
0010
0000
0100
0001
0000
,  // measure 84
1000
0001
1000
0001
0100
0010
0100
0010
,  // measure 85
1000
0001
1000
0001
0100
0010
0100
0010
,  // measure 86
1000
0001
0100
0010
1000
0001
0100
0010
,  // measure 87
1000
0010
0100
0001
1000
0100
0010
0100
1000
0001
1000
0020
0000
0000
0000
0000
,  // measure 88
0030
0000
0000
0000
;
