#TITLE:Aerial Skydive;
#SUBTITLE:;
#ARTIST:Dirty Androids;
#TITLETRANSLIT:;
#SUBTITLETRANSLIT:;
#ARTISTTRANSLIT:;
#GENRE:;
#CREDIT:;
#BANNER:Aerial Skydive.png;
#BACKGROUND:Aerial Skydive-bg.png;
#LYRICSPATH:;
#CDTITLE:;
#MUSIC:Aerial Skydive.mp3;
#OFFSET:-0.883000;
#SAMPLESTART:24.177284;
#SAMPLELENGTH:10.971428;
#SELECTABLE:YES;
#BPMS:0.000000=175.000000
;
#STOPS:160.000000=0.343000,
160.500000=0.343000
;
#BGCHANGES:;
#KEYSOUNDS:;
#ATTACKS:;

//---------------dance-single - ----------------
#NOTES:
     dance-single:
     :
     Hard:
     9:
     0.548757,0.809369,0.114011,0.157862,0.175402,438.000000,425.000000,13.000000,18.000000,0.000000,0.000000,0.548757,0.809369,0.114011,0.157862,0.175402,438.000000,425.000000,13.000000,18.000000,0.000000,0.000000:
// measure 0
0000
0000
0000
0000
,  // measure 1
0000
0000
0000
0000
,  // measure 2
0000
0000
0000
0000
,  // measure 3
0000
0000
0000
0000
,  // measure 4
0000
0000
0000
0000
,  // measure 5
0000
0000
0000
0000
,  // measure 6
0000
0000
0000
0000
,  // measure 7
0000
0000
0000
0000
,  // measure 8
0001
0100
0001
0000
1000
0100
1000
0000
,  // measure 9
0001
0000
1000
0010
0000
0100
0001
0000
,  // measure 10
1000
0010
1000
0000
0001
0010
0001
0000
,  // measure 11
1000
0000
0001
0100
0000
0001
0000
0010
,  // measure 12
0100
0010
0100
0000
1000
0001
1000
0000
,  // measure 13
0010
0000
1000
0100
0000
0010
0001
0000
,  // measure 14
1000
0001
1000
0000
0010
0100
0010
0000
,  // measure 15
0100
0000
0000
0100
0000
0000
0010
0000
0000
0000
0100
0000
0010
0000
1000
0000
,  // measure 16
0001
0000
0000
0000
,  // measure 17
1000
0001
0100
0000
0010
1000
0000
1000
,  // measure 18
0001
0000
0001
0010
0000
0001
0010
0001
,  // measure 19
1000
0001
0100
0010
0000
0100
0010
1000
,  // measure 20
0001
0010
0100
0010
0000
0001
0000
1000
,  // measure 21
0001
1000
0010
0000
0100
0001
0000
0001
,  // measure 22
1000
0000
1000
0100
0000
1000
0100
1000
,  // measure 23
0001
1000
0010
0100
0000
0010
0100
0001
,  // measure 24
1000
0100
0001
0100
0000
0100
0010
0001
,  // measure 25
1000
0001
0100
0000
0100
1000
0000
1000
,  // measure 26
0100
0000
0100
0001
0000
0001
0100
0010
,  // measure 27
0110
0000
0000
1010
0000
0000
1000
0001
,  // measure 28
0101
0000
0000
0011
0000
0010
0001
1000
,  // measure 29
0100
1000
0010
0000
0001
0010
0000
0010
,  // measure 30
1000
0000
1000
0010
0000
0010
0100
0001
,  // measure 31
1000
0100
1000
0001
0000
1000
0010
0000
,  // measure 32
0100
0000
0010
0000
0100
0000
0010
0000
1000
0001
1000
0001
1000
0000
0000
0000
,  // measure 33
0002
0000
0203
0000
0310
1000
0001
0010
,  // measure 34
0200
0000
0310
0002
0000
1003
0010
1000
,  // measure 35
0200
0000
2300
0000
3001
0010
0100
0010
,  // measure 36
0002
0000
0103
0020
0000
0130
0001
0010
,  // measure 37
0200
0000
2300
0000
3001
0100
0001
1000
,  // measure 38
0200
0000
1300
0020
0000
0130
0001
0100
,  // measure 39
0020
0000
2030
0000
3100
1000
0010
1000
,  // measure 40
0001
1010
0101
0000
1000
0001
1000
0000
,  // measure 41
0001
0100
0000
0001
1000
0000
0001
0010
,  // measure 42
0000
0001
1000
0000
0010
0100
0010
0000
,  // measure 43
0100
0010
1000
0100
2000
0000
3001
0020
,  // measure 44
0000
0031
1000
0100
1000
0001
0100
0000
,  // measure 45
0001
1000
0000
0001
0010
0000
0001
0100
,  // measure 46
0000
0001
1000
0000
0200
0000
0320
0000
,  // measure 47
0031
0000
0010
0000
0001
0000
1000
0000
0100
0000
0000
1000
0000
0000
0010
0000
,  // measure 48
0000
0000
0000
0001
0000
0000
0000
0000
0000
0000
0000
0000
0010
0000
0000
0000
0000
0000
0100
0000
0000
0000
0000
0000
0001
0000
0000
0000
0000
0000
0000
0000
0000
0000
0000
0000
1000
0000
0000
0000
0100
0000
0000
0000
1000
0000
0000
0000
,  // measure 49
0100
0000
1000
0000
0100
0000
1000
0000
0010
0000
1000
0000
0100
0000
0000
1000
0000
0000
0000
0000
0000
0100
0000
0000
,  // measure 50
1000
0000
0000
0010
0000
0000
0100
0000
0000
0001
0000
0000
0010
0000
0000
0000
0000
0000
0100
0000
0010
0000
0100
0000
,  // measure 51
0010
0000
0100
0000
0010
0000
0100
0000
0010
0000
0100
0000
0010
0000
0000
0001
0000
0000
0100
0000
0000
0000
0000
0000
,  // measure 52
0010
0000
0000
1000
0000
0000
0100
0000
0000
0000
0000
0000
0010
0000
0000
0000
0000
0000
0001
0000
0100
0000
0001
0000
,  // measure 53
0100
0000
0001
0000
0100
0000
0001
0000
0100
0000
0001
0000
0010
0000
0001
0000
0010
0000
0001
0000
0000
1000
0000
0000
,  // measure 54
0000
0000
0000
0100
0000
0000
0010
0000
0000
0001
0000
0000
1000
0000
0000
0000
0000
0000
0010
0000
0100
0000
0010
0000
,  // measure 55
0100
0010
0100
0010
0100
0010
0100
0010
1000
0001
0010
0100
,  // measure 56
0010
0001
1000
0010
0100
0001
1000
0000
0000
0000
0000
0000
,  // measure 57
0000
0000
0000
0000
,  // measure 58
0000
0000
0000
0000
,  // measure 59
0000
0000
0000
0000
,  // measure 60
0000
0000
1000
0100
,  // measure 61
0000
1000
0000
0000
0010
0000
0000
0100
,  // measure 62
0000
0000
0001
0000
1100
0000
0000
1001
,  // measure 63
0000
0000
0011
0000
1000
0100
1000
0010
,  // measure 64
0000
0100
0001
0000
1000
0001
0100
0000
,  // measure 65
0010
1000
0000
0010
0100
0000
0010
1000
,  // measure 66
0000
0100
0010
0001
1000
0010
1000
0001
,  // measure 67
0000
0010
0100
0000
0010
0001
1000
0010
,  // measure 68
0000
0100
0000
0001
1000
0001
0010
0000
,  // measure 69
0100
0010
0000
0001
0100
0000
0010
0100
,  // measure 70
0000
0010
0100
0001
1000
0010
0100
0001
,  // measure 71
0000
1000
0100
0000
0010
0001
0100
0010
,  // measure 72
0000
0100
0010
1000
0100
0010
0100
1000
,  // measure 73
0000
0100
1000
0000
1000
0001
0100
0001
,  // measure 74
0000
0010
0100
0000
1100
1000
0010
0110
,  // measure 75
0000
0100
0010
1000
1001
0001
0010
0110
,  // measure 76
0000
0100
1000
0000
0100
0010
0001
0100
,  // measure 77
0000
0010
0100
0000
0010
1000
0001
0010
,  // measure 78
0000
0100
0010
0001
1000
0010
0100
0001
,  // measure 79
0000
0000
1000
0000
0001
0000
0010
0000
0001
0000
0000
1000
0000
0000
0010
0000
,  // measure 80
0000
0100
0010
0000
0000
0000
0000
0000
;

//---------------dance-single - ----------------
#NOTES:
     dance-single:
     :
     Medium:
     6:
     0.363332,0.457469,0.157862,0.245562,0.017540,290.000000,272.000000,18.000000,28.000000,0.000000,0.000000,0.363332,0.457469,0.157862,0.245562,0.017540,290.000000,272.000000,18.000000,28.000000,0.000000,0.000000:
0000
0000
0000
0000
,
0000
0000
0000
0000
,
0000
0000
0000
0000
,
0000
0000
0000
0000
,
0000
0000
0000
0000
,
0000
0000
0000
0000
,
0000
0000
0000
0000
,
0000
0000
0000
0000
,
1000
0010
1000
0000
0010
0000
0100
0000
,
0001
0000
1000
0001
0000
0001
1000
0000
,
0001
0010
0001
0000
0010
0000
0001
0000
,
1000
0000
0010
1000
0000
1000
0100
0000
,
0010
0001
0010
0000
0001
0000
0100
0000
,
0010
0000
0100
0010
0000
1000
0001
0000
,
0010
0000
0001
0100
0000
0100
0010
0000
,
1000
0000
0000
0001
0000
0000
0010
0000
0000
0000
0001
0000
1000
0000
0000
0000
,
0000
0000
0000
0000
,
0001
0000
1000
0000
0000
0010
0000
0000
,
1000
0000
0000
0100
0000
1000
0000
0000
,
0001
0000
0000
0010
0000
0000
0001
0000
,
0100
0000
0000
0010
0000
0100
0000
0001
,
0000
0000
1000
0000
0000
0100
0000
0000
,
0001
0000
0000
0100
0000
0000
1000
0000
,
0010
0000
0000
0001
0000
0000
0010
0000
,
0100
0000
0001
0100
0000
0100
0010
0000
,
1000
0000
0001
0000
0000
1000
0000
0000
,
0100
0000
0000
1000
0000
0000
0010
0000
,
1010
0000
0000
0101
0000
0000
0001
0000
,
0011
0000
0000
1100
0000
0000
0100
0000
,
1000
0000
0001
0000
0000
0100
0000
0000
,
1000
0000
0000
0100
0000
0000
0010
0000
,
0100
0000
0000
0001
0000
0000
0100
0000
,
0001
0000
1000
0000
0100
1000
0001
0000
,
1000
0010
0100
0001
,
0010
0000
0100
2000
0000
3100
0020
0000
,
0031
0010
0001
0100
,
0010
0000
1000
0020
0000
0130
0002
0000
,
1003
0001
0010
0001
,
1000
0000
0010
0200
0000
0301
2000
0000
,
3010
0100
1000
0100
,
1000
0010
0100
0000
0010
1000
0010
0000
,
0100
0001
0010
0100
,
0010
0001
1001
0001
,
1001
0001
1001
1000
,
1001
0000
1000
0000
0010
1000
0010
0000
,
1000
0010
0100
0001
,
0010
0100
0110
0010
,
0110
0000
0000
0000
0010
0000
0000
0000
0100
0000
0000
0010
0000
0000
0001
0000
,
0000
1000
0000
0000
0010
0000
0000
0000
2001
0000
0000
0000
3002
0000
0000
0000
,
0203
0320
2030
3010
,
1000
0001
0020
0032
,
0023
0230
0320
0031
,
1000
0010
0100
0020
,
2030
3020
0230
0320
,
1030
0001
0010
0200
,
0320
0032
2003
3200
,
2300
3002
0013
0000
,
0000
0000
0000
0000
,
0000
0000
0000
0000
,
0000
0000
0000
0000
,
0000
0000
0000
1000
,
0000
1000
0000
0000
0001
0000
0000
0001
,
0000
0000
1000
0000
0110
0000
0000
1001
,
0000
0110
0100
0010
,
1000
0010
0100
0000
0001
0000
1000
0000
,
0000
0001
0000
0000
0010
0000
0000
0001
,
0000
0000
0100
0000
0010
0000
1000
0100
,
0000
0000
0010
0000
0001
0000
0100
0010
,
0000
1000
0000
0001
0000
0000
1000
0000
,
0000
0010
0000
0000
1000
0000
0000
0100
,
0000
0000
1000
0000
0010
0000
0100
0001
,
0000
0001
0010
0000
0100
0000
0010
0001
,
0000
0001
0100
0000
0100
0010
1000
0001
,
0000
1000
0001
0000
0100
0000
0000
0001
,
0000
0000
0010
0000
0011
0000
0000
1100
,
0000
0000
1000
0000
1010
0000
0000
0101
,
0000
0000
0001
0000
1000
0010
0100
0001
,
0000
0001
0100
0000
0010
0000
1000
0000
,
0001
0000
0010
0000
0100
0000
0010
0001
,
0000
0000
0001
0000
0010
0000
0000
0000
0100
0000
0000
1000
0000
0000
0010
0000
,
0000
0100
0001
0000
0000
0000
0000
0000
;

//---------------dance-single - ----------------
#NOTES:
     dance-single:
     :
     Easy:
     4:
     0.243057,0.387090,0.078931,0.008770,0.000000,194.000000,185.000000,9.000000,1.000000,0.000000,0.000000,0.243057,0.387090,0.078931,0.008770,0.000000,194.000000,185.000000,9.000000,1.000000,0.000000,0.000000:
0000
0000
0000
0000
,
0000
0000
0000
0000
,
0000
0000
0000
0000
,
0000
0000
0000
0000
,
0000
0000
0000
0000
,
0000
0000
0000
0000
,
0000
0000
0000
0000
,
0000
0000
0000
0000
,
1000
0001
0000
1000
,
0000
0010
0000
1000
,
0000
0001
0000
0010
,
0000
0001
0000
1000
,
0001
0100
0000
0010
,
0000
1000
0000
0010
,
0100
0000
0001
0000
,
0010
0000
0001
0000
,
2000
0000
0000
3000
,
0001
0000
1000
0000
0000
1000
0000
0000
,
0001
0000
0000
0001
0000
0000
0000
0000
,
0100
0000
0000
0010
0000
0000
1000
0000
,
0010
0000
0000
1000
0000
0000
0001
0000
,
1000
0000
0100
0000
0000
1000
0000
0000
,
0010
0000
0000
0100
0000
0000
0000
0000
,
0010
0000
0000
1000
0000
0000
0001
0000
,
1000
0000
0000
0001
0000
0000
0100
0000
,
0010
0000
1000
0000
0000
0010
0000
0000
,
0100
0000
0000
0001
0000
0000
0010
0000
,
0011
0000
0000
1100
0000
0000
0100
0000
,
1100
0000
0000
0011
0000
0000
0001
0000
,
1000
0000
0001
0000
0000
0100
0000
0000
,
0010
0000
0000
1000
0000
0000
0000
0000
,
0010
0000
0000
1000
0000
0000
0001
0000
,
1000
0001
0100
0010
,
1000
0010
0100
0001
,
1000
0000
0000
1000
0000
0000
1000
0000
,
0001
1000
0010
0100
,
0001
0000
0000
0001
0000
0000
0001
0000
,
0100
0010
1000
0001
,
0010
0000
0000
0010
0000
0000
0010
0000
,
0001
1000
0010
0100
,
0010
0000
1000
0000
,
0001
0000
0010
0000
,
0001
0000
1000
0100
,
1000
0000
0100
0010
,
0100
0000
0010
0000
,
0100
0000
1000
0000
,
0001
0000
0100
0001
,
0100
0000
0110
0000
,
0000
0000
1001
0000
,
1000
0000
0001
0000
,
0100
0001
0010
0000
,
0100
0000
0010
0001
,
1000
0100
1000
0000
,
0001
0000
0100
0000
,
0001
0000
1000
0000
,
0010
0000
0100
0000
,
0001
0000
1001
0000
,
0000
0000
0000
0000
,
0000
0000
0000
0000
,
0000
0000
0000
0000
,
0000
0000
0000
0000
,
0000
0000
0000
0000
,
0000
0000
0000
0000
0010
0000
0000
0010
,
0000
0010
0100
0010
,
1000
1001
0001
0010
,
0000
0001
0000
0000
0100
0000
0000
0010
,
0000
0000
1000
0000
0010
0000
0000
1000
,
0000
0000
0001
0000
0010
0000
0000
0001
,
0000
1000
0000
0001
0000
0000
1000
0000
,
0000
0010
0000
0000
0100
0000
0000
0001
,
0000
0010
0000
0000
0001
0000
0000
1000
,
0000
0000
0100
0000
1000
0000
0000
0010
,
0000
0000
0100
0000
0001
0000
0000
0010
,
0000
0000
0001
0000
1000
0000
0000
0001
,
0000
0000
1000
0000
0010
0000
0000
1000
,
0000
0000
0001
0000
0100
0000
0000
0010
,
0000
0000
1000
0000
0010
0000
0000
0100
,
0000
0000
0010
0000
1000
0000
0000
0001
,
0000
0010
0001
1000
,
0100
0000
0010
0001
,
0100
1001
0000
0000
;

//---------------dance-single - ----------------
#NOTES:
     dance-single:
     :
     Beginner:
     1:
     0.112758,0.211140,0.096471,0.000000,0.000000,90.000000,79.000000,11.000000,0.000000,0.000000,0.000000,0.112758,0.211140,0.096471,0.000000,0.000000,90.000000,79.000000,11.000000,0.000000,0.000000,0.000000:
0000
0000
0000
0000
,
0000
0000
0000
0000
,
0000
0000
0000
0000
,
0000
0000
0000
0000
,
0000
0000
0000
0000
,
0000
0000
0000
0000
,
0000
0000
0000
0000
,
0000
0000
0000
0000
,
0010
0000
0000
0000
,
0010
0000
0000
0000
,
1000
0000
0000
0000
,
0001
0000
0000
0000
,
0100
0000
0000
0000
,
0100
0000
0000
0000
,
0010
0000
0000
0000
,
1000
0000
0001
0000
,
1001
0000
0000
0000
,
0100
0000
0000
0000
,
0010
0000
0000
0000
,
1000
0000
0000
0000
,
0001
0000
1000
0000
,
0001
0000
0000
0000
,
0010
0000
0000
0000
,
0001
0000
0000
0000
,
1000
0000
1000
0000
,
0100
0000
0000
0000
,
1000
0000
0000
0000
,
0110
0000
0000
0000
,
1001
0000
0000
0000
,
0100
0000
0000
0000
,
0010
0000
0000
0000
,
1000
0000
0000
0000
,
0001
0000
0000
0000
,
0100
0000
0000
0000
,
0010
0000
0010
0000
,
0010
0000
0000
0000
,
1000
0000
1000
0000
,
1000
0000
0000
0000
,
0001
0000
0001
0000
,
0001
0000
0000
0000
,
0100
0000
0010
0000
,
0000
0000
0000
0000
,
0000
0000
1000
0000
,
1000
0000
0001
0000
,
0001
0000
0100
0000
,
0000
0000
0000
0000
,
0000
0000
0010
0000
,
0010
0000
1001
0000
,
0000
0000
0110
0000
,
0000
0000
0100
0000
,
0000
0000
0010
0000
,
0000
0000
1000
0000
,
0001
0000
1000
0000
,
0000
0000
0010
0000
,
0000
0000
1000
0000
,
0000
0000
0100
0000
,
0000
0000
1001
0000
,
0000
0000
0000
0000
,
0000
0000
0000
0000
,
0000
0000
0000
0000
,
0000
0000
0000
0000
,
0000
0000
0000
0000
,
0000
0000
0110
0000
,
0000
0000
0100
0000
,
0000
0000
0010
0000
,
0000
0000
1000
0000
,
0000
0000
0001
0000
,
0000
0000
0010
0000
,
0001
0000
1000
0000
,
0000
0000
0100
0000
,
0000
0000
1000
0000
,
0000
0000
0010
0000
,
0100
0000
0001
0000
,
0000
0000
1000
0000
,
0000
0000
0110
0000
,
0000
0000
0110
0000
,
0000
0000
1001
0000
,
0000
0000
1000
0000
,
0000
0000
0001
0000
,
0000
0000
0010
0000
,
0000
1001
0000
0000
;

//---------------dance-single - ----------------
#NOTES:
     dance-single:
     :
     Challenge:
     10:
     0.702860,1.020509,0.315723,0.631446,0.473585,561.000000,525.000000,36.000000,72.000000,0.000000,0.000000,0.702860,1.020509,0.315723,0.631446,0.473585,561.000000,525.000000,36.000000,72.000000,0.000000,0.000000:
// measure 0
0000
0000
0000
0000
,  // measure 1
0000
0000
0000
0000
,  // measure 2
0000
0000
0000
0000
,  // measure 3
0000
0000
0000
0000
,  // measure 4
0000
0000
0000
0000
,  // measure 5
0000
0000
0000
0000
,  // measure 6
0000
0000
0000
0000
,  // measure 7
0000
0000
0000
0000
,  // measure 8
1000
0001
0010
0000
0100
0010
0000
0001
,  // measure 9
0100
0000
0100
1000
0000
1000
0000
0100
,  // measure 10
0010
1000
0001
0010
0000
0100
0010
0001
,  // measure 11
1000
0010
0100
0001
0000
1000
0000
0001
,  // measure 12
0100
1000
0100
0000
0010
1000
0000
0001
,  // measure 13
0100
0000
0001
0010
0000
0100
0010
0000
,  // measure 14
0001
0010
1000
0010
0000
0100
0010
0001
,  // measure 15
0100
1000
0100
0010
0000
0100
0001
1000
,  // measure 16
0100
0010
0100
0000
0010
0000
0001
1000
0010
0000
0100
0000
1001
0000
0000
0000
,  // measure 17
0001
0000
1000
0010
0200
0000
0000
0000
0310
1000
0002
0000
0000
0000
0013
0100
,  // measure 18
2000
0000
0000
0000
3001
1000
0200
0000
0000
0000
0310
0000
0100
0000
0000
0000
,  // measure 19
0010
0000
0001
0100
0010
0000
2000
0000
0000
0000
3001
1000
0100
0000
0010
0001
,  // measure 20
0100
0000
0010
1000
0001
0000
0200
0000
0000
0000
0310
0000
0000
0000
1000
0000
,  // measure 21
0010
0000
1000
0001
0020
0000
0000
0000
0130
0010
0002
0000
0000
0000
1003
0001
,  // measure 22
0200
0000
0000
0000
0310
1000
0002
0000
0000
0000
1003
0000
0100
0000
0000
0000
,  // measure 23
0010
0000
0001
0100
0010
0000
2000
0000
0000
0000
3001
0000
1001
0000
0000
0000
,  // measure 24
1000
0000
0001
0100
0010
0000
2000
0000
0000
0000
3001
0000
0011
0000
0000
0000
,  // measure 25
0001
0000
0100
0010
2000
0000
0000
0000
3010
0100
0002
0000
0000
0000
1003
0001
,  // measure 26
0020
0000
0000
0000
0130
0010
0002
0000
0000
0000
1003
0001
0200
0000
0300
0000
,  // measure 27
0101
0000
0001
0100
0010
0000
1010
0000
0000
0000
1000
0000
0100
0000
0001
0000
,  // measure 28
0101
0000
0001
0100
0010
0000
0011
0000
0000
0000
1100
0000
0000
0000
0101
0000
,  // measure 29
0001
1000
0010
1000
0002
0000
0000
1003
0001
1000
0020
0000
0000
0130
0010
1000
,  // measure 30
0002
0000
0000
0013
0100
1000
0002
0000
0000
0000
1003
0000
0010
0000
1000
0000
,  // measure 31
0100
1000
0010
0100
0001
0000
0020
0000
0000
0000
0130
1000
0010
0000
0000
0000
,  // measure 32
1000
0000
1000
0000
0001
0000
0001
0000
0100
0010
0100
0010
0100
0000
0001
0000
,  // measure 33
1200
0000
0320
0000
0130
1000
0010
0100
,  // measure 34
0102
0000
1003
1200
0000
0310
0100
0010
,  // measure 35
2001
0000
3200
0000
0310
0100
1000
0010
,  // measure 36
0120
0000
1030
1002
0000
0013
0100
1000
,  // measure 37
1020
0000
0230
0000
0310
1000
0001
0010
,  // measure 38
0210
0000
0310
0012
0000
1003
0001
0100
,  // measure 39
0120
0000
2030
0000
3001
0010
0100
0010
,  // measure 40
0220
0330
0022
0033
1100
0000
0000
0000
1000
0000
0001
1000
0010
0000
0000
0000
,  // measure 41
0100
0001
0010
0000
0000
0000
0100
0010
0001
0000
0000
0000
0010
0001
1000
0000
,  // measure 42
0000
0000
0010
1000
0001
0000
0000
0000
1020
0000
0000
0000
0230
0000
0000
0000
,  // measure 43
1300
0100
0001
0010
0200
0000
0310
0002
,  // measure 44
0000
0000
0103
0000
0010
0000
1000
0000
0001
0000
1000
0001
0100
0000
0000
0000
,  // measure 45
0010
0100
0001
0000
0000
0000
0010
0100
1000
0000
0000
0000
0100
0010
0001
0000
,  // measure 46
0000
0000
1000
0001
0100
0000
0000
0000
0002
0000
0000
0000
0203
0000
0000
0000
,  // measure 47
0310
0000
1000
0000
0001
0000
0010
0000
0011
0000
0000
0001
0000
0000
1010
0000
,  // measure 48
0000
0000
0000
0000
0000
0000
1000
0000
0000
0001
0000
0000
0010
0000
0000
0000
0000
0000
0100
0000
0000
0000
0000
0000
2002
0000
0000
0000
0000
0000
0000
0000
0000
3003
0000
0000
1000
0000
0000
0000
0001
0000
0000
0000
0100
0000
0000
0000
,  // measure 49
0001
0000
1000
0000
0100
0000
1000
0000
0001
0000
1000
0000
0001
0000
0000
0100
0000
0000
0000
0000
0000
0010
0000
0000
,  // measure 50
1000
0000
0000
0001
0000
0000
0010
0000
0000
0100
0000
0000
0120
0000
0000
0000
0000
0000
0031
0000
0010
0000
0100
0000
,  // measure 51
0010
0000
0001
0000
0100
0000
0010
0000
1000
0000
0001
0000
0010
0000
0000
0100
0000
0000
0010
0000
0000
0001
0000
0000
,  // measure 52
0100
0000
0000
1000
0000
0000
0100
0000
0000
0010
0000
0000
1000
0000
0010
0000
1000
0000
0010
0000
0100
0000
0001
0000
,  // measure 53
0010
0000
0100
0000
0010
0000
0001
0000
0100
0000
0010
0000
1000
0000
0001
0000
0010
0000
0001
0000
0000
1000
0000
0000
,  // measure 54
0000
0000
0000
0100
0000
0000
1000
0000
0000
0001
0000
0000
0100
0000
0010
0000
0100
0000
0001
0000
1000
0000
0010
0000
,  // measure 55
1000
0000
0000
0000
0001
0000
0000
0000
0010
0000
0000
0000
0100
0000
0000
0000
0010
0000
0000
0000
0001
0000
0000
0000
1000
0000
0000
0001
0000
0000
1000
0000
0000
0001
0000
0000
1000
0000
0000
0001
0000
0000
1000
0000
0000
0001
0000
0000
,  // measure 56
1000
0010
0100
0001
1000
0010
0100
0001
1000
0000
0000
0000
0000
0000
0000
0000
,  // measure 57
0000
0000
0000
0000
,  // measure 58
0000
0000
0000
0000
,  // measure 59
0000
0000
0000
0000
,  // measure 60
0000
0000
0000
0000
1000
0001
0200
0000
,  // measure 61
0310
2000
0000
3100
0020
0000
0130
2000
,  // measure 62
0000
3001
0200
0300
0110
0010
1000
1001
,  // measure 63
0000
0000
0001
0000
0011
0000
0000
0000
1000
0001
0100
0000
0010
0000
0100
0001
,  // measure 64
1000
0000
0100
0000
1001
0000
0000
0000
0001
0000
1000
0010
0200
0000
0000
0000
,  // measure 65
0310
0100
0002
0000
0000
0000
1003
0001
0020
0000
0000
0000
0031
1000
0200
0000
,  // measure 66
0000
0000
1300
0000
0001
0000
0000
0000
0100
0010
1000
0001
0010
0100
0020
0000
,  // measure 67
0000
0000
0031
0000
0100
0000
0001
0000
1000
0001
0100
0010
1000
0100
0020
0000
,  // measure 68
0000
0000
0130
0000
0000
0000
1000
0000
0001
0000
1000
0001
0020
0000
0000
0000
,  // measure 69
0130
0010
0002
0000
0000
0000
0103
0010
2000
0000
0000
0000
3001
1000
0200
0000
,  // measure 70
0000
0000
0310
0000
0100
0000
1000
0000
0001
0100
0010
1000
0001
0010
0200
0000
,  // measure 71
0000
0000
0310
0000
0001
0000
1000
0000
0010
0100
0001
1000
0100
0010
0200
0000
,  // measure 72
0000
0310
0100
1000
0001
0100
1000
0200
,  // measure 73
0000
0310
1000
0001
0010
0100
0010
0002
,  // measure 74
0000
0013
0100
1000
1001
0010
0100
1001
,  // measure 75
0000
0100
0010
1000
1001
0001
0010
0110
,  // measure 76
0000
0100
0010
0001
1000
0010
0001
0020
,  // measure 77
0000
0130
0002
0000
1003
0100
1000
0020
,  // measure 78
0000
0130
0010
1000
0001
0010
0100
0020
,  // measure 79
0000
0130
1000
0010
0100
0001
0010
0100
,  // measure 80
0000
0010
1001
0000
0000
0000
0000
0000
;
