#TITLE:Acquire;
#SUBTITLE:;
#ARTIST:ryhki;
#TITLETRANSLIT:;
#SUBTITLETRANSLIT:;
#ARTISTTRANSLIT:;
#GENRE:;
#CREDIT:;
#BANNER:Acquire.png;
#BACKGROUND:Acquire-bg.png;
#LYRICSPATH:;
#CDTITLE:CDtitle.png;
#MUSIC:Acquire.ogg;
#OFFSET:-0.129000;
#SAMPLESTART:97.677383;
#SAMPLELENGTH:12.387100;
#SELECTABLE:YES;
#BPMS:0.000000=155.000000
,105.000000=77.500000
,122.000000=155.000000
,124.000000=77.500000
,125.000000=155.000000
,127.000000=77.500000
,128.000000=155.000000
,130.000000=77.500000
,131.000000=155.000000
,133.000000=77.500000
,134.000000=155.000000
,136.000000=77.500000
,137.000000=155.000000
,139.000000=77.500000
,140.000000=155.000000
,142.000000=77.500000
,143.000000=155.000000
,179.000000=77.500000
,181.000000=155.000000
;
#STOPS:40.000000=1.161000,
105.000000=2.323000,
181.000000=1.161000
;
#BGCHANGES:0.000=AcquireBGA.mp4=1.000=0=0=1=====,
99999=-nosongbg-=1.000=0=0=0 // don't automatically add -songbackground-
;
#KEYSOUNDS:;
#ATTACKS:;

//---------------dance-single - ----------------
#NOTES:
     dance-single:
     :
     Hard:
     8:
     0.416603,0.685312,0.163308,0.225521,0.221633,375.000000,354.000000,21.000000,29.000000,0.000000,0.000000,0.416603,0.685312,0.163308,0.225521,0.221633,375.000000,354.000000,21.000000,29.000000,0.000000,0.000000:
0000
0000
0000
0000
,
0000
0000
0000
0000
,
0000
0000
0000
0000
,
0000
0000
0000
0000
,
0000
0000
0000
0000
,
0001
0001
1000
1000
,
0010
0010
0100
0100
,
0001
0100
0010
1000
0001
0100
0010
1000
,
0001
1000
0001
1000
0001
1000
0001
1000
0001
1000
0001
1000
0001
1000
0001
1000
,
0002
0203
0020
0000
,
0330
1000
0001
1000
,
0001
0000
0000
0000
1100
0000
0000
0000
0100
0000
0000
0000
1000
0000
0000
0001
,
0100
0010
0100
0000
0010
0000
0100
0000
,
0010
1000
0100
0000
0010
0000
0100
1000
,
0001
0000
0000
0000
1000
0000
0001
0000
0000
0100
0000
0000
0000
0000
0010
0000
,
0000
1000
0000
0000
0000
0000
0100
0000
0000
1000
0000
0000
0000
0000
0100
0000
,
0000
0010
0000
0001
0000
0000
1000
0000
0000
0001
0000
0000
0000
0000
0100
0000
,
0000
0010
0000
0000
0000
0000
1000
0000
0000
0000
0001
0000
0100
0000
0001
0000
,
0020
0000
0000
0000
0130
0000
0000
0100
1000
0000
0001
0000
0000
0000
1000
0000
,
0000
1000
0000
0000
0010
0000
0000
0010
0100
0000
0001
0000
0000
1000
0000
0000
,
0100
0000
0000
0000
1000
0000
0000
1000
0001
0000
0010
0000
0000
0000
0001
0000
,
0000
0100
0000
0000
0010
0000
0000
0010
0100
0000
0001
0000
0000
1000
0000
0000
,
0010
0000
0000
0000
1000
0000
0010
0000
0100
0000
0001
0000
0010
0000
0100
0010
,
0000
0010
0001
0000
0010
0000
0001
0000
0100
0000
0010
0000
1000
0000
0100
1000
,
0000
1000
0010
0000
0100
0000
0001
0000
0010
0000
0001
0000
1000
0000
0010
0000
,
1000
0000
0001
0000
1000
0000
0001
0100
0001
0000
0100
0010
0100
0000
0010
1000
,
0010
1001
0000
0000
,
0000
0000
0000
0000
,
0000
0000
0001
0001
,
0001
0001
0001
0001
,
0001
0000
0001
0000
1001
1000
0010
0000
,
0202
0000
0000
0303
0001
0000
1000
0000
0010
0000
0000
0000
2002
0000
0000
3003
,
0001
0000
1000
0000
0100
0000
0000
0000
0022
0000
0000
0033
0010
0000
0100
0000
,
1000
0000
1020
0130
1000
0001
0010
0000
,
2200
0000
0000
3300
1000
0000
0100
0000
0001
0000
0000
0000
0202
0000
0000
0303
,
0001
0000
0100
0000
0010
0000
0000
0000
2200
0000
0000
3300
0020
0000
0000
0000
,
0000
0000
0030
1001
,
0000
0000
0000
0000
,
0000
0000
0000
0000
,
0000
0000
0000
0000
,
0000
0002
2003
3100
,
0100
0000
0010
0000
0010
0000
0001
1000
,
0001
0000
0001
1000
0001
0000
1000
0010
,
1000
0000
0010
0000
0100
0000
0001
0000
0100
0000
0001
0000
0010
0001
0010
0001
,
0010
0001
0010
0001
0010
0001
0010
0001
0010
0001
0010
0001
2000
0000
0000
0000
,
0000
3000
0101
0011
,
0101
0000
0011
0001
0001
1000
0001
0010
,
0001
1000
0000
0000
1010
0000
1100
0000
,
1010
0000
0000
0000
0110
0000
0100
0000
0100
0010
0000
0100
0001
0010
0000
0010
,
0100
1000
0000
0000
0001
0000
0000
0000
1000
0000
0100
0000
0000
0010
0000
0000
,
0001
0000
0100
0000
0000
0010
0000
0000
1000
0000
0001
0000
0000
0100
0000
0000
,
0010
1000
0001
0010
0000
0001
1000
0100
,
0001
0000
0100
0000
1000
0000
0010
0000
0000
0000
0200
0300
0020
0030
2000
3000
,
0002
2000
3003
0000
0001
0000
1000
0000
,
0010
0000
0000
0000
1000
0000
0000
0100
1000
0000
0000
0000
0010
0000
0000
0000
,
0100
0000
0001
0100
0010
0000
1000
0000
,
0001
0000
0000
0000
0010
0000
0000
0000
0001
0000
0000
1000
0000
0000
0010
0000
,
0100
0000
0000
0001
0000
0000
1000
0000
0000
0000
0010
0000
1000
0000
0000
0000
,
0100
1000
0001
0001
,
0010
0000
0001
0100
0010
0000
1000
0000
,
0100
0000
0000
0000
1000
0000
0001
0000
0100
0000
0000
0010
0100
0000
0000
0001
,
1000
0000
0000
0010
0100
0000
0000
0000
0010
0000
0000
0000
1000
0000
0010
0000
,
0100
0001
0010
0100
0010
0002
0100
0000
,
1003
0001
1000
0000
0001
0100
0001
0010
,
0100
0000
0000
1000
0000
0000
0100
0000
1000
0000
0100
0000
0001
0000
0100
0000
,
0010
0000
1001
0000
0000
0001
0100
0010
,
1000
0000
0010
0000
0100
0000
0001
0000
0010
0000
0000
0010
0000
0000
0010
0000
,
0001
0000
1000
0010
1000
0100
1000
0100
,
1000
0000
0000
0001
0000
0000
0100
0000
0001
0000
0000
0010
0000
0000
0100
0000
,
0010
0001
2002
0000
,
0000
0000
3003
0000
;

//---------------dance-single - ----------------
#NOTES:
     dance-single:
     :
     Medium:
     6:
     0.355501,0.493425,0.419936,0.093319,0.007777,320.000000,266.000000,54.000000,12.000000,0.000000,0.000000,0.355501,0.493425,0.419936,0.093319,0.007777,320.000000,266.000000,54.000000,12.000000,0.000000,0.000000:
0000
0000
0000
0000
,
0000
0000
0000
0000
,
0000
0000
0000
0000
,
0000
0000
0000
0000
,
0000
0000
0000
0000
,
1000
0001
1000
0001
,
0100
0010
0100
0010
,
1000
0010
0100
0001
,
1001
0110
1010
0101
,
0012
0203
0320
0000
,
0030
1000
1000
1000
,
1000
0101
0001
0001
,
0100
0001
0010
0000
0010
0000
0010
0000
,
0010
0001
0100
0000
0010
0000
0100
0010
,
1000
0001
1100
0001
,
1100
0001
1100
0001
,
1100
1000
0101
1000
,
0101
0000
1000
0000
0101
0000
1000
0001
,
1000
0000
0101
0000
0010
1000
0100
0000
,
0010
0000
0011
0000
0001
0010
0100
0000
,
0010
0000
1001
0000
0001
1000
0010
0000
,
0100
0000
0101
0000
0001
1000
0010
0000
,
1001
0000
0001
1000
0010
0000
1000
0010
,
0100
0000
0100
0010
1000
0000
0010
0100
,
0001
0000
1000
0001
1000
0001
1000
0001
,
1000
0001
1000
0010
0100
0001
1000
0010
,
0100
0001
1001
0000
0000
0000
0000
0000
,
0000
0000
0000
0000
,
0000
0000
2000
3000
,
0002
0003
0200
0300
,
0000
0000
1000
0010
,
0101
0001
1000
1100
,
1000
0001
0011
0001
,
1000
0000
1010
0010
0100
0000
0010
0000
,
1010
1000
0100
0011
,
0001
0010
1100
0020
,
0000
0000
0030
1001
,
0000
0000
0000
0000
,
0000
0000
0000
0000
,
0000
0000
0000
0000
,
0000
0002
2003
3010
,
1000
0010
1000
0001
,
0100
0000
0001
0000
0100
0000
0001
1000
,
0001
0000
1000
0001
1000
0000
0001
0100
,
0010
1000
0001
0100
0010
1000
0002
0000
,
0000
0003
1100
1100
,
0110
0110
0011
0011
,
0101
1001
0011
0011
,
1010
1010
1001
1010
,
1001
0011
0001
1010
,
0001
1010
0001
1010
,
0001
1000
0100
1100
,
0100
0000
0110
0000
0000
0100
0010
0001
,
1000
0010
0000
0000
0100
0000
0001
0000
,
0010
0000
0001
0010
0100
0000
0010
0000
,
0001
0000
1000
0001
0100
0000
0001
0000
,
1000
0010
1010
0101
,
1010
0000
0101
0000
0000
0001
1000
0000
,
0001
0000
0010
0001
0010
0000
0100
0000
,
1000
0000
0100
1000
0010
0000
0100
0000
,
0001
0000
1000
0000
0001
0100
0001
1000
,
0001
0010
0011
0010
,
0100
0000
1000
0000
0100
1000
0010
0000
,
0100
0010
1000
0000
0001
0000
1000
0000
,
0010
0000
0100
0000
0000
0001
0001
1000
,
0010
0000
0100
0000
0000
0010
0100
0001
,
1000
0000
0000
0000
0001
0000
0000
0000
1000
0000
0000
1000
0000
0000
1000
0000
,
0001
1000
0010
1000
,
0100
0000
0000
0000
1000
0000
0000
0000
0001
0000
0000
0100
0000
0000
0010
0000
,
1000
0100
2002
0000
,
0000
0000
3003
0000
;

//---------------dance-single - ----------------
#NOTES:
     dance-single:
     :
     Easy:
     4:
     0.242185,0.383775,0.069989,0.139979,0.000000,218.000000,209.000000,9.000000,18.000000,0.000000,0.000000,0.242185,0.383775,0.069989,0.139979,0.000000,218.000000,209.000000,9.000000,18.000000,0.000000,0.000000:
0000
0000
0000
0000
,
0000
0000
0000
0000
,
0000
0000
0000
0000
,
0000
0000
0000
0000
,
0000
0000
0000
0000
,
1000
0000
1000
0000
,
0001
0000
0001
0000
,
1000
0001
1000
0001
,
1000
0010
0100
0001
,
1000
0001
0200
0300
,
0000
0010
1000
0010
,
1000
1010
0010
1000
,
0010
0100
0001
0100
,
0001
0100
0001
0100
,
0001
1000
0001
0010
,
0001
1000
0010
1000
,
0001
1000
0001
0100
,
0001
1000
0100
1000
,
0000
0001
1000
0010
,
1000
0001
0010
0001
,
1000
0100
1000
0001
,
1000
0100
1000
0001
,
0000
1000
0010
0100
,
0001
0100
0010
1000
,
0010
0100
0100
0010
,
0010
1000
0010
0100
,
0001
1001
0000
0000
,
0000
0000
0000
0000
,
0000
0000
1000
0000
,
0001
0000
0100
0000
,
0000
0000
0010
1000
,
0200
0310
0001
0200
,
0310
1000
0002
1003
,
0001
0000
2000
3000
0010
0000
0100
0000
,
0002
0103
0010
2000
,
3010
0100
0002
0020
,
0000
0000
0033
1001
,
0000
0000
0000
0000
,
0000
0000
0000
0000
,
0000
0000
0000
0000
,
0000
0000
0000
1000
,
1000
0001
0001
1000
,
0001
1000
0001
0100
,
0010
1000
0001
0100
,
0010
1000
0001
0200
,
0000
0300
0010
1000
,
0010
1000
0010
0100
,
0100
0000
0001
1000
,
0001
1000
0001
0010
,
0001
1000
0100
1000
,
0010
0100
0001
0010
,
0001
1000
0000
0001
,
0100
0010
0000
0100
,
1001
0000
0001
1000
,
0100
1000
0001
0010
,
0001
1000
0010
0100
,
0010
1000
0001
0001
,
1000
1000
0000
0001
,
1000
0010
1000
0100
,
1000
0010
0100
0001
,
0010
0001
1000
1000
,
0001
0001
0100
0010
,
1000
0001
2000
0000
,
3200
0000
1300
0010
,
0100
0001
0020
0230
,
2300
3100
0000
1000
,
0010
0100
0002
0000
,
1003
0001
1000
0010
,
1000
0001
1001
0110
,
1001
0110
2002
0000
,
0000
0000
3003
0000
;

//---------------dance-single - ----------------
#NOTES:
     dance-single:
     :
     Beginner:
     2:
     0.106650,0.216189,0.054436,0.000000,0.000000,96.000000,89.000000,7.000000,0.000000,0.000000,0.000000,0.106650,0.216189,0.054436,0.000000,0.000000,96.000000,89.000000,7.000000,0.000000,0.000000,0.000000:
0000
0000
0000
0000
,
0000
0000
0000
0000
,
0000
0000
0000
0000
,
0000
0000
0000
0000
,
0000
0000
0000
0000
,
1000
0000
0000
0000
,
1000
0000
0000
0000
,
0001
0000
0001
0000
,
0100
0100
0100
0100
,
0010
0000
0000
0000
,
0000
1000
0000
0000
,
0000
1001
0000
0000
,
0000
0001
0000
0000
,
0000
0100
0000
0010
,
0000
0100
0000
0000
,
0000
0010
0000
0000
,
0000
1000
0000
0000
,
0000
0001
0000
1000
,
0000
0010
0000
0000
,
0000
0110
0000
0000
,
0000
0010
0000
0000
,
0000
1000
0000
0000
,
0000
0001
0000
0001
,
0000
1000
0000
1000
,
0000
0010
0000
0010
,
0000
0100
0100
0100
,
0100
1001
0000
0000
,
0000
0000
0000
0000
,
0000
0000
0000
0000
,
0000
0000
0000
0000
,
0000
0000
0000
0000
,
1000
0000
0000
0001
,
0000
0000
0100
0000
,
0000
0010
1000
0000
,
0001
1000
0000
0010
,
1000
0000
0001
0100
,
0000
0000
0000
1001
,
0000
0000
0000
0000
,
0000
0000
0000
0000
,
0000
0000
0000
0000
,
0000
0000
0000
1000
,
0000
0000
0000
0001
,
0000
0000
0000
0100
,
0000
0100
0000
0010
,
0010
0010
0010
1001
,
0000
0000
1000
0000
,
0000
0000
0000
0001
,
0001
0000
0000
0000
,
0000
0000
0000
0100
,
0100
0100
0000
0000
,
0000
0000
0000
0000
,
0000
0000
0000
0010
,
0010
0010
0000
0100
,
0100
0000
1001
0000
,
0000
0000
0001
0000
,
0000
0000
1000
0000
,
0000
0000
0010
0000
,
0100
0000
0000
0010
,
0000
0000
1000
0000
,
0000
0000
0001
0000
,
0000
0000
1000
0000
,
0001
0000
0100
0000
,
0000
0000
0010
0000
,
0100
0000
0001
0000
,
0000
0000
1000
0000
,
0001
0000
0000
0100
,
0000
0000
0010
0000
,
0000
0000
1000
0000
,
0001
0000
0100
0000
,
0010
0000
1001
0000
;

//---------------dance-single - ----------------
#NOTES:
     dance-single:
     :
     Challenge:
     10:
     0.616573,0.904612,0.311064,0.497702,0.614351,555.000000,515.000000,40.000000,64.000000,0.000000,0.000000,0.616573,0.904612,0.311064,0.497702,0.614351,555.000000,515.000000,40.000000,64.000000,0.000000,0.000000:
// measure 0
0000
0000
0000
0000
,  // measure 1
0000
0000
0000
0000
,  // measure 2
0000
0000
0000
0000
,  // measure 3
0000
0000
0000
0000
,  // measure 4
0000
0000
0000
0000
,  // measure 5
1020
0130
0021
0130
,  // measure 6
0120
0001
0031
0000
1020
0100
0130
0000
,  // measure 7
0001
1000
0010
0001
0010
0100
0001
1000
,  // measure 8
0001
0000
0000
0100
0000
0000
0001
0000
0000
0100
0000
0000
0001
0000
0000
0100
0000
0000
0001
0000
0000
0100
0000
0000
0001
0000
0100
0000
0001
0000
0100
0000
0001
0000
0100
0000
0001
0000
0100
0000
0001
0000
0100
0000
0001
0000
0100
0000
,  // measure 9
0002
0000
0000
0000
2003
0000
0000
0000
0200
0000
0000
0000
0000
0000
0000
3300
,  // measure 10
0000
0000
0000
0000
0001
0000
1000
0010
1000
0000
0010
0100
0010
0000
0100
0001
,  // measure 11
0100
0000
0001
1000
0020
0000
0130
0001
0100
0000
0010
1000
0010
0000
0000
1000
,  // measure 12
0001
0000
0010
0000
0001
0000
1000
0100
1000
0000
0100
0010
0100
0000
0010
0001
,  // measure 13
0010
0000
0001
0000
0001
0000
1000
0010
1000
0000
0010
0100
0010
0000
0100
0000
,  // measure 14
1001
0000
0000
0000
0001
0000
0100
0010
0000
0010
1000
0000
0001
0000
1000
0100
,  // measure 15
0000
0100
0010
0000
0100
0000
0100
1000
0000
1000
0001
0000
0100
0000
0001
0010
,  // measure 16
0000
0010
0000
0100
0010
0000
0001
0100
0000
0001
1000
0000
0100
0000
0010
0001
,  // measure 17
0000
0010
0100
0000
1000
0000
0010
1000
0010
0000
0100
0001
0100
0000
0001
0000
,  // measure 18
1200
0000
0000
0000
0310
0000
0000
0010
0001
0000
1000
0000
0000
0000
0010
0000
,  // measure 19
0000
0010
0000
0000
0110
0000
0000
0100
0010
0000
1000
0000
0000
0001
0000
1000
,  // measure 20
0010
0100
0000
0001
1000
0000
0000
0100
1000
0000
0001
0000
0000
0000
1000
0000
,  // measure 21
0000
0010
0000
0010
0100
0000
0000
0010
1000
0000
0001
0000
0000
1000
0000
0100
,  // measure 22
0010
0000
0000
0000
0100
0000
0010
0000
0001
0000
0100
0000
0010
0000
1000
0010
,  // measure 23
0000
0100
0001
0000
0010
0000
0001
0000
1000
0000
0010
0000
0100
0000
0001
1000
,  // measure 24
0000
1000
0001
0000
1000
0000
0001
0100
0001
0000
0100
0010
0100
0000
0010
1000
,  // measure 25
0010
0000
1000
0000
0100
1000
0010
0100
0001
0010
0001
0100
0010
1000
0100
0010
,  // measure 26
0100
1000
0010
0100
0101
0000
0000
0000
0000
0000
0000
0000
0000
0000
0000
0000
,  // measure 27
0000
0000
0000
0000
0000
0000
0000
0000
0000
0000
1000
0000
0000
1000
0000
0000
0000
0000
0001
0000
0000
0000
0100
0000
0010
0000
1000
0000
0000
0000
0100
0000
,  // measure 28
0010
0001
0000
0000
0000
0000
0000
0000
0000
0010
0002
0000
0000
0003
0000
0000
,  // measure 29
0001
0000
0000
0100
0000
0000
2000
0000
0000
0000
3000
0000
0000
0000
0000
0000
1000
0000
0000
0000
0200
0000
0000
0000
0020
0000
0000
0000
0330
0000
0000
0000
,  // measure 30
0000
0000
0000
0000
1000
0010
0100
0000
,  // measure 31
0021
0000
0000
0000
0130
0000
0010
0000
0001
0100
0001
1000
0200
0000
0000
0000
,  // measure 32
0310
0001
0100
0000
0020
0000
2030
0000
3002
0000
0000
0000
1003
0100
1000
0100
,  // measure 33
0020
0000
0031
0000
0201
0000
1000
0000
0301
1000
0200
0000
2300
0000
3010
0000
,  // measure 34
0220
0000
0000
0330
0100
0001
0100
0001
0100
0010
1000
0010
2000
0000
0000
0000
,  // measure 35
3100
0010
0002
0000
0203
0000
0310
0000
1002
0000
0000
0000
2000
0000
0000
0000
,  // measure 36
0000
0000
0000
0000
0000
0000
0000
0000
0000
0000
0000
3003
0110
0000
0000
0000
,  // measure 37
0000
0000
0000
0000
,  // measure 38
0000
0000
0000
0000
,  // measure 39
0000
0000
0000
0000
,  // measure 40
0000
0000
0000
0000
0002
0000
0000
0000
0203
0000
0000
0000
0310
0000
1000
0010
,  // measure 41
0100
0000
0010
1000
0001
0000
0010
0100
1000
0000
0100
1000
0010
0000
0100
0001
,  // measure 42
0010
0000
0100
0010
0001
0000
0010
0001
0100
0000
0010
1000
0100
0010
0100
0010
,  // measure 43
0100
0010
0100
0010
0100
0010
0100
0010
0100
0010
0100
0010
0001
0100
0010
1000
,  // measure 44
0001
0010
0100
0010
0001
0100
0010
1000
0001
0100
0010
1000
0200
0000
0000
0000
,  // measure 45
0000
0300
1100
0011
,  // measure 46
0101
0000
0110
0010
1000
0002
0203
2300
,  // measure 47
3200
0302
0013
0000
1100
0000
0110
0000
,  // measure 48
0011
0000
0000
0000
0101
0000
0100
0000
0001
0100
0000
0100
0010
1000
0002
0103
,  // measure 49
0010
1000
0000
0001
0010
0000
0000
0000
0011
0000
0001
0100
0000
0010
1000
0000
,  // measure 50
1001
0000
1000
0001
0000
0001
0100
0000
0110
0000
0010
1000
0000
1000
0100
0000
,  // measure 51
0010
0000
0001
0000
0010
0000
0001
0000
0000
0010
0000
0000
0001
0000
0000
0000
0000
0000
0000
0000
0000
0000
0000
0000
1001
0000
0000
0000
0000
0000
0102
0000
0000
0000
0000
0000
0203
0000
0000
0000
0000
0000
2300
0000
0000
0000
0000
0000
,  // measure 52
3200
0320
2030
3002
0003
2000
3200
0302
,  // measure 53
0023
2000
0000
3030
0011
0000
0001
1000
,  // measure 54
0100
0000
1000
0000
0001
0000
0100
0001
1000
0000
0000
0000
0101
0000
0000
0001
,  // measure 55
0100
0000
0001
0000
1000
0000
0100
1000
0100
0000
0001
0000
0100
0000
1000
0000
,  // measure 56
0010
0000
0000
0010
0000
0000
0100
0001
1001
0000
0000
1100
0000
0000
0001
0000
,  // measure 57
1020
0000
0000
0130
0000
0000
0001
0000
0000
0000
1000
0010
1000
0000
0001
0000
,  // measure 58
0010
0000
0001
0000
1000
0000
0001
0100
0010
0000
0000
0000
0100
0000
0000
0010
,  // measure 59
1000
0000
0001
0000
0010
0000
0200
0300
0010
0000
0001
0000
1000
0000
0100
0000
,  // measure 60
1000
0000
0000
0000
0000
0000
0000
0000
0000
1000
0000
0000
0000
0000
0000
0000
0000
0000
0001
0000
0000
0100
0000
0000
0001
0000
0000
0000
0000
0000
1000
0000
0001
0000
1000
0000
0001
0000
0000
0000
0000
0000
0001
0000
1000
0000
0001
0000
,  // measure 61
1000
0000
0000
1000
0001
1000
0001
0000
0000
0000
0000
0000
0110
0000
0000
0000
0000
0000
0100
0000
0000
0001
0000
0000
,  // measure 62
0010
0001
1000
0100
0210
1000
1300
0000
,  // measure 63
0012
0000
0100
0000
0103
0000
0000
0000
0010
0000
1000
0000
0001
0000
0010
0100
,  // measure 64
1000
0000
0000
1100
0000
0000
0010
0001
0200
0300
0200
0000
0020
0030
0020
0300
,  // measure 65
2000
0000
0030
0000
0002
0000
0000
3003
0000
0000
0011
0000
1100
0000
0011
0000
,  // measure 66
0101
0000
0100
0000
0001
0000
1000
0001
0100
0000
0010
0100
0000
0010
0100
0000
,  // measure 67
0001
0000
0000
0000
2000
3000
0200
0300
0010
0000
0001
0000
0100
0000
0010
1000
,  // measure 68
0001
0000
0010
0100
0000
0000
0010
0001
0100
0000
0010
1000
0000
0001
0100
0000
,  // measure 69
0001
0000
0000
1000
0100
0010
0001
0000
0000
0000
0000
0000
0220
0000
0000
0000
0000
0000
0000
0000
0000
0000
0000
0000
,  // measure 70
0000
0000
0330
0000
;
