#VERSION:0.83;
#TITLE:ARCADIA;
#SUBTITLE:;
#ARTIST:Gram;
#TITLETRANSLIT:;
#SUBTITLETRANSLIT:;
#ARTISTTRANSLIT:;
#GENRE:;
#ORIGIN:;
#CREDIT:;
#BANNER:ARCADIA.png;
#BACKGROUND:ARCADIA-bg.png;
#PREVIEWVID:;
#JACKET:ARCADIA-jacket.png;
#CDIMAGE:;
#DISCIMAGE:;
#LYRICSPATH:;
#CDTITLE:CDtitle.png;
#MUSIC:ARCADIA.ogg;
#OFFSET:-0.524000;
#SAMPLESTART:80.525002;
#SAMPLELENGTH:11.636360;
#SELECTABLE:YES;
#BPMS:0.000=165.000;
#STOPS:;
#DELAYS:;
#WARPS:;
#TIMESIGNATURES:0.000=4=4;
#TICKCOUNTS:0.000=4;
#COMBOS:0.000=1;
#SPEEDS:0.000=1.000=0.000=0;
#SCROLLS:0.000=1.000;
#FAKES:;
#LABELS:0.000=Song Start;
#BGCHANGES:;
#KEYSOUNDS:;
#ATTACKS:
;

//---------------dance-single - ----------------
#NOTEDATA:;
#CHARTNAME:;
#STEPSTYPE:dance-single;
#DESCRIPTION:;
#CHARTSTYLE:;
#DIFFICULTY:Hard;
#METER:10;
#RADARVALUES:0.640689,1.060040,0.161824,0.223471,0.809118,582.000000,561.000000,21.000000,29.000000,0.000000,0.000000,0.000000,0.000000,0.000000,0.640689,1.060040,0.161824,0.223471,0.809118,582.000000,561.000000,21.000000,29.000000,0.000000,0.000000,0.000000,0.000000,0.000000;
#CREDIT:;
#NOTES:
0000
0000
0000
0000
,
0000
0000
0000
0000
,
0000
0000
0000
0000
,
0000
0000
0000
0000
,
0000
0000
0000
0000
,
1000
0000
0000
1000
0000
0000
0000
0000
0000
0000
0000
0000
0000
0000
0000
0000
,
0000
0000
0000
0000
0000
0000
0000
0000
0000
0000
0000
0000
0000
0000
0100
0001
,
0100
0001
0100
0000
0000
0000
0000
0000
0000
0000
0000
0000
0000
0000
0000
0000
,
0001
0010
0100
0010
0001
1000
0100
0010
,
0002
0103
0020
0130
,
0002
1003
0200
0310
,
2001
3010
0200
0301
,
0020
0130
2000
3010
,
0100
0001
0100
0001
1000
0010
1000
0010
,
0100
0001
0010
0100
0010
0001
1000
0010
,
0100
0001
0100
0001
1000
0010
1000
0010
0100
0010
0100
0010
1000
0001
1000
0001
,
1000
0000
0000
0100
0000
0000
0010
0000
0000
0001
0000
0000
1000
0000
0001
0000
0100
0000
0010
0000
1000
0000
0010
0000
,
0100
0000
0000
0001
1000
0010
0000
1000
0001
0000
1000
0001
,
0100
0000
0000
0001
1000
0001
0000
0100
0010
0000
0100
0010
,
1000
0000
0000
0001
1000
0100
0000
0010
0001
0000
0010
0001
,
0100
0000
0000
0010
1000
0100
0000
0100
1000
0000
1000
0010
,
0100
0000
0000
0100
0001
1000
0000
0010
0100
0000
0010
0100
,
0001
0000
0000
1000
0001
0010
0000
0100
1000
0000
0100
1000
,
0010
0000
0000
0100
0001
0010
0000
0100
0010
0000
0010
0100
,
1000
0001
0010
0001
1000
0010
1000
0001
0100
0001
1000
0100
,
0010
0000
0100
1000
0010
0100
0001
0000
0100
0001
1000
0100
,
0010
0000
0100
1000
0001
0100
0001
0000
0100
0001
0010
0100
,
1000
0000
0100
1000
0001
0100
0010
0000
0100
0001
1000
0100
,
0010
0000
0100
1000
0001
0100
0001
0000
0100
0001
0100
0010
,
1000
0000
0001
1000
0001
1000
0100
0000
1000
0001
1000
0001
,
0010
0000
0001
1000
0001
1000
0100
0000
1000
0001
1000
0001
,
0010
0100
0010
0100
1000
0100
1000
0001
1000
0010
0100
0010
,
0100
0001
0100
0010
1000
0100
1000
0001
0100
0010
1000
0100
,
0020
0000
0000
0000
,
0000
0000
0000
0030
,
1001
0000
0000
0001
,
0011
0000
0000
0000
,
1100
0000
0000
0000
0000
0000
0100
1000
,
1010
0000
0000
0100
,
1001
0000
0000
0001
,
1100
0000
0000
0000
0000
0000
0100
1000
,
1010
0000
0000
0000
,
0110
0000
1010
0000
,
0011
0000
0001
0000
1000
0000
0001
0100
,
0110
0000
0000
0000
0010
0000
0000
0000
1000
0000
0000
0000
0100
0000
1000
0100
,
1000
0000
0010
0000
0100
0000
0001
0010
,
0100
0000
0010
0000
0000
0000
0001
0100
0001
0000
0100
0010
1000
0000
1000
0100
,
1000
0001
1000
0000
0010
0000
1000
0100
,
1100
0000
1000
0000
0100
0000
0000
0000
0010
0000
0000
0000
0010
0000
0001
1000
,
0001
0100
0001
0000
1000
0000
0100
0010
,
0011
0001
0101
0100
,
1001
0000
0000
0000
,
0010
0000
0000
0000
,
2000
0000
0000
0000
,
0000
0000
0000
0000
0000
0000
0000
0000
3001
0100
0001
0100
0010
1000
0010
1000
,
0001
0000
1000
0100
1000
0000
0001
0100
0001
0000
0000
0010
0000
0000
0001
1000
,
0001
0000
0000
0100
0000
0000
0010
1000
0010
0000
0000
0000
0100
0000
0001
0000
,
0010
0000
0000
0001
0000
0000
1000
0000
0010
0000
0000
0100
0000
0000
0001
1000
,
0001
0000
0000
0010
0000
0000
0001
0000
1000
0000
0000
0001
0100
0000
0000
0010
,
1000
0000
0001
0100
0001
0000
0100
0010
0100
0000
0000
0001
0000
0000
1000
0100
,
1000
0000
0000
0001
0000
0000
0100
0010
0100
0000
0000
0000
0001
0000
0010
0000
,
0100
0000
0000
0100
0000
0000
1000
0001
1000
0000
0000
1000
0000
0000
0010
0100
,
0010
0000
0000
1000
0010
0000
0000
0100
0001
0000
0000
0001
0010
0000
0000
0100
,
2000
0000
0000
0000
0000
0000
3001
1000
0020
0000
0000
0000
0000
0000
1030
0001
,
0200
0000
0000
0302
0000
0000
0013
0000
0200
0000
0000
0000
0000
0000
0310
0001
,
2000
0000
0000
0000
0000
0000
3001
0000
0200
0000
0000
0000
0000
0000
0310
1000
,
0002
0000
0000
1003
0200
0000
2300
0000
,
3020
0000
0000
0000
0000
0000
0130
0001
0020
0000
0000
0000
0000
0000
0130
0010
,
0002
0000
0000
2003
0000
0000
3010
0000
0200
0000
0000
0000
0000
0000
0310
1000
,
0100
0000
0010
0000
0001
0000
0100
0000
0010
1000
0010
1000
0010
1000
0010
1000
,
0010
1000
0001
0010
0200
0000
0320
0000
,
0031
0000
1000
0000
0000
0000
0001
0100
0001
0000
0000
0000
0100
0010
0100
0000
,
0010
1000
0010
0000
0000
0000
1000
0100
1000
0000
0000
0000
0100
0010
0100
0000
,
0010
0001
0010
0000
0000
0000
0001
0100
0001
0000
0000
0000
0100
0010
0100
0000
,
0010
1000
0010
0000
0000
0000
1000
0001
1000
0000
0000
0000
0001
0100
0001
0000
,
0010
0001
0010
0000
0000
0000
0001
0100
0001
0000
0000
0000
0100
0010
0100
0000
,
0010
1000
0010
0000
0000
0000
1000
0100
1000
0000
0000
0000
0100
0010
0100
0000
,
0010
0001
0010
0000
0000
0000
0001
0100
0001
0000
0000
0000
0100
0010
0100
0000
,
0010
1000
0010
0000
0000
0000
0000
0000
0100
0001
0100
0000
0010
1000
0010
0000
,
1001
0001
0010
0110
,
1100
0000
0100
0000
1000
0000
0010
0100
,
0110
0000
0010
0000
0100
0000
0001
0100
,
0010
1000
0100
1001
,
1000
0010
1000
0000
1000
0001
1000
0000
1000
0100
1000
0000
1000
0001
1000
0000
,
0001
0100
0001
0000
0001
1000
0001
0000
0001
0010
0001
0000
0001
1000
0001
0000
,
0001
0100
0001
0100
0010
1000
0010
1000
0100
1000
0100
1000
0100
0010
0100
0010
,
0001
0010
0001
1000
0100
0000
0010
0001
0100
0010
1000
0001
0010
0000
0010
0200
,
2000
0000
0000
0000
,
0000
0000
0000
3300
;

//---------------dance-single - ----------------
#NOTEDATA:;
#CHARTNAME:;
#STEPSTYPE:dance-single;
#DESCRIPTION:;
#CHARTSTYLE:;
#DIFFICULTY:Medium;
#METER:7;
#RADARVALUES:0.417218,0.615507,0.331353,0.169529,0.192647,379.000000,336.000000,43.000000,22.000000,0.000000,0.000000,0.000000,0.000000,0.000000,0.417218,0.615507,0.331353,0.169529,0.192647,379.000000,336.000000,43.000000,22.000000,0.000000,0.000000,0.000000,0.000000,0.000000;
#CREDIT:;
#NOTES:
0000
0000
0000
0000
,
0000
0000
0000
0000
,
0000
0000
0000
0000
,
0000
0000
0000
0000
,
0000
0000
0000
0000
,
1001
0000
0000
0000
,
0000
0000
0000
0000
0000
0000
0000
0001
,
0100
0100
0000
0000
0000
0000
0000
0000
,
0020
0000
0000
0000
,
1030
0001
0010
0001
,
1000
0100
1000
0010
,
0100
0001
0010
0001
,
1000
0100
1000
0010
,
0100
0010
0100
0000
0010
1000
0010
0000
,
1000
0100
1000
0000
0100
0010
0100
0000
,
0010
0001
0010
0001
0010
0100
1000
0100
,
0010
0000
0000
0001
0000
0000
1000
0001
1000
0001
1000
0001
,
1000
0000
0000
0001
0000
0000
0100
0000
0000
0010
0000
1000
,
0100
0000
0000
0010
0000
0000
0001
0000
0000
0100
0000
0010
,
1000
0000
0000
0010
0000
0000
0100
0000
0000
0001
0000
1000
,
0001
0000
0000
0010
0000
0000
0001
0000
0000
0100
0000
0010
,
1000
0000
0000
0100
0000
0000
1000
0000
0000
0010
0000
0100
,
0001
0000
0000
0010
0000
0000
0100
0000
0000
1000
0000
0100
,
1000
0000
0000
0010
0000
0000
0100
0000
0000
0001
0000
1000
,
0001
0000
0001
0100
0000
0100
0010
0000
0010
1000
0000
1000
,
0001
0000
0000
1000
0000
0010
0100
0000
0000
0010
0000
0100
,
0001
0000
0000
0001
0000
0001
0010
0000
0000
0010
0000
0010
,
0100
0000
0000
0100
0000
0100
1000
0000
0000
1000
0000
1000
,
0001
0000
0000
0001
0000
0001
0100
0000
0000
0100
0000
0100
,
0010
0000
1000
0000
,
0100
0000
0010
0000
,
0001
0000
0001
0010
0000
0010
0100
0000
0100
1000
0000
1000
,
0001
0000
0001
1000
0000
1000
0010
0000
0010
0100
0000
0100
,
0002
0000
0000
0000
,
0000
0000
0000
0003
,
1010
0000
0000
0100
,
1000
0000
0000
0000
,
0010
0000
0000
0000
0000
0000
0100
0010
,
1000
0000
0000
0001
,
0001
0000
0000
0010
,
0001
0000
0000
0000
0000
0000
0100
0001
,
0010
0000
0000
0000
,
0100
0000
1000
0000
,
1001
0001
1000
1010
,
0101
0001
0010
0100
,
1100
0000
0100
0000
1000
0000
0010
0100
,
0001
0010
0100
0011
,
1100
0100
1000
1010
,
0011
0000
0010
0000
0001
0000
0001
0100
,
0010
1000
0010
0100
,
0101
0001
0011
0010
,
0110
0000
0000
0000
,
1000
0000
0000
0000
,
2002
0000
0000
0000
,
0000
0000
3003
0000
,
0001
0000
0000
1000
0000
0000
0010
0000
1000
0000
0000
0001
0000
0000
0010
0000
,
0001
0000
0000
0100
0000
0000
0010
0000
1000
0000
0000
0000
0100
0000
0010
0000
,
0001
0000
0000
0010
0000
0000
0001
0000
0100
0000
0000
0010
0000
0000
1000
0000
,
0001
0000
0000
0010
0000
0000
0001
0000
1000
0000
0000
0001
0010
0000
0000
0010
,
0100
0000
0000
0010
0000
0000
0001
0000
0100
0000
0000
0010
0000
0000
0100
0000
,
0001
0000
0000
1000
0000
0000
0100
0000
1000
0000
0000
0000
0001
0000
1000
0000
,
0100
0000
0000
1000
0000
0000
0010
0000
0100
0000
0000
0001
0000
0000
0010
0000
,
0001
0000
0000
1000
0001
0000
0000
0100
0010
0000
0000
1000
0001
0000
0000
0100
,
0020
0000
0000
1030
0002
0000
0000
0013
,
0100
0000
0000
0010
0000
0000
0001
0000
2000
0000
0000
0000
0000
0000
3001
0000
,
0200
0000
0000
0310
2000
0000
0000
3001
,
0020
0000
0000
0031
2000
0000
3002
0000
,
0203
0000
0000
0310
2000
0000
0000
3100
,
0010
0000
0000
0001
0000
0000
1000
0000
0020
0000
0000
0000
0000
0000
0130
0000
,
0002
0000
0000
1003
0200
0000
0000
0310
,
0200
0000
0000
0310
0002
0000
0023
0000
,
0130
1000
0000
1000
0100
0000
1100
0000
,
0100
0010
0000
0010
0100
0000
0110
0000
,
0010
0000
0000
0001
0010
0000
0011
0000
,
0001
0100
0000
0100
0001
0000
0101
0000
,
0001
1000
0000
1000
0001
0000
1001
0000
,
0001
0100
0000
0100
0001
0000
0101
0000
,
0010
1000
0000
1000
0010
0000
1010
0000
,
0101
0000
0011
0000
,
1100
0000
0000
0100
,
0110
0000
0000
0000
,
1100
0000
0000
0000
0000
0000
0100
0010
,
0001
0000
0000
0001
,
0011
1100
0011
1100
,
0101
1010
0101
1010
,
1001
0110
1010
0101
,
0011
1010
1100
0101
,
2002
0000
0000
0000
,
0000
0000
0000
3003
;

//---------------dance-single - ----------------
#NOTEDATA:;
#CHARTNAME:;
#STEPSTYPE:dance-single;
#DESCRIPTION:;
#CHARTSTYLE:;
#DIFFICULTY:Easy;
#METER:5;
#RADARVALUES:0.315941,0.547118,0.362176,0.200353,0.000000,287.000000,240.000000,47.000000,26.000000,0.000000,0.000000,0.000000,0.000000,0.000000,0.315941,0.547118,0.362176,0.200353,0.000000,287.000000,240.000000,47.000000,26.000000,0.000000,0.000000,0.000000,0.000000,0.000000;
#CREDIT:;
#NOTES:
0000
0000
0000
0000
,
0000
0000
0000
0000
,
0000
0000
0000
0000
,
0000
0000
0000
0000
,
0000
0000
0000
0000
,
0110
0000
0000
0000
,
0000
0000
0000
0000
,
1001
0000
0000
0000
,
0020
0000
0000
0000
,
1030
0000
0001
0000
,
0010
0000
0001
0000
,
1100
0000
0100
0000
,
1000
0000
0010
0000
,
0100
0010
1000
0001
,
0010
0001
1000
0100
,
1000
0100
0010
0001
,
1000
0100
0001
0100
,
1100
0100
0100
0100
,
0110
0010
0010
0010
,
0011
0001
0001
0001
,
1001
1000
1000
1000
,
0101
0001
0001
0001
,
0101
0100
0100
0100
,
0110
0010
0010
0010
,
1010
0101
1010
0101
,
1001
0001
0011
0010
,
0110
0100
1100
1000
,
1001
0001
0101
0100
,
0110
0010
1010
1000
,
0002
0003
2000
3000
,
0020
0030
0200
0300
,
0010
0100
0001
1000
,
0001
0010
1000
0010
,
0002
0000
0000
0000
,
0000
0000
0000
0003
,
1010
0000
0000
1000
,
0001
0000
0000
0000
,
0010
0000
0000
0000
0000
0000
0100
0010
,
0001
0000
0000
0010
,
0001
0000
0000
1000
,
0010
0000
0000
0000
0000
0000
0100
0001
,
0100
0000
0000
0000
,
0010
0000
1000
0000
,
1001
0000
0000
0001
,
0011
0000
0000
0000
,
1100
0000
0000
0000
0000
0000
0100
1000
,
0010
0000
0000
0100
,
1001
0000
0000
0001
,
1100
0000
0000
0000
0000
0000
1000
0001
,
0100
0000
0000
0000
,
0010
0000
0100
0000
,
1001
0000
0000
0000
,
0010
0000
0000
0000
,
2002
0000
0000
0000
,
0000
0000
3003
0000
,
1001
0001
0010
0001
,
1000
0000
1000
0000
0001
0000
1000
0010
,
1000
0010
0100
0001
,
0010
0100
1100
0110
,
0011
0010
0001
0100
,
0010
0000
1000
0000
1000
0000
0001
0100
,
0001
0100
0010
1000
,
1010
0101
1010
0101
,
0002
0000
0000
1003
0200
0000
0000
1300
,
0001
0000
0100
0000
0020
0000
0000
0130
,
0002
0000
0000
0103
0020
0000
0000
0130
,
0002
0000
0000
0103
0020
0000
0230
0000
,
0302
0000
0000
1003
0200
0000
0300
1000
,
0001
0000
1000
0000
0020
0000
0000
1030
,
0002
0000
0000
1003
0020
0000
0000
1030
,
0200
0000
0300
0010
0002
0000
0023
0000
,
0130
0000
0000
1000
0000
0000
0100
0000
,
1000
0000
0000
0001
0000
0000
0100
0000
,
0001
0000
0000
0010
0000
0000
0001
0000
,
1000
0000
0000
0010
0000
0000
0100
0000
,
0001
0000
0000
0100
0000
0000
0010
0000
,
1000
0000
0000
0100
0000
0000
0010
0000
,
0100
0000
0000
1000
0000
0000
0001
0000
,
1000
0001
1000
0000
0010
0100
0010
0000
,
0101
0000
0000
0010
,
1001
0000
0000
0000
,
0011
0000
0000
0000
0000
0000
0001
1000
,
0100
0000
0000
0010
,
0110
0100
1000
1010
,
0101
0000
1000
0000
0001
0000
1000
0001
,
0010
0001
0100
0010
,
1010
0000
0101
0000
,
2002
0000
0000
0000
,
0000
0000
0000
3003
;

//---------------dance-single - ----------------
#NOTEDATA:;
#CHARTNAME:;
#STEPSTYPE:dance-single;
#DESCRIPTION:;
#CHARTSTYLE:;
#DIFFICULTY:Beginner;
#METER:2;
#RADARVALUES:0.146412,0.234644,0.069353,0.000000,0.000000,133.000000,124.000000,9.000000,0.000000,0.000000,0.000000,0.000000,0.000000,0.000000,0.146412,0.234644,0.069353,0.000000,0.000000,133.000000,124.000000,9.000000,0.000000,0.000000,0.000000,0.000000,0.000000,0.000000;
#CREDIT:;
#NOTES:
0000
0000
0000
0000
,
0000
0000
0000
0000
,
0000
0000
0000
0000
,
0000
0000
0000
0000
,
0000
0000
0000
0000
,
0010
0000
0000
0000
,
0000
0000
0000
0000
,
0010
0000
0000
0000
,
0000
0000
0000
0000
,
1001
0000
0000
0000
,
1000
0000
0000
0000
,
0010
0000
0000
0000
,
1000
0000
0000
0000
,
0001
0000
0001
0000
,
1000
0000
1000
0000
,
0010
0000
0100
0000
,
0001
1000
0010
0000
,
0110
0000
0000
0000
,
0001
0000
0000
0000
,
1000
0000
0000
0000
,
0010
0000
0000
0000
,
0100
0000
0000
0000
,
0001
0000
0000
0000
,
1000
0000
0000
0000
,
0010
0000
1000
0000
,
0001
0000
0000
0000
,
1000
0000
0000
0000
,
0010
0000
0000
0000
,
1000
0000
0001
0000
,
0100
0000
0000
0000
,
0010
0000
0000
0000
,
1000
0000
0001
0000
,
0100
0010
1000
0000
,
1001
0000
0000
0000
,
0000
0000
0000
0000
,
0110
0000
0000
0000
,
0100
0000
0000
0000
,
0010
0000
0000
0000
,
1000
0000
0000
0001
,
0001
0000
0000
1000
,
1000
0000
0000
0010
,
0010
0000
0000
0000
,
0100
0000
0010
0000
,
1001
0000
0000
1000
,
1000
0000
0000
0000
,
0010
0000
0000
0100
,
0100
0000
0000
0001
,
0001
0000
0000
0010
,
0010
0000
0000
0001
,
1000
0000
0000
0000
,
0010
0000
0100
0000
,
0001
0000
0000
0000
,
0010
0000
0000
0000
,
1001
0000
0000
0000
,
0000
0000
0000
0000
,
0001
0000
1000
0000
,
0010
0000
0000
0000
,
1000
0000
0001
0000
,
0100
0000
0010
0010
,
0010
0000
1000
0000
,
0100
0000
0000
0000
,
0010
0000
0001
0000
,
0100
0000
0000
0000
,
0010
0000
1000
0000
,
0001
0001
0001
0000
,
1000
0000
0001
0000
,
0100
0000
0010
0010
,
0100
0000
0010
0000
,
1000
1000
1000
0000
,
0001
0000
1000
0000
,
0010
0000
0100
0100
,
0110
0000
0000
0000
,
0010
0000
0000
0000
,
1000
0000
0000
0000
,
0001
0000
0000
0000
,
0010
0000
0000
0000
,
0001
0000
0000
0000
,
1000
0000
0000
0000
,
0100
0000
1000
0000
,
0010
0000
0000
0100
,
0100
0000
0000
0000
,
1001
0000
0000
0001
,
0100
0000
0000
0010
,
0010
0000
0000
1000
,
0001
0000
0000
0001
,
0100
0000
0000
0000
,
0010
0000
0100
0000
,
1001
0000
0000
0000
;

//---------------dance-single - ----------------
#NOTEDATA:;
#CHARTNAME:;
#STEPSTYPE:dance-single;
#DESCRIPTION:;
#CHARTSTYLE:;
#DIFFICULTY:Challenge;
#METER:11;
#RADARVALUES:0.730958,1.196820,0.184941,0.208059,0.967088,664.000000,640.000000,24.000000,27.000000,0.000000,0.000000,0.000000,0.000000,0.000000,0.730958,1.196820,0.184941,0.208059,0.967088,664.000000,640.000000,24.000000,27.000000,0.000000,0.000000,0.000000,0.000000,0.000000;
#CREDIT:;
#NOTES:
// measure 0
0000
0000
0000
0000
,  // measure 1
0000
0000
0000
0000
,  // measure 2
0000
0000
0000
0000
,  // measure 3
0000
0000
0000
0000
,  // measure 4
0000
0000
0000
0000
,  // measure 5
1010
0000
0000
0101
0000
0000
0000
0000
0000
0000
0000
0000
0000
0000
0000
0000
,  // measure 6
0000
0000
0000
0000
0000
0000
0000
0000
0000
0000
0000
0000
0000
0000
0001
0010
,  // measure 7
0001
1000
0010
0000
0000
0000
0000
0000
0000
0000
0000
0000
0000
0000
0000
0000
,  // measure 8
0100
0010
1000
0100
0010
0001
0100
0001
,  // measure 9
2000
0100
0010
0100
,  // measure 10
0010
0100
0010
3100
,  // measure 11
1002
0100
0010
0100
,  // measure 12
0010
0100
0010
0103
,  // measure 13
0001
0100
0010
1000
0001
0100
0001
0010
0001
0010
0100
1000
0010
0100
0001
1000
,  // measure 14
0100
0010
0001
0100
0010
1000
0001
0010
0001
0100
0010
1000
0010
0100
0001
0010
,  // measure 15
0001
1000
0010
1000
0010
0100
0001
0100
0001
0010
0001
0010
0001
0010
0100
0010
,  // measure 16
0200
0000
0000
0300
0000
0000
0000
0000
0000
0000
0000
0000
0020
0000
0000
0030
0000
0000
0000
0000
0000
0000
0000
0000
0002
0000
0000
0003
2000
0000
0000
0000
3100
0000
0000
0000
1000
0000
0000
0000
0001
0000
0000
0000
0100
0000
0000
0000
,  // measure 17
0010
0000
0000
1000
0010
0100
0001
0010
0100
0010
0001
1000
,  // measure 18
0010
0000
0000
0100
0010
1000
0001
0010
0100
0010
0001
0100
,  // measure 19
0010
0000
0000
1000
0010
0100
0010
1000
0001
0010
0100
0010
,  // measure 20
0001
0000
0000
1000
0001
0010
0001
1000
0010
0100
0001
0010
,  // measure 21
0110
0000
0000
0010
0001
0100
0010
1000
0010
0100
0001
0010
,  // measure 22
0001
0000
0000
1000
0001
0100
0001
1000
0010
0100
0001
0010
,  // measure 23
0100
0000
0000
0010
0001
1000
0100
1000
0010
0100
0001
0010
,  // measure 24
0100
0000
0100
0010
0000
0010
0001
0000
0001
1000
0000
1000
,  // measure 25
0010
0000
1000
0010
0100
0001
0010
0000
0100
0010
0001
0100
,  // measure 26
0010
0000
1000
0010
0100
0001
0010
0000
0100
0010
0001
1000
,  // measure 27
0010
0000
0100
0010
1000
0100
0010
0000
0100
0010
0001
0100
,  // measure 28
0010
0000
0100
0010
1000
0001
0010
0000
0100
0010
0001
1000
,  // measure 29
1200
0000
0000
0300
,  // measure 30
0021
0000
0000
0030
,  // measure 31
0001
0001
0100
0010
1000
0010
0100
0100
0010
1000
0001
0010
,  // measure 32
0100
0000
0000
0000
0000
0000
0010
0000
0000
0001
0000
0000
0100
0000
0000
0000
0000
0000
0010
0000
0000
1000
0000
0000
0001
0000
0000
0000
1000
0000
0000
0000
0100
0000
0000
0000
1000
0000
0000
0000
0001
0000
0000
0000
0100
0000
0000
0000
,  // measure 33
0020
0000
0000
0000
,  // measure 34
0000
0000
0000
0030
,  // measure 35
1001
0000
0000
0001
,  // measure 36
1100
0000
0000
0000
,  // measure 37
0011
0000
0000
0000
0000
0000
1000
0010
,  // measure 38
0110
0000
0000
0010
,  // measure 39
0101
0000
0000
0001
,  // measure 40
1010
0000
0000
0000
0000
0000
1000
0100
,  // measure 41
0011
0000
0000
0000
,  // measure 42
1100
0000
0101
0000
,  // measure 43
1100
0000
1000
0000
0001
0000
1000
0010
,  // measure 44
0110
0000
0000
0000
0100
0000
0000
0000
0001
0000
0000
0000
0010
0000
0001
0010
,  // measure 45
0001
0000
0100
0000
0010
0000
1000
0100
,  // measure 46
0010
0000
0100
0000
0000
0000
1000
0010
1000
0000
0010
0100
0001
0000
0001
0010
,  // measure 47
0001
1000
0001
0000
0100
0000
0001
0010
,  // measure 48
0011
0000
0001
0000
0010
0000
0000
0000
0100
0000
0000
0000
0100
0000
1000
0001
,  // measure 49
1000
0010
1000
0000
0001
0000
0010
0100
,  // measure 50
1100
1000
1010
0010
,  // measure 51
1001
0000
0000
0000
,  // measure 52
1000
0000
0000
0000
,  // measure 53
0020
0000
0000
0000
,  // measure 54
0000
0000
0000
0000
0000
0000
0000
0000
1030
0010
1000
0010
0100
0001
0100
0001
,  // measure 55
1000
0000
0001
1000
0010
0000
1000
0001
0100
0000
0010
1000
0000
1000
0100
0000
,  // measure 56
0010
0000
0001
0100
0000
0010
1000
0000
0001
0000
0000
1000
0100
0010
0001
1000
,  // measure 57
0010
0000
0100
0001
0000
0000
0010
0001
1000
0000
0100
1000
0000
0100
0010
0001
,  // measure 58
1000
0000
0001
0100
0000
0100
0010
1000
0001
0000
1000
0001
0100
0000
0001
1000
,  // measure 59
0100
0000
0010
0001
0100
0010
1000
0001
0010
0000
0001
0010
0000
0100
1000
0000
,  // measure 60
0001
0000
0100
0010
0000
1000
0001
0000
0100
0000
0000
0010
0100
0001
1000
0100
,  // measure 61
0010
0000
0100
1000
0000
0100
0010
0000
0001
0000
1000
0001
0000
0100
0010
1000
,  // measure 62
0001
0000
1000
0000
0001
0000
1000
0000
0000
0001
0000
0000
1000
0000
0001
0000
1000
0000
0001
0000
0000
1000
0000
0000
0100
0000
0000
0010
0000
0000
0100
0000
0000
0010
0000
0000
0100
0000
0000
0010
0000
0000
0100
0000
0000
0010
0000
0000
,  // measure 63
0002
0000
0000
0000
0010
0000
0013
0001
0200
0000
0000
0000
0010
0000
0310
1000
,  // measure 64
0200
0000
1300
0010
0000
0100
0001
0000
2000
0000
0000
0000
0100
0000
3100
0010
,  // measure 65
0002
0000
0000
0000
0100
0000
0103
0010
2000
0000
0000
0000
0001
0000
3001
0010
,  // measure 66
0200
0000
0000
0000
0010
0000
0310
0001
0200
0000
0000
0310
2000
0000
0000
3010
,  // measure 67
2000
0000
0000
0000
0100
0000
3100
1000
0020
0000
0000
0000
0100
0000
0130
0001
,  // measure 68
0020
0000
0031
0100
0000
0010
1000
0000
0002
0000
0000
0000
0010
0000
0013
0100
,  // measure 69
2000
0000
0000
0000
0010
0000
3010
0100
0001
1000
0001
1000
0001
1000
0001
1000
,  // measure 70
0001
0100
0010
1000
0001
0010
0100
0010
0002
0000
0000
0000
2003
0000
0000
0000
,  // measure 71
3100
0010
0001
0000
0100
0000
0010
1000
0001
0000
0010
0000
0100
0010
0001
0000
,  // measure 72
1000
0010
0100
0000
0001
0000
1000
0010
0100
0000
0001
0000
0010
0100
1000
0000
,  // measure 73
0100
0010
0001
0000
1000
0000
0001
0100
0010
0000
0100
0000
0010
1000
0100
0000
,  // measure 74
0010
0100
1000
0000
0100
0000
0010
0001
0100
0000
0010
0000
0100
0001
1000
0000
,  // measure 75
0001
1000
0100
0000
0010
0000
0001
0100
0010
0000
0100
0000
0010
1000
0100
0000
,  // measure 76
0010
0100
1000
0000
0100
0000
0010
0001
0100
0000
0010
0000
0100
0001
1000
0000
,  // measure 77
0100
0010
0001
0000
0100
0000
0010
1000
0001
0000
0010
0000
0100
0010
0001
0000
,  // measure 78
1000
0001
0100
0001
0010
0000
0100
0010
0001
1000
0010
1000
0001
0000
0000
0000
,  // measure 79
1100
0000
0000
0010
,  // measure 80
1001
0000
0000
0000
,  // measure 81
0101
0000
0000
0000
0000
0000
0001
0100
,  // measure 82
1000
0000
0000
0100
,  // measure 83
0010
0000
0100
0000
0010
0000
1000
0000
0000
0001
0000
0000
0100
0000
0000
0001
0000
0000
0010
0000
0000
0100
0000
0000
0010
0000
0000
0001
0000
0000
1000
0000
0000
0010
0000
0000
0100
0000
0000
0001
0000
0000
0010
0000
0000
0100
0000
0000
,  // measure 84
1000
0000
0001
0000
1000
0000
0001
0000
0000
0100
0000
0000
0001
0000
0000
0010
0000
0000
0100
0000
0000
0010
0000
0000
0001
0000
0000
0100
0000
0000
0010
0000
0000
1000
0000
0000
0001
0000
0000
0010
0000
0000
0100
0000
0000
1000
0000
0000
,  // measure 85
0001
0000
1000
0000
0001
0000
1000
0000
0000
0010
0000
0000
0100
0000
0000
0001
0000
0000
0010
0000
0000
0100
0000
0000
0010
0000
0000
0001
0000
0000
0100
0000
0000
0010
0000
0000
1000
0000
0000
0001
0000
0000
0010
0000
0000
0100
0000
0000
,  // measure 86
1000
0100
0010
0001
0010
0000
0100
0010
0001
1000
0100
0010
0001
0000
1000
0100
,  // measure 87
0020
0000
0000
0000
,  // measure 88
0000
0000
0000
0030
;
