#TITLE:82.99 AM;
#SUBTITLE:;
#ARTIST:マクロスMACROSS 82-99;
#TITLETRANSLIT:;
#SUBTITLETRANSLIT:;
#ARTISTTRANSLIT:;
#GENRE:;
#CREDIT:;
#BANNER:82.99 AM.png;
#BACKGROUND:82.99 AM.-bg.png;
#LYRICSPATH:;
#CDTITLE:;
#MUSIC:82.99 AM.mp3;
#OFFSET:-0.123000;
#SAMPLESTART:16.700356;
#SAMPLELENGTH:15.609755;
#SELECTABLE:YES;
#BPMS:0.000000=123.000000
;
#STOPS:32.000000=0.488000,
157.000000=0.244000,
157.500000=0.244000,
158.000000=0.244000,
158.500000=0.244000
;
#BGCHANGES:;
#KEYSOUNDS:;
#ATTACKS:;

//---------------dance-single - ----------------
#NOTES:
     dance-single:
     :
     Hard:
     7:
     0.332378,0.402146,0.229388,0.221195,0.135175,284.000000,256.000000,28.000000,27.000000,0.000000,0.000000,0.332378,0.402146,0.229388,0.221195,0.135175,284.000000,256.000000,28.000000,27.000000,0.000000,0.000000:
0000
0000
0000
0000
,
0000
0000
0000
0000
,
0000
0000
0000
0000
,
0000
0000
0000
0000
,
0000
0000
2000
3000
,
0002
0003
0200
0300
,
0002
0003
2000
0000
,
0000
0000
0000
0000
0000
0000
0000
0000
3100
0000
0000
0100
0000
0000
0010
0000
,
0100
1001
0101
0011
,
0001
0000
0000
0000
0000
0000
0100
0000
0000
0000
0000
0000
0010
0000
0000
1000
0000
0000
0001
0000
0100
0000
0000
0001
,
0000
0000
0010
0000
0000
0002
0000
0000
0000
0000
0000
0000
0000
0000
0000
0000
0000
0000
0000
0003
0000
0100
0000
0000
,
0010
0000
0000
1000
0000
0001
0000
0000
0000
0000
0000
0000
0000
0000
0000
0000
0000
0000
0000
0000
0000
0000
0000
0000
,
0000
0110
1010
1001
,
1000
0000
0000
0000
0000
0000
0001
0000
0000
0000
0000
0000
0100
0000
0000
0010
0000
0000
1000
0000
0100
0000
0000
0001
,
0000
0000
0100
0000
0000
2000
0000
0000
0000
0000
0000
0000
0000
0000
0000
0000
0000
0000
3000
0000
0000
0001
0000
0000
,
1000
0000
0000
0000
0000
0000
0010
0000
0000
0000
0100
0000
0000
0000
0000
0000
0000
0000
0000
0000
0000
0000
0000
0000
0000
0000
0000
0000
0000
0000
0000
0000
0000
0000
0000
0000
0001
0000
0000
1000
0000
0000
0000
0000
0000
1000
0000
0000
,
0002
0003
0002
0003
0010
0000
0000
0000
0100
0000
0000
0000
0010
0000
0100
0000
,
1000
0002
0000
0000
0000
0000
0000
0000
,
1003
0020
1030
0000
1001
0000
0001
0010
,
0001
0020
0100
0000
0100
0000
0100
0000
,
0130
0000
1000
0000
0010
0000
0100
0001
,
0100
0002
0010
0000
0010
0000
0010
0000
,
0013
0000
0001
0000
0100
0000
0001
1000
,
0001
2000
0100
0000
0100
0000
0100
0000
,
3100
0011
0101
1001
,
1010
1001
1000
0001
,
0010
0000
0100
1000
0000
1000
0001
0000
0100
0000
0000
0000
0001
0000
0000
0000
,
0010
0000
0100
1000
0010
0000
0100
0001
,
0010
0101
1100
1001
,
1010
1001
0001
1000
,
0100
0000
0010
0001
0000
0001
0100
0000
0010
0000
0000
0000
1000
0000
0000
0000
,
0001
0000
0000
0000
0010
0000
0100
1000
0000
0010
0000
2000
0000
0000
0000
3001
,
0010
0000
0100
0000
1000
0000
0001
0001
,
0101
0000
0001
0000
0100
0000
0010
0010
,
1010
0000
1000
0000
0001
0000
1000
1000
,
1100
0000
1000
0000
0001
0000
0100
0100
,
0110
0000
0010
0000
1000
0000
0100
0100
,
1100
0000
1000
0000
0010
0000
0100
0100
,
0110
2002
0000
0000
,
3003
0000
0101
1100
0101
0000
0001
0100
,
0001
0000
1000
0000
0100
0000
0000
0000
1000
0000
0000
0000
0001
0000
0000
0001
,
0000
0000
0001
0000
1000
0000
0100
0000
1000
0000
0001
0200
0000
0000
0010
0000
,
0300
0000
0000
0000
0001
0000
0000
0000
1000
0000
0000
0000
0001
0000
0000
0001
,
0000
0020
0000
0000
0130
0000
1000
0100
,
0001
0000
0100
0000
1000
0000
0010
0000
0100
0000
0000
0000
0010
0000
0000
0010
,
0000
0000
0010
0000
0100
0000
0001
0000
0010
0000
0001
0000
1000
0000
0000
1000
,
0000
0000
2000
0000
0010
0000
0000
0000
0100
0000
0000
0000
3001
0000
0000
0001
,
0000
0001
0020
0000
0100
0000
0031
0100
,
0010
0000
1000
0000
0100
0000
0010
0000
0001
0000
0000
0000
1000
0000
0010
0100
,
0000
0100
0001
0000
0010
0000
0100
0000
1000
0000
0001
2000
0000
0000
3100
0000
,
1000
0000
0000
0000
0001
0000
0000
0000
0010
0000
0000
0000
0001
0000
0000
0001
,
0000
0200
0000
0000
0310
0000
0001
0010
,
1000
0010
0100
1000
0001
0010
0001
0000
,
1000
0000
0000
0000
0010
0000
1000
0000
0100
0000
0010
0000
0100
0000
0000
1000
,
0000
0000
0020
0000
0100
0000
0000
0000
0130
0000
0000
0000
0010
0000
0000
0100
,
0000
0002
1000
0000
1003
0000
0220
0000
,
0000
0000
0000
0000
,
0000
0000
0000
0330
;

//---------------dance-single - ----------------
#NOTES:
     dance-single:
     :
     Medium:
     5:
     0.242262,0.332612,0.106502,0.155656,0.049155,207.000000,194.000000,13.000000,19.000000,0.000000,0.000000,0.242262,0.332612,0.106502,0.155656,0.049155,207.000000,194.000000,13.000000,19.000000,0.000000,0.000000:
0000
0000
0000
0000
,
0000
0000
0000
0000
,
0000
0000
0000
0000
,
0000
0000
0000
0000
,
0000
0000
1000
0000
,
0010
0000
0100
0000
,
0001
0000
0200
0000
,
0000
0000
0000
0000
0000
0000
0000
0300
,
0000
0010
1000
0010
,
1000
0000
0001
0000
0010
0001
0010
0010
,
0100
1000
0200
0000
0000
0000
0000
1300
,
0100
0010
0100
0000
0000
0000
0000
0000
,
0000
0010
0001
0100
,
0010
0000
1000
0000
0001
1000
0010
0010
,
1000
0001
0200
0000
0000
0000
0000
0310
,
1000
0000
0100
0000
0010
0000
0000
0000
0100
0000
0000
0000
0010
0100
0000
0000
,
0100
0000
0010
0000
0000
0000
0100
0010
,
0001
2000
0000
0000
0000
0000
0000
0000
,
3002
0000
0103
0000
0001
0000
0010
0001
,
0010
0200
0000
0000
0000
0000
0000
0000
,
0000
0000
0310
0000
0001
0000
1000
0010
,
0100
0002
0000
0000
0000
0000
0000
0000
,
0000
0000
1003
0000
0100
0000
1000
0010
,
1000
0002
0000
0000
0000
0000
0000
0000
,
0003
0010
0001
0010
,
1000
0010
0000
0000
,
0100
0000
0000
0010
0000
0000
0001
0000
0010
0000
0000
0000
0001
0000
0000
0000
,
1000
0000
0001
0100
0001
0000
0100
0010
,
0100
0010
1000
0010
,
0001
0010
0100
0001
,
1000
0000
0000
0001
0000
0000
0100
0000
0001
0000
0000
0000
0010
0000
0000
0000
,
0001
0000
0000
0000
1000
0000
0000
0001
0000
0100
0000
0020
0000
0000
0000
0000
,
0030
0110
0110
0010
,
1000
1001
1001
0001
,
0010
0011
0011
0001
,
1000
1100
1100
1000
,
0001
0101
1001
1000
,
0001
1100
1001
0001
,
1000
0020
0000
0000
0000
0000
0000
0000
,
0030
0000
0100
0010
0100
0000
0001
0000
,
0100
0020
0130
0001
,
1000
0000
0100
1000
0010
0000
0100
0000
,
0001
0000
0000
0000
0100
0000
0000
0000
0010
0000
0000
0000
1000
0000
0000
1000
,
0000
2000
0000
0000
3000
0000
0001
0100
,
0001
0000
0100
0010
0100
0000
0010
0000
,
1000
0000
0000
0000
0100
0000
0000
0000
1000
0000
0000
0000
0001
0000
0000
1000
,
0000
0000
0020
0000
0000
0000
0000
0000
0030
0000
0000
0000
0100
0000
0000
0010
,
0000
2000
0000
0000
3000
0000
0001
0010
,
0100
1000
0100
0000
1000
0000
0010
0000
,
0100
0001
0100
0010
,
1000
0000
0000
0000
0001
0000
0000
0000
0010
0000
0000
0000
0001
0000
0000
0001
,
0000
0002
0000
0000
0003
0000
1000
0001
,
0100
0000
0001
1000
0010
0000
1000
0000
,
0100
0000
0000
0000
1000
0000
0000
0000
0010
0000
0000
0000
0100
0000
0000
0100
,
0000
0000
0200
0000
0000
0000
0000
0000
0300
0000
0000
0000
0010
0000
0000
0010
,
0000
0020
0000
0000
0130
0000
2002
0000
,
0000
0000
0000
0000
,
0000
0000
0000
0000
,
3003
0000
0000
0000
;

//---------------dance-single - ----------------
#NOTES:
     dance-single:
     :
     Easy:
     2:
     0.143953,0.190064,0.016385,0.106502,0.000000,123.000000,121.000000,2.000000,13.000000,0.000000,0.000000,0.143953,0.190064,0.016385,0.106502,0.000000,123.000000,121.000000,2.000000,13.000000,0.000000,0.000000:
0000
0000
0000
0000
,
0000
0000
0000
0000
,
0000
0000
0000
0000
,
0000
0000
0000
0000
,
0000
0000
1000
0000
,
0001
0000
0100
0000
,
0001
0000
1000
0000
,
0000
0000
0000
0000
,
0000
0001
0100
0001
,
0000
0000
1000
0001
,
0001
1000
0000
0000
,
0010
0100
0000
0000
,
0000
0010
1000
0010
,
0000
0000
0100
0100
,
0001
1000
0000
0000
,
0001
1000
0000
0010
,
0000
0100
0000
0010
,
0000
1000
0000
0001
,
0000
1000
0000
0001
,
0100
0002
0000
0000
,
0000
0003
0000
1000
,
0010
2000
0000
0000
,
0000
3000
0000
0010
,
0100
0020
0000
0000
,
0030
0100
0010
1000
,
0001
0100
0000
0000
,
0001
1000
0001
1000
,
0000
0100
0000
1000
,
0000
0010
1000
0001
,
0100
0010
0000
0000
,
0100
0001
0010
0001
,
0000
1000
0000
0001
,
0000
0100
0100
0000
,
0000
0100
0100
0010
,
0010
0000
1000
0001
,
0000
0100
0000
0000
,
0000
0010
0010
0000
,
0000
0010
0010
0000
,
0000
2002
0000
0000
,
0000
3003
0000
1000
,
0010
0200
0000
0301
,
0000
0100
0010
0100
,
0000
0001
0000
1000
,
1000
1000
0000
0001
,
1000
0020
0000
1030
,
0000
0010
0000
0100
,
0001
0200
0300
0010
,
1000
0020
0030
1000
,
0001
0200
0000
0310
,
1000
0010
0010
0100
,
0000
0001
0000
1000
,
0001
1000
0000
0100
,
0010
0002
0103
0010
,
0000
1000
0000
0001
,
1000
0001
0000
0100
,
0010
0100
0000
2002
,
0000
0000
0000
0000
,
0000
0000
0000
0000
,
3003
0000
0000
0000
;

//---------------dance-single - ----------------
#NOTES:
     dance-single:
     :
     Beginner:
     1:
     0.076073,0.137018,0.016385,0.000000,0.000000,65.000000,63.000000,2.000000,0.000000,0.000000,0.000000,0.076073,0.137018,0.016385,0.000000,0.000000,65.000000,63.000000,2.000000,0.000000,0.000000,0.000000:
// measure 0
0000
0000
0000
0000
,  // measure 1
0000
0000
0000
0000
,  // measure 2
0000
0000
0000
0000
,  // measure 3
0000
0000
0000
0000
,  // measure 4
0000
0000
1000
0000
,  // measure 5
0000
0000
0000
0000
,  // measure 6
0000
0000
0001
0000
,  // measure 7
0000
0000
0000
0000
,  // measure 8
0000
0010
0000
0000
,  // measure 9
0000
0000
1000
0000
,  // measure 10
0000
0001
0000
0000
,  // measure 11
0100
0100
0000
0000
,  // measure 12
0000
0001
0000
0000
,  // measure 13
0000
0000
1000
0000
,  // measure 14
0000
0010
0000
0000
,  // measure 15
0100
0100
0000
0010
,  // measure 16
0000
1000
0000
0000
,  // measure 17
0000
0000
0000
0000
,  // measure 18
0000
0001
0000
0000
,  // measure 19
0000
1000
0000
0000
,  // measure 20
0000
0010
0000
0000
,  // measure 21
0000
1000
0000
0000
,  // measure 22
0000
0100
0000
0000
,  // measure 23
0000
1000
0000
0000
,  // measure 24
0000
0001
0000
1000
,  // measure 25
0000
0010
0000
0000
,  // measure 26
0100
0100
0000
0000
,  // measure 27
0000
0010
0000
1000
,  // measure 28
0000
0001
0000
1000
,  // measure 29
0000
0010
0000
0000
,  // measure 30
1000
1000
0000
0000
,  // measure 31
0000
0001
0000
0000
,  // measure 32
0000
0100
0100
0000
,  // measure 33
0000
0100
0100
0100
,  // measure 34
0000
0000
0010
0010
,  // measure 35
0000
1000
0000
0000
,  // measure 36
0000
0001
0001
0000
,  // measure 37
0000
0001
0001
0000
,  // measure 38
0000
0110
0000
0000
,  // measure 39
0000
0000
0000
1000
,  // measure 40
0000
0000
0000
0001
,  // measure 41
0000
0000
0000
0100
,  // measure 42
0000
0000
0000
0010
,  // measure 43
0000
0000
0000
1000
,  // measure 44
0000
0000
0000
0001
,  // measure 45
0000
0000
0000
0100
,  // measure 46
0000
0000
0000
0010
,  // measure 47
0000
0000
0000
1000
,  // measure 48
0000
0000
0000
0001
,  // measure 49
0000
0000
0000
1000
,  // measure 50
0000
0000
0000
0100
,  // measure 51
0000
0000
0000
1000
,  // measure 52
0000
0000
0000
0010
,  // measure 53
0000
0000
0000
0100
,  // measure 54
0000
0000
0000
0001
,  // measure 55
0000
0000
0000
0110
;
