#TITLE:7 Colors;
#SUBTITLE:;
#ARTIST:kors k feat. 吉河順央;
#TITLETRANSLIT:;
#SUBTITLETRANSLIT:;
#ARTISTTRANSLIT:;
#GENRE:;
#CREDIT:;
#BANNER:7 Colors.PNG;
#BACKGROUND:7 Colors-bg.PNG;
#LYRICSPATH:;
#CDTITLE:;
#MUSIC:7 Colors.ogg;
#OFFSET:-1.925000;
#SAMPLESTART:52.119999;
#SAMPLELENGTH:12.000000;
#SELECTABLE:YES;
#BPMS:0.000000=156.000000
;
#STOPS:
;
#BGCHANGES:;
#KEYSOUNDS:;
#ATTACKS:;

//---------------dance-single - ----------------
#NOTES:
     dance-single:
     :
     Hard:
     8:
     0.584157,0.548879,0.129971,0.049989,0.229949,391.000000,13.000000,5.000000,0.000000,0.000000,0.000000,0.584157,0.548879,0.129971,0.049989,0.229949,391.000000,13.000000,5.000000,0.000000,0.000000,0.000000:
1001
0000
0000
0000
,
1000
0001
0100
0001
,
0010
0000
0000
0000
,
0100
0010
0001
0010
1000
0010
0001
0100
,
0101
0001
1000
0001
,
1010
0000
1000
0000
0001
0000
0001
0010
,
0110
0100
0010
0001
0100
1000
0100
0010
,
1000
0000
0000
1000
0000
0000
1000
0000
0000
0000
0000
0000
0200
0000
0000
0000
,
0310
0000
0001
0010
0000
0000
0001
0000
1000
0100
0000
0000
1000
0000
0001
0000
,
0100
0000
1000
0000
0100
0000
0001
0000
0010
0000
0100
0010
0000
0100
0010
0000
,
0100
0000
0000
1000
0000
0000
0001
0000
0000
0100
0000
0000
0001
0000
1000
0000
,
0100
0001
0100
0010
0001
0000
0010
0100
,
1000
0000
0001
1000
0000
0000
0010
0000
1000
0010
0000
0000
0010
0000
1000
0000
,
0100
0000
0010
0000
0001
0000
0100
0000
1000
0000
0100
0010
0000
0100
0001
0000
,
0010
0000
0000
0100
0000
0000
1000
0000
0000
0100
0000
0000
1000
0000
0001
0000
,
1000
0001
0100
0001
1000
0100
1000
0010
,
0100
0001
0010
0010
,
0100
0000
0000
0000
1000
0000
0000
0001
1000
0000
0000
1000
0000
0000
0010
0000
,
0100
0001
1000
1000
,
0001
0100
0001
0010
0100
0000
0000
0000
,
0100
0000
0010
0000
0001
0000
1000
0010
0000
0000
0000
0000
0000
0000
0100
0000
,
0010
0000
1000
0000
0100
0000
0010
0001
0000
0000
0000
0000
0000
0000
1000
0000
,
0001
0010
1000
0010
0100
1000
0001
0020
,
0000
0000
0030
0000
0001
0100
0001
0100
,
0001
0000
1000
0010
0000
0100
0000
0110
,
0000
0000
0000
0100
1000
0100
0001
0010
,
0100
0010
0001
0010
0100
1000
0100
0010
,
0100
1000
0010
0100
0000
0000
0000
0000
,
0010
1000
0001
0100
0010
0000
1001
0000
,
1000
0100
0010
0001
0010
0000
0011
0000
,
0001
0100
0010
1000
0100
0010
0100
1000
,
0100
0010
0001
0010
0100
1000
0100
0010
,
1001
0000
0000
0000
0000
0000
1000
0001
,
0100
0000
0000
0000
0010
0000
0100
0001
0000
0000
1000
0000
0100
0000
1000
0000
,
0001
0000
0010
0000
0100
0000
0010
0001
0000
0000
0000
0000
1000
0000
0010
0000
,
0100
0000
0010
1000
0100
0010
0100
1000
,
0001
0000
0010
0000
0100
0000
0010
0001
0000
0000
0000
0000
1000
0000
0001
0000
,
0010
0000
0100
1000
0010
0100
0001
1000
,
0100
1000
0010
0100
0010
0000
1000
0000
,
0001
0010
0100
0010
0001
0010
0100
0010
,
0001
0000
0000
0100
0000
0000
0010
0000
0000
0000
0000
0000
0100
0000
0010
0000
,
1001
0000
0000
0000
0001
0000
1000
0010
0000
0000
0010
0000
0100
0000
0001
0000
,
0010
0000
0001
0000
0100
0000
0010
1000
0000
0000
0000
0000
0100
0000
0010
0000
,
1001
0000
1000
0001
0010
0100
0010
0100
,
1000
0000
0001
0000
0010
0000
0001
0010
0000
0000
0000
0000
0100
0000
1000
0000
,
0010
0000
0100
0010
1000
0010
0100
0001
,
0100
0010
1000
0010
0100
0000
0001
0000
,
1000
0100
0010
0100
1000
0100
0010
0100
,
1100
0000
1010
0000
0000
0000
1001
0000
0000
0000
0000
0000
0000
0000
0000
1000
,
0010
0000
0000
0001
0010
0000
0000
1000
0010
0000
0000
0001
0010
0000
0000
1000
,
0010
0000
0010
0000
0010
0000
0010
0000
0010
1000
0001
0100
0020
0000
0000
0000
,
1030
0000
0010
0100
0000
0000
0001
0000
1000
0001
0000
0000
1000
0000
0100
0000
,
0010
0000
0001
0000
1000
0000
0100
0000
0010
0000
0001
0010
0000
0001
0100
0000
,
0010
0000
0000
1000
0000
0000
0001
0000
0000
1000
0000
0000
1000
0000
0010
0000
,
0001
0000
0010
0000
0100
0000
0010
0000
1000
0000
0000
0000
0001
1000
0001
1000
,
0001
0000
1000
0010
0000
0000
0010
0000
1000
0001
0000
0000
0100
0000
0010
0000
,
1000
0000
0010
0000
0100
0000
0010
0000
1000
0000
0001
0010
0000
0010
0100
0000
,
0010
0000
0000
0001
0000
0000
0100
0000
0000
0010
0000
0000
0100
0000
0010
0000
,
1000
0100
0001
0100
1000
0010
0100
0001
,
0020
0001
0100
1000
,
0130
0000
0010
0000
0001
0000
1000
0000
0001
0000
1000
0001
0020
0000
0000
0000
,
0030
0000
0000
0000
;

//---------------dance-single - ----------------
#NOTES:
     dance-single:
     :
     Challenge:
     9:
     0.769831,0.762332,0.199956,0.079982,0.639859,511.000000,20.000000,8.000000,0.000000,0.000000,0.000000,0.769831,0.762332,0.199956,0.079982,0.639859,511.000000,20.000000,8.000000,0.000000,0.000000,0.000000:
1000
0010
1000
0100
0000
0000
0000
0010
,
0100
0100
1000
0001
0100
0100
0001
1000
,
0010
0000
0000
0000
0000
0000
0000
0000
0000
0000
0000
0000
0000
0000
0000
0100
,
0010
0100
0001
0100
0001
0010
0100
0010
0001
1000
0010
0100
0001
0010
0100
1000
,
1001
0001
1000
0001
,
1001
0000
0000
0000
1000
0000
0000
0000
0001
0000
0000
0000
1000
0001
1000
0001
,
1001
0000
0000
0000
0000
0000
0001
0000
0010
0000
0001
0000
0010
0000
0000
0100
0000
0000
1000
0000
0000
0001
0000
0000
0010
0000
0000
0100
0000
0000
1000
0000
0000
0001
0000
0000
0010
0000
0000
0100
0000
0000
1000
0000
0000
0001
0000
0000
,
1001
0000
0000
0110
0000
0000
1001
0000
0000
0000
0000
0000
0002
0000
0000
0000
,
0103
0000
0010
1000
0000
0010
0100
0000
0010
1000
0000
0100
0010
0000
0001
0000
,
1000
0100
1000
0100
1000
0000
0001
0100
0001
0000
0100
0010
0000
0100
0001
0000
,
1000
0000
0010
0100
0000
0010
1000
0000
0001
0010
0000
0100
1000
0000
0001
0000
,
0100
1000
0100
0001
0010
0000
0100
0000
1000
0000
0000
0000
1000
0001
1000
0001
,
0010
0000
0100
1000
0000
0100
0010
0000
0100
1000
0000
0100
0010
0000
0001
0000
,
0001
1000
0001
1000
0100
0000
0010
0001
0100
0000
0010
0100
0000
0010
0100
0000
,
0010
0000
0100
0001
0000
1000
0001
0000
0010
0100
0000
1000
0010
0000
0100
0000
,
0010
1000
0010
1000
0100
0000
0100
0010
0100
0010
0001
0000
1000
0000
0100
0000
,
0010
0000
0001
0000
1000
0000
0010
2000
0000
0000
0000
0000
3001
0000
0010
0100
,
1000
0000
1000
0000
0100
0000
1000
0010
1000
0000
0010
0100
0000
0010
0100
0000
,
0001
0010
1000
0010
0100
1000
0100
0001
,
1000
0000
0010
0100
0001
0000
0001
1000
0100
0000
0010
0000
0001
0000
0010
0000
,
0100
0000
0010
0000
0001
0000
1000
0010
0000
0000
0000
0000
0100
0010
1000
0001
,
0010
0100
1000
0100
2000
0000
0000
0000
3020
0000
0000
0000
0130
0010
0100
0000
,
0001
0010
0100
0010
0001
1000
0010
2000
,
0000
0000
0000
0000
3001
0010
0100
0010
,
0011
0000
0100
1100
0000
0101
0000
1001
,
0000
0000
0000
0001
0010
0100
0010
0001
,
1000
0001
0100
0001
1000
0100
1000
0001
,
0100
0001
1000
0020
0000
0030
0000
0100
,
0001
0000
0000
0000
1000
0100
1000
0000
0001
0000
0100
0000
0001
0000
0100
0000
,
0001
0000
0000
0000
1000
0010
1000
0000
0010
0000
0100
0000
0010
0000
0100
0000
,
0001
1000
0010
0100
,
0001
0010
0100
1000
0100
0010
0001
0100
0010
1000
0001
0100
0010
1000
0100
0010
,
0001
0000
0000
0000
0000
0000
1000
0010
,
0101
0000
0000
0000
0001
0000
1000
0100
0000
0000
1000
0000
0010
0000
0100
0000
,
0001
0000
1000
0000
0100
0000
1000
0001
0000
0000
0000
0000
0010
0000
0100
0000
,
1001
0000
0001
1000
0001
0100
0001
0010
,
0100
0000
1000
0000
0010
0000
1000
0100
0000
0000
0000
0000
0100
0000
0010
0000
,
1001
0000
0000
0000
1000
0000
0010
1000
0000
0000
0100
0000
0010
0000
0001
0000
,
1000
0010
0100
0001
1000
0000
0001
0000
,
1000
0001
0010
0001
1000
0010
1000
0001
,
0010
0000
0000
0100
0000
0000
1000
0000
0000
0000
0000
0000
0100
0000
0010
0000
,
0110
0000
0000
0000
0100
0000
0010
0001
0000
0000
1000
0000
0001
0000
0001
0000
,
0010
0000
0100
0000
0010
0000
0001
1000
0000
0000
0000
0000
0010
0000
0100
0000
,
0101
0000
0001
0100
1000
0100
0100
0010
,
1000
0000
0001
0000
0100
0000
0010
0100
0000
0000
0000
0000
0100
0000
0001
0000
,
0011
0000
0000
0000
0010
0000
0100
1000
0000
0000
0100
0000
1000
0000
0001
0000
,
0100
0010
1000
0010
1000
0000
0001
0000
,
1000
0001
0100
0001
1000
0100
1000
0001
,
0101
1010
0000
1001
0000
0001
0010
0100
,
1100
0000
1000
0100
0001
0000
0001
0100
0010
0000
0010
0001
0100
0000
0100
0010
,
1000
0000
1000
0000
0010
0000
0010
0000
0100
0001
1000
0100
0020
0000
0000
0000
,
0031
0000
0100
0001
0000
0100
0010
0000
0100
0001
0000
0010
0100
0000
1000
0000
,
0001
0010
0001
0010
0001
0000
1000
0010
1000
0000
0010
0100
0000
0010
1000
0000
,
0001
0000
0100
0010
0000
0100
0001
0000
1000
0100
0000
0010
0001
0000
1000
0000
,
0010
0001
0010
1000
0100
0000
0010
0000
0001
0000
0000
0000
0001
1000
0001
1000
,
0100
0000
0010
0001
0000
0010
0100
0000
0010
0001
0000
0010
0100
0000
1000
0000
,
1000
0001
1000
0001
0010
0000
0100
1000
0010
0000
0100
0010
0000
0100
0010
0000
,
0100
0000
0010
1000
0000
0001
1000
0000
0100
0010
0000
0001
0100
0000
0010
0000
,
0100
0001
0100
0001
0010
0000
0010
0100
0010
0100
1000
0000
0001
0000
0010
0000
,
0100
0000
0100
0000
0010
0000
0010
0000
0001
0000
0001
0000
1000
0000
1000
0001
,
0100
0000
0010
0000
1000
0000
0100
0000
0010
0000
0001
1000
0020
0000
0000
0000
,
0030
0000
0000
0000
;

//---------------dance-single - ----------------
#NOTES:
     dance-single:
     :
     Medium:
     7:
     0.472753,0.457399,0.169963,0.049989,0.114975,309.000000,17.000000,5.000000,0.000000,0.000000,0.000000,0.472753,0.457399,0.169963,0.049989,0.114975,309.000000,17.000000,5.000000,0.000000,0.000000,0.000000:
0001
1000
0100
0010
0000
0000
0000
0100
,
1000
0010
0100
0001
,
0011
0000
0000
0000
,
0100
0010
0001
1000
0010
0100
0001
0010
,
0110
0000
0000
0000
,
1001
0000
0000
0000
0000
0000
0010
0100
,
1001
0001
0010
0100
1000
0001
0010
0100
,
1000
0000
0000
0001
0000
0000
1000
0000
0000
0000
0000
0000
0020
0000
0000
0000
,
0130
0000
0000
0001
0000
0000
0100
0000
0000
0001
0000
0000
0100
0000
0001
0000
,
1000
0000
0000
0000
0100
0000
0000
0000
0010
0000
0000
0100
0000
0000
1000
0000
,
0010
0000
0000
0100
0000
0000
0001
0000
0000
1000
0000
0000
0100
0000
1000
0000
,
0010
0000
0100
0001
0010
0000
0100
0010
,
0001
0000
0000
0001
0000
0000
1000
0000
0000
1000
0000
0000
0010
0000
1000
0000
,
0100
0000
1000
0000
0010
0000
0100
0000
0001
0000
0000
0001
0000
0000
1000
0000
,
0100
0000
0000
1000
0000
0000
0010
0000
0000
0100
0000
0000
0010
0000
1000
0000
,
0001
0010
1000
0010
0001
0010
1000
0010
,
0001
0100
0010
1000
,
0010
0000
0000
0000
0100
0000
0000
0000
0001
0000
0000
1000
0000
0000
0001
0000
,
0100
0001
0010
0001
,
1000
0000
0010
0100
0001
0000
0000
0000
,
1000
0100
1000
0010
,
0100
0001
0100
0000
0010
0000
1000
0000
,
0010
0100
0001
0010
0100
0010
0001
1000
,
0000
0000
0001
0001
,
0100
0000
0001
0010
0000
0100
0000
1000
,
0000
0000
0000
0100
1000
0000
0010
0000
,
0100
0000
0010
1000
0000
0001
0000
0010
,
0000
0100
0010
0001
0000
0000
0000
1000
,
0001
0000
0110
0000
0100
0001
1000
0000
,
0100
0000
0110
0000
0100
0010
0001
0000
,
1000
0101
0001
1100
,
0100
0010
0001
1000
0010
1000
0001
0010
,
0100
0000
0000
0000
0000
0000
0010
0001
,
1001
0001
1000
0010
,
1000
0010
1000
0010
1000
0000
0010
0000
,
0101
0001
0010
0100
,
1000
0100
0010
0001
1000
0000
0001
0100
,
0001
0100
0010
1000
,
0100
0000
1000
0010
0100
0000
0010
0000
,
2000
0000
3001
0000
0100
0000
0001
0010
,
0100
0000
0000
0010
0000
0000
0100
0000
0000
0000
0000
0000
0010
0000
0001
0000
,
1001
0001
1000
0010
,
1000
0010
0100
0001
0010
0000
0000
0000
,
0100
0010
0001
1000
,
0100
1000
0010
0001
0010
0000
0100
0001
,
1000
0001
0100
0001
,
0010
0100
1000
0100
0010
0000
0100
0000
,
2000
0000
0000
3000
,
0001
0100
0000
1010
0000
0010
0100
0001
,
1001
0110
1001
0110
,
0001
1000
0001
1000
0010
0100
1001
0000
,
0001
0000
0000
0100
0000
0000
0001
0000
0000
0100
0000
0000
0010
0000
1000
0000
,
0100
0000
0000
0000
1000
0000
0000
0000
0010
0000
0000
0100
0000
0000
0001
0000
,
1000
0000
0000
0100
0000
0000
1000
0000
0000
0010
0000
0000
0100
0000
0001
0000
,
0010
0100
0010
0001
1000
0000
0001
0100
,
0010
0000
0000
0010
0000
0000
0100
0000
0000
0100
0000
0000
0001
0000
1000
0000
,
0100
0000
1000
0000
0010
0000
0100
0000
0001
0000
0000
0001
0000
0000
1000
0000
,
0100
0000
0000
1000
0000
0000
0010
0000
0000
0100
0000
0000
0001
0000
0010
0000
,
0100
0001
0100
1000
0100
0001
0100
1000
,
0020
0000
0000
0030
,
0100
0001
0100
0001
0100
0001
0020
0000
,
0030
0000
0000
0000
;

//---------------dance-single - ----------------
#NOTES:
     dance-single:
     :
     Easy:
     4:
     0.287080,0.365919,0.079982,0.089980,0.000000,184.000000,8.000000,9.000000,0.000000,0.000000,0.000000,0.287080,0.365919,0.079982,0.089980,0.000000,184.000000,8.000000,9.000000,0.000000,0.000000,0.000000:
1001
0000
0000
0000
,
0001
0000
0100
0000
,
0010
0000
0000
0000
,
0100
0000
0001
0000
,
1001
0000
0000
0000
,
1010
0000
0000
0100
,
0101
0000
0000
0000
,
1001
0000
0000
0002
,
0013
0001
0100
0001
,
1000
0100
1000
0001
,
1000
0010
0100
0001
,
0010
0010
0010
0100
,
0010
0001
1000
0100
,
1000
0010
0100
0010
,
1000
0001
0010
0001
,
1000
0100
1000
0100
,
1000
0010
0100
0000
,
0010
1000
0001
0000
,
1000
0100
1000
0010
,
0100
0100
0100
0000
,
0001
1000
0010
0000
,
1000
0001
0100
0000
,
0001
1000
0100
1000
,
0010
0000
0100
0001
,
1000
0100
0010
0001
,
0010
0000
0001
0000
,
0100
0001
1000
0100
,
1000
0010
0000
0000
,
0100
0000
0000
0000
,
0010
0000
0000
0000
,
1000
0000
0001
0000
,
0200
0000
0000
0000
,
0300
0000
0000
0010
,
1000
0010
0100
0001
,
1000
1000
1000
0000
,
0001
1000
0010
0100
,
0001
0010
0001
0000
,
1000
0100
1000
0010
,
0100
0100
0100
0001
,
0200
0000
0300
0010
,
1000
0001
1000
0100
,
1000
0010
0100
0001
,
0010
0010
0010
0000
,
0001
1000
0010
1000
,
0100
0100
0100
1000
,
0010
0100
0001
1000
,
0010
0100
0001
0020
,
0200
0000
0000
0330
,
0100
0000
0000
0010
0000
0000
0001
0000
,
1000
0001
1000
0001
,
1001
1001
2002
3003
,
0001
0100
0001
0100
,
0010
1000
0010
0010
,
1000
0100
0001
0100
,
0010
0001
1000
0001
,
0100
0100
0001
0001
,
1000
0001
0100
0100
,
0001
0010
0100
0010
,
0001
0010
0001
1000
,
0020
0000
0000
0000
,
0000
0000
0000
0200
,
0330
0000
0000
0000
;

//---------------dance-single - ----------------
#NOTES:
     dance-single:
     :
     Beginner:
     1:
     0.164250,0.182210,0.099978,0.000000,0.000000,105.000000,10.000000,0.000000,0.000000,0.000000,0.000000,0.164250,0.182210,0.099978,0.000000,0.000000,105.000000,10.000000,0.000000,0.000000,0.000000,0.000000:
// measure 0
0000
0000
0000
0000
,  // measure 1
1000
0000
0001
0000
,  // measure 2
0010
0000
0000
0000
,  // measure 3
0100
0000
0000
0000
,  // measure 4
1001
0000
0000
0000
,  // measure 5
0001
0000
0000
1000
,  // measure 6
1000
0000
0000
0000
,  // measure 7
0010
0000
0000
0100
,  // measure 8
0001
0000
0001
0000
,  // measure 9
1000
0000
1000
0000
,  // measure 10
0010
0000
0100
0000
,  // measure 11
0001
0001
0001
0000
,  // measure 12
1000
0000
0001
0000
,  // measure 13
0100
0000
0001
0000
,  // measure 14
1000
0000
0001
0000
,  // measure 15
1000
1000
0001
0001
,  // measure 16
0100
0000
0000
0000
,  // measure 17
0010
0000
0000
0000
,  // measure 18
1000
0000
0000
0000
,  // measure 19
0001
0000
1000
0000
,  // measure 20
0100
0000
0000
0000
,  // measure 21
1000
0000
0000
0000
,  // measure 22
0010
0000
0100
0000
,  // measure 23
0001
0000
0000
0000
,  // measure 24
1000
0000
1000
0000
,  // measure 25
1000
0000
0000
0000
,  // measure 26
0001
0000
0001
0000
,  // measure 27
0001
0000
0000
0000
,  // measure 28
0110
0000
0000
0000
,  // measure 29
1001
0000
0000
0000
,  // measure 30
0110
0000
0010
0000
,  // measure 31
0001
0000
0000
0000
,  // measure 32
1001
0000
0000
1000
,  // measure 33
1000
0000
0001
0000
,  // measure 34
0100
0100
0100
0000
,  // measure 35
0001
0000
1000
0000
,  // measure 36
0010
0010
0010
0000
,  // measure 37
1000
0000
0001
0000
,  // measure 38
1000
0000
0100
0000
,  // measure 39
0010
0000
0000
0000
,  // measure 40
0100
0000
0000
0000
,  // measure 41
1001
0000
0001
0000
,  // measure 42
1000
1000
1000
0000
,  // measure 43
0010
0000
0100
0000
,  // measure 44
0001
0001
0001
0000
,  // measure 45
1000
0000
0001
0000
,  // measure 46
0100
0000
0010
0000
,  // measure 47
1001
0000
0000
0000
,  // measure 48
0110
0000
0000
0000
,  // measure 49
0100
0000
0010
0000
,  // measure 50
1000
0001
1000
1001
,  // measure 51
0001
0000
0000
0000
,  // measure 52
1000
0000
0010
0000
,  // measure 53
0100
0000
0000
0000
,  // measure 54
0010
0010
0010
0000
,  // measure 55
0100
0000
0000
0000
,  // measure 56
0001
0000
1000
0000
,  // measure 57
0100
0000
0000
0000
,  // measure 58
1000
0000
0001
0000
,  // measure 59
0100
0000
0000
0000
,  // measure 60
0000
0000
0000
1001
;
