#VERSION:0.81;
#TITLE:64 Killer;
#SUBTITLE:;
#ARTIST:Digital Freq & Pyramyth;
#TITLETRANSLIT:;
#SUBTITLETRANSLIT:;
#ARTISTTRANSLIT:;
#GENRE:;
#ORIGIN:;
#CREDIT:;
#BANNER:64 Killer.png;
#BACKGROUND:64 Killer-Bg.png;
#PREVIEWVID:;
#JACKET:64 Killer-jacket.png;
#CDIMAGE:;
#DISCIMAGE:;
#LYRICSPATH:;
#CDTITLE:CDtitle.png;
#MUSIC:64 Killer.ogg;
#OFFSET:-7.482000;
#SAMPLESTART:76.147758;
#SAMPLELENGTH:16.169350;
#SELECTABLE:YES;
#BPMS:0.000=128.000;
#STOPS:76.000=0.234,
76.500=0.234,
77.000=0.234,
77.500=0.234,
78.000=0.234,
78.500=0.234,
79.000=0.234,
79.500=0.234,
140.000=0.234,
140.500=0.234;
#DELAYS:;
#WARPS:;
#TIMESIGNATURES:0.000=4=4;
#TICKCOUNTS:0.000=4;
#COMBOS:0.000=1;
#SPEEDS:0.000=1.000=0.000=0;
#SCROLLS:0.000=1.000;
#FAKES:;
#LABELS:0.000=Song Start;
#BGCHANGES:;
#KEYSOUNDS:;
#ATTACKS:
;

//---------------dance-single - ----------------
#NOTEDATA:;
#CHARTNAME:;
#STEPSTYPE:dance-single;
#DESCRIPTION:;
#CHARTSTYLE:;
#DIFFICULTY:Hard;
#METER:7;
#RADARVALUES:0.440929,0.546073,0.439673,0.439673,0.043967,251.000000,50.000000,50.000000,0.000000,0.000000,0.000000,0.000000,0.000000,0.440929,0.546073,0.439673,0.439673,0.043967,251.000000,50.000000,50.000000,0.000000,0.000000,0.000000,0.000000,0.000000;
#CREDIT:;
#NOTES:
1000
0000
0000
0000
0010
0000
0000
0100
,
0000
0000
0100
0001
,
1000
0000
0000
0000
0010
0000
0000
0100
,
0000
0000
0000
0001
0000
0000
1000
0001
,
0020
0000
0030
0000
0100
0000
0010
0001
,
0000
0001
0000
0000
0010
0000
0100
0000
,
2000
0000
3000
0000
0001
0000
0010
0200
,
0000
0300
0000
0010
0000
0000
0001
0000
,
2000
0000
3000
0000
0001
0000
1000
0100
,
0000
0100
0000
0000
0010
0000
0100
0000
,
2000
0000
3000
0000
0001
0000
1000
0002
,
0000
0003
0000
0100
0000
0000
0010
1000
,
0001
0010
0100
0010
0001
1000
0010
0000
,
0100
1000
0100
0001
0010
1000
0010
0000
,
1000
0010
0100
1000
0010
0100
0010
0000
,
1000
0010
0001
0010
0100
0001
1000
0000
,
0001
0010
0100
1000
0100
0010
0001
0010
,
0100
1000
0100
0010
0001
0010
0100
1000
,
0001
1000
0010
0100
0001
1000
0010
1000
,
1001
0110
1001
0101
1010
0101
1010
1001
,
0120
0000
1000
0000
0130
0000
2010
3000
,
1002
0000
0000
0000
0010
0000
0000
0000
0013
0000
0001
0010
0000
0100
1000
0000
,
2001
0001
3001
1002
,
0023
0000
0130
0100
0010
0001
1000
0000
,
2010
0000
0100
0000
3010
0000
1002
0003
,
1200
0000
0000
0000
0010
0000
0000
0000
1300
0000
1000
0010
0000
0100
0010
0000
,
0102
0000
0010
0000
1003
0000
1200
0320
,
0001
0001
0001
0031
,
0202
0000
0000
0000
0000
0000
0000
0000
0000
0000
0000
0000
0000
0000
0000
0000
0000
0000
0000
0000
0000
0000
0000
0000
0000
0000
0000
0000
0000
0000
0000
0000
0000
0000
0000
0000
0000
0000
0000
0000
0000
0000
0000
0000
0000
0000
0000
0303
2020
0000
0000
0000
0000
0000
0000
0000
0000
0000
0000
0000
0000
0000
0000
3030
,
0202
0000
0000
0000
0000
0000
0000
0000
0000
0000
0000
0000
0000
0000
0000
0000
0000
0000
0000
0000
0000
0000
0000
0000
0000
0000
0000
0000
0000
0000
0000
0000
0000
0000
0000
0000
0000
0000
0000
0303
0001
0000
0000
0000
0100
0000
0000
0000
0000
0000
0000
0000
0010
0000
0000
0000
1000
0000
0000
0000
0000
0000
0000
0000
,
2200
0000
0000
0000
0000
0000
0000
0000
0000
0000
0000
0000
0000
0000
0000
0000
0000
0000
0000
0000
0000
0000
0000
0000
0000
0000
0000
0000
0000
0000
0000
0000
0000
0000
0000
0000
0000
0000
0000
0000
0000
0000
0000
0000
0000
0000
0000
3300
0022
0000
0000
0000
0000
0000
0000
0000
0000
0000
0000
0000
0000
0000
0000
0033
,
1002
0000
1000
1003
0001
1000
0001
0000
,
0220
0000
0000
0000
0000
0000
0000
0000
0000
0000
0000
0000
0000
0000
0000
0000
0000
0000
0000
0000
0000
0000
0000
0000
0000
0000
0000
0000
0000
0000
0000
0000
0000
0000
0000
0000
0000
0000
0000
0000
0000
0000
0000
0000
0000
0000
0000
0330
2002
0000
0000
0000
0000
0000
0000
0000
0000
0000
0000
0000
0000
0000
0000
3003
,
0202
0000
0000
0000
0000
0000
0000
0000
0000
0000
0000
0000
0000
0000
0000
0000
0000
0000
0000
0000
0000
0000
0000
0000
0000
0000
0000
0000
0000
0000
0000
0000
0000
0000
0000
0000
0000
0000
0000
0303
0001
0000
0000
0000
0100
0000
0000
0000
0000
0000
0000
0000
0010
0000
0000
0000
1000
0000
0000
0000
0000
0000
0000
0000
,
2200
0000
0000
0000
0000
0000
0000
0000
0000
0000
0000
0000
0000
0000
0000
0000
0000
0000
0000
0000
0000
0000
0000
0000
0000
0000
0000
0000
0000
0000
0000
0000
0000
0000
0000
0000
0000
0000
0000
0000
0000
0000
0000
0000
0000
0000
0000
3300
0022
0000
0000
0000
0000
0000
0000
0000
0000
0000
0000
0000
0000
0000
0000
0033
,
1001
0110
1001
0001
0010
0100
1000
0000
,
1000
0000
0100
0000
0010
0001
1000
0000
0000
0000
1000
0000
0100
0000
0010
0000
,
0100
0010
0001
0010
0100
1000
2002
0000
,
0000
0000
0000
0000
0000
3003
1010
0000
,
0011
0000
1010
0010
0100
0001
0011
0000
,
0010
0000
0100
0000
1000
0001
0010
0000
0000
0000
0110
0000
0000
0000
0100
0000
,
0010
0011
0000
0001
1000
0010
2002
0000
,
0000
0000
0000
0000
3003
1000
0000
0001
,
1001
0000
1001
1000
0100
0010
0021
0000
,
0030
0000
0001
0001
1000
0010
1000
0100
,
0000
0100
0010
0001
1000
0100
2001
0000
,
0001
0000
3001
0010
0001
0100
0101
0000
,
1010
0000
1010
0010
1001
0000
0021
0000
,
0130
0000
1000
0010
0100
0001
0000
1000
,
0100
0010
0100
0000
0010
0000
0002
0000
,
0003
2000
3000
0020
,
0030
0200
0300
1001
;

//---------------dance-single - ----------------
#NOTEDATA:;
#CHARTNAME:;
#STEPSTYPE:dance-single;
#DESCRIPTION:;
#CHARTSTYLE:;
#DIFFICULTY:Medium;
#METER:5;
#RADARVALUES:0.331639,0.386802,0.351738,0.246217,0.000000,196.000000,40.000000,28.000000,0.000000,0.000000,0.000000,0.000000,0.000000,0.331639,0.386802,0.351738,0.246217,0.000000,196.000000,40.000000,28.000000,0.000000,0.000000,0.000000,0.000000,0.000000;
#CREDIT:;
#NOTES:
0000
0000
0000
0000
,
0000
0000
0000
0000
,
0000
0000
0000
0000
,
0000
0000
0000
0000
0000
0000
0010
0100
,
1001
0000
0000
0000
0001
0000
0100
0001
,
0000
1000
0000
0000
0100
0000
1000
0000
,
0010
0000
0000
0000
0100
0000
0001
1000
,
0000
0000
0000
0100
0000
0000
1000
0000
,
0010
0000
0000
0000
0100
0000
0010
1000
,
0000
0010
0000
0000
1000
0000
0001
0000
,
0010
0000
0000
0000
0001
0000
0100
0001
,
0000
0000
0000
1000
0000
0000
0100
0000
,
1000
0010
1000
0000
0010
0000
0100
0000
,
0001
0100
0001
0000
0100
0000
0010
0000
,
1000
0001
1000
0000
0001
0000
0010
0000
,
0100
1000
0100
0000
1000
0000
0010
0000
,
0110
0110
1001
1001
,
0101
0101
1100
1100
,
1010
0011
1010
0011
,
1000
0001
1000
0001
0100
0001
0100
0101
,
1020
0000
0000
2030
,
3200
0000
0000
0000
0000
0000
0310
0100
,
2000
0000
0000
3200
,
0310
0000
0100
1000
0010
0100
0000
0000
,
0201
0000
0000
0320
,
0230
0000
0000
0000
0000
0000
0310
1000
,
0002
0000
0000
0023
,
0130
0100
0100
0100
,
2100
0000
0100
0000
0100
3100
1100
0000
,
1200
0000
1000
0000
1300
0100
0001
0100
,
2100
0000
0100
0000
0100
3100
1100
0000
,
1001
0000
0001
1000
0001
1000
0000
0000
,
0201
0000
0001
0000
0001
0301
0101
0000
,
0201
0000
0001
0000
0301
0100
0010
1000
,
1002
0000
1000
0000
1000
1003
1001
0000
,
0001
1000
0001
0000
1000
0100
0010
0000
,
0100
0000
1000
0010
0000
0100
0000
0000
,
0001
0000
1000
0100
0010
0001
2002
0000
,
0000
0000
3003
0101
,
1010
0101
0001
1001
,
1000
0000
0001
0100
0000
0010
0000
0100
,
0010
0100
0000
0010
1000
0010
2020
0000
,
0000
0000
3030
1000
,
0100
0010
0001
0021
,
0030
0000
0100
0000
0010
0001
1000
0001
,
0000
1000
0001
0000
0100
0000
0220
0000
,
0000
0330
0000
0000
0010
0100
1001
0000
,
1001
0000
0001
1000
1001
0000
2100
0000
,
3100
0000
0100
0000
1000
0010
0000
0100
,
0010
1000
0001
0000
0010
0000
0200
0000
,
0300
0020
0030
0002
,
0003
2000
3000
1001
;

//---------------dance-single - ----------------
#NOTEDATA:;
#CHARTNAME:;
#STEPSTYPE:dance-single;
#DESCRIPTION:;
#CHARTSTYLE:;
#DIFFICULTY:Easy;
#METER:3;
#RADARVALUES:0.216068,0.273037,0.202249,0.307771,0.000000,114.000000,23.000000,35.000000,0.000000,0.000000,0.000000,0.000000,0.000000,0.216068,0.273037,0.202249,0.307771,0.000000,114.000000,23.000000,35.000000,0.000000,0.000000,0.000000,0.000000,0.000000;
#CREDIT:;
#NOTES:
0000
0000
0000
0000
,
0000
0000
0000
0000
,
0000
0000
0000
0000
,
0000
0000
0000
0000
,
0020
0030
0100
0001
,
0001
0000
1000
0001
,
0200
0300
0001
1000
,
1000
0000
0100
1000
,
0020
0030
0100
0001
,
0001
0000
1000
0001
,
0200
0300
0001
1000
,
0001
0000
1000
0010
,
0200
0000
0000
0300
,
0200
0000
0000
0300
,
0020
0000
0000
0030
,
0020
0000
0000
0030
,
1000
1000
1000
1000
,
0001
0001
0001
0001
,
0100
0010
1000
0001
,
2002
0000
0000
0000
0000
0000
0000
3003
,
0202
0000
0000
0303
,
2200
0000
0000
3300
,
2002
0000
0000
3003
,
1010
0010
0010
0000
,
2020
0000
0000
3030
,
0022
0000
0000
0033
,
2002
0000
0000
3003
,
0001
0100
0010
1000
,
1020
0000
0000
1030
,
0201
0000
0000
0301
,
2001
0000
0000
3010
,
0110
0100
0100
0000
,
2001
0000
0000
3010
,
0210
0000
0000
0310
,
2001
0000
0000
3010
,
0000
0000
0010
0100
,
0001
0010
0000
0001
,
1000
0001
0100
0220
,
0000
0000
0330
0010
,
0010
0010
0100
0001
,
1000
0100
0000
1000
,
0000
0001
0000
2020
,
0000
0000
0000
3030
,
0000
0000
1000
0002
,
0003
0100
0001
0001
,
0000
1000
0100
0120
,
0000
0130
1000
1001
,
1001
1001
1001
0002
,
0003
0100
0001
1000
,
0100
0010
0001
1000
,
0000
0001
0000
0100
,
0000
0010
0000
1001
;

//---------------dance-single - ----------------
#NOTEDATA:;
#CHARTNAME:;
#STEPSTYPE:dance-single;
#DESCRIPTION:;
#CHARTSTYLE:;
#DIFFICULTY:Beginner;
#METER:1;
#RADARVALUES:0.099240,0.091012,0.017587,0.000000,0.000000,77.000000,2.000000,0.000000,0.000000,0.000000,0.000000,0.000000,0.000000,0.099240,0.091012,0.017587,0.000000,0.000000,77.000000,2.000000,0.000000,0.000000,0.000000,0.000000,0.000000,0.000000;
#CREDIT:;
#NOTES:
// measure 0
0000
0000
0000
0000
,  // measure 1
0000
0000
0000
0000
,  // measure 2
0000
0000
0000
0000
,  // measure 3
0000
0000
0000
0000
,  // measure 4
0010
0000
0000
0000
,  // measure 5
0100
0000
0001
1000
,  // measure 6
0100
0000
1000
0000
,  // measure 7
0000
0000
0001
0000
,  // measure 8
0010
0000
0001
0000
,  // measure 9
0000
0000
1000
1000
,  // measure 10
0100
0000
1000
0000
,  // measure 11
0000
0000
0001
1000
,  // measure 12
0010
0000
0000
0000
,  // measure 13
0100
0000
0000
0000
,  // measure 14
0001
0000
0000
0000
,  // measure 15
1000
0000
0000
0000
,  // measure 16
0010
0000
0100
0000
,  // measure 17
0001
0000
1000
0000
,  // measure 18
0010
0000
0100
0000
,  // measure 19
0010
0000
0000
0000
,  // measure 20
0010
0000
0000
0100
,  // measure 21
0010
0000
0000
0000
,  // measure 22
0001
0000
0000
1000
,  // measure 23
0010
0000
0100
0000
,  // measure 24
0001
0000
0000
0000
,  // measure 25
0001
0000
0000
0000
,  // measure 26
0001
0000
0000
0000
,  // measure 27
1000
0000
0001
0000
,  // measure 28
0100
0000
0000
0010
,  // measure 29
0100
0000
0000
0000
,  // measure 30
0100
0000
0000
0000
,  // measure 31
0010
0000
1000
0000
,  // measure 32
0001
0000
0000
1000
,  // measure 33
1000
0000
0000
0000
,  // measure 34
0010
0000
0000
0000
,  // measure 35
0100
0000
0000
0010
,  // measure 36
0000
0000
0000
0100
,  // measure 37
0000
0001
0000
1001
,  // measure 38
0000
0000
0000
1000
,  // measure 39
1000
1000
0000
0001
,  // measure 40
0000
0000
0000
0100
,  // measure 41
0000
0010
0000
1001
,  // measure 42
0000
0000
0000
0100
,  // measure 43
0000
1000
0000
0010
,  // measure 44
0000
0000
0000
0100
,  // measure 45
0000
0010
0000
1000
,  // measure 46
0000
0000
0000
0001
,  // measure 47
0001
0001
0000
0001
,  // measure 48
0000
1000
0000
0000
,  // measure 49
0010
0010
0000
0100
,  // measure 50
0000
0010
0000
1000
,  // measure 51
0000
0000
0000
0001
;
