#TITLE:3!dolon Forc3;
#SUBTITLE:;
#ARTIST:青龍×Eagle;
#TITLETRANSLIT:;
#SUBTITLETRANSLIT:;
#ARTISTTRANSLIT:;
#GENRE:;
#CREDIT:;
#BANNER:3!dolon Forc3.png;
#BACKGROUND:3!dolon Forc3-bg.png;
#LYRICSPATH:;
#CDTITLE:;
#MUSIC:3!dolon Forc3.ogg;
#OFFSET:-2.477999;
#SAMPLESTART:33.891613;
#SAMPLELENGTH:20.104710;
#SELECTABLE:YES;
#DISPLAYBPM:*;
#BPMS:0.000000=191.000000
,164.000000=191.500000
,180.000000=191.000000
,292.000000=382.000000
,420.000000=191.000000
;
#STOPS:
;
#BGCHANGES:;
#KEYSOUNDS:;
#ATTACKS:;

//---------------dance-single - ----------------
#NOTES:
     dance-single:
     :
     Hard:
     12:
     0.850426,1.176222,0.498901,0.355150,0.283274,704.000000,645.000000,59.000000,42.000000,0.000000,0.000000,0.850426,1.176222,0.498901,0.355150,0.283274,704.000000,645.000000,59.000000,42.000000,0.000000,0.000000:
// measure 0
0000
0000
0000
0000
,  // measure 1
1001
0000
0001
0000
0100
0010
0000
1000
,  // measure 2
0000
0100
0000
0001
0000
0100
0010
0001
,  // measure 3
1000
0000
0001
0000
1000
0010
0000
1000
,  // measure 4
0000
0010
0000
0001
0000
0010
0100
0001
,  // measure 5
1000
0000
0010
0000
0100
0001
0000
0010
,  // measure 6
0000
1000
0000
0010
0000
0100
0010
0001
,  // measure 7
1000
0000
0010
0000
0100
0001
0000
1000
,  // measure 8
0000
0100
0000
0001
0000
0100
0010
0001
,  // measure 9
1000
0000
1001
0000
0000
0000
0001
0000
0101
0000
0001
0100
0000
0010
1000
0000
,  // measure 10
0100
0000
1100
0000
0000
0000
0100
0000
0010
0000
0001
1000
0010
1000
0001
0000
,  // measure 11
1000
0000
1100
0000
0000
0000
0100
0000
0110
0000
0010
0001
0000
1000
0100
0000
,  // measure 12
1000
0000
1010
0000
0000
0000
0100
0000
0101
0000
0001
0100
0010
1000
0001
0000
,  // measure 13
1000
0010
1000
0100
1000
0010
1000
0001
,  // measure 14
0001
0100
0001
0010
0001
0100
0001
1000
,  // measure 15
0001
0100
0010
0100
0001
1000
0100
0010
0100
1000
0010
0100
0001
0010
0100
1000
,  // measure 16
0002
0000
0203
0000
2300
0000
3020
0000
0032
0003
0200
0000
2300
0002
0000
3003
,  // measure 17
0110
0000
1010
0000
1000
0100
0000
1100
,  // measure 18
0000
0000
0101
0000
0000
0000
1100
0000
1000
0010
0000
0100
0001
0000
0010
0000
,  // measure 19
0110
0000
0011
0000
0001
0100
0000
1010
,  // measure 20
0000
0011
0000
1010
0000
0001
0010
0100
,  // measure 21
0110
0000
0011
0000
0001
0100
0000
1010
,  // measure 22
0000
0000
1100
0000
0000
0000
1010
0000
1000
0001
0000
0010
0100
0000
0010
0000
,  // measure 23
0011
0000
0101
0000
0001
1000
0000
1010
,  // measure 24
0000
1100
0000
1010
0000
1100
0000
1010
,  // measure 25
1000
0020
0000
0130
0002
0000
0013
0000
,  // measure 26
0001
1000
0010
1000
0001
0010
0001
1000
,  // measure 27
0010
0200
0000
0310
2000
0000
3100
0000
,  // measure 28
1000
0001
0100
0001
1000
0100
1000
0001
,  // measure 29
0100
0020
0000
0130
0002
0000
1003
0000
,  // measure 30
0001
1000
0010
1000
0001
0010
0001
1000
,  // measure 31
0010
0200
0000
0310
0000
0100
0000
0100
,  // measure 32
0100
0000
0100
0000
0100
0010
0100
0010
0100
0000
0010
0000
1001
0000
0000
0000
,  // measure 33
1000
0001
0100
0001
1000
0100
0001
0100
,  // measure 34
0010
0010
0001
0100
0010
0010
0100
0001
,  // measure 35
1000
0001
1000
0100
0010
0100
1000
0001
,  // measure 36
1000
1000
0001
0100
0010
0010
0100
0001
,  // measure 37
1000
0001
0100
0001
1000
0100
0010
0100
,  // measure 38
1000
1000
0001
0100
0010
0010
0100
0001
,  // measure 39
1000
0010
0000
0100
0000
0010
0000
0010
,  // measure 40
0010
0000
0010
0000
0010
0100
0010
0100
0010
0000
0100
0000
1001
0000
0000
0000
,  // measure 41
0110
0000
0000
0000
,  // measure 42
0000
0000
0000
0000
,  // measure 43
0000
0000
0000
0000
,  // measure 44
0000
0000
0000
0000
,  // measure 45
1000
0000
0001
0000
0010
0100
0000
0010
,  // measure 46
0000
0000
0001
0000
0000
0000
1000
0000
0001
0100
0000
0010
1000
0000
0001
0000
,  // measure 47
0100
0000
0001
0000
0010
0100
0000
1000
,  // measure 48
0000
0100
0000
0010
0000
0100
0010
0001
,  // measure 49
1000
0000
1001
0000
0000
0000
0001
0000
0101
0000
0001
0010
0000
0100
1000
0000
,  // measure 50
0001
0000
1001
0000
0000
0000
1000
0000
1010
0000
1000
0001
0010
0001
1000
0000
,  // measure 51
0010
0000
0110
0000
0000
0000
0100
0000
0101
0000
0001
0010
0000
0100
1000
0000
,  // measure 52
0001
0000
1001
0000
0000
0000
0100
0000
0110
0000
0100
0010
1000
0001
0010
0000
,  // measure 53
0100
0010
0001
0100
0010
1000
0001
1000
,  // measure 54
0010
1000
0100
1000
0010
0100
0001
0010
,  // measure 55
0100
0010
0001
0100
0010
1000
0001
0100
0010
1000
0100
0010
0100
1000
0001
0100
,  // measure 56
0002
0000
0203
0000
2300
0000
3020
0000
0032
0000
0023
0000
2030
0002
3003
0000
,  // measure 57
0110
0100
0001
0000
0010
0001
1000
0100
,  // measure 58
0001
0000
0100
0000
1000
0000
0010
0000
0100
0001
0000
0001
0010
0000
0100
0000
,  // measure 59
0010
0001
0100
0000
0010
1000
0001
0010
,  // measure 60
1000
0010
0001
0010
1000
0100
0010
0001
,  // measure 61
1000
0010
0110
0000
0100
0010
1000
0001
,  // measure 62
0010
0000
0001
0000
0010
0000
0100
0000
1000
0100
0000
0100
0001
0000
0100
0000
,  // measure 63
1000
0001
0100
0000
0010
1000
0001
0011
,  // measure 64
0000
1100
0000
0101
0000
0100
0010
1000
,  // measure 65
0001
0100
0010
0000
0100
0010
1000
0000
0001
1000
0100
0000
1000
0000
0001
0100
,  // measure 66
0001
0000
0100
0010
0100
0000
0010
1000
0010
0100
0000
0100
0010
0000
1000
0000
,  // measure 67
0001
0010
0100
0000
0010
0001
0100
0000
0010
1000
0100
0000
1000
0000
0001
0000
,  // measure 68
0000
1010
0000
0101
0000
0011
0010
0100
,  // measure 69
1000
0001
0100
0000
0010
1000
0001
0000
1000
0001
0100
0000
0010
0000
0100
0001
,  // measure 70
0010
0000
0100
0010
0001
0000
0010
0001
1000
0001
0000
0100
0010
0000
1000
0000
,  // measure 71
0001
0010
0100
1000
0100
0010
0100
1000
,  // measure 72
0001
0100
0010
1000
0001
0100
0010
1000
,  // measure 73
2001
0000
0000
3100
0000
0000
0010
0000
,  // measure 74
0012
0000
0000
0103
0000
0000
0010
0000
,  // measure 75
2010
0000
0000
3100
0000
0000
0010
0000
,  // measure 76
0012
0000
0000
0103
0000
0000
0010
0000
,  // measure 77
1002
0000
0000
0103
0000
0000
0010
0000
,  // measure 78
2001
0000
0000
3010
0000
0000
1000
0000
,  // measure 79
0001
0020
0000
0031
,  // measure 80
2000
0000
3020
0000
,  // measure 81
0230
0000
0000
0301
0000
0000
0100
0000
,  // measure 82
1020
0000
0000
1030
0000
0000
0100
0000
,  // measure 83
2001
0000
0000
3001
0000
0000
0010
0000
,  // measure 84
0210
0000
0000
1300
0000
0000
0001
0000
,  // measure 85
1000
0100
0001
0100
,  // measure 86
1000
0100
0001
0100
,  // measure 87
0010
0001
0010
0001
,  // measure 88
0010
0000
0001
0000
0010
0001
0010
0001
,  // measure 89
0010
0000
0001
0100
0000
0010
1000
0000
,  // measure 90
0001
0000
1000
0100
0000
0010
0001
0000
,  // measure 91
1000
0000
0001
0100
0000
0010
1000
0000
,  // measure 92
0100
0000
1000
0001
0000
0100
0010
0000
,  // measure 93
1000
0000
1000
0100
0000
0100
0001
0000
,  // measure 94
0001
0000
0001
0100
0000
0100
1000
0000
,  // measure 95
1000
0000
1000
0010
0000
0010
0001
0000
,  // measure 96
0001
0000
0001
0010
0000
0010
1000
0000
,  // measure 97
0002
0000
0103
0010
0000
1000
0100
0000
,  // measure 98
0020
0000
0130
1000
0000
0100
0010
0000
,  // measure 99
0002
0000
1003
0010
0000
0100
0001
0000
,  // measure 100
2000
0000
3100
0010
0000
0010
0001
0000
,  // measure 101
1000
0001
1000
0001
1000
0001
1000
0001
,  // measure 102
1000
0001
1000
0001
1000
0001
1000
0001
,  // measure 103
0010
0000
0010
0000
0010
0100
0010
0100
,  // measure 104
0010
0001
1000
0000
,  // measure 105
0220
0000
0000
0000
,  // measure 106
0000
0000
0000
0000
,  // measure 107
0330
0000
0000
0000
;

//---------------dance-single - ----------------
#NOTES:
     dance-single:
     :
     Medium:
     9:
     0.646276,0.799087,0.329782,0.312870,0.054964,535.000000,496.000000,39.000000,37.000000,0.000000,0.000000,0.646276,0.799087,0.329782,0.312870,0.054964,535.000000,496.000000,39.000000,37.000000,0.000000,0.000000:
// measure 0
0000
0000
0000
0000
,  // measure 1
1001
0000
0001
0000
0010
0001
0000
0100
,  // measure 2
0000
0010
0000
1000
0000
0000
0001
1000
,  // measure 3
0100
0000
1000
0000
0010
0100
0000
0001
,  // measure 4
0000
0010
0000
0001
0000
0010
0100
1000
,  // measure 5
0001
0000
1000
0000
0010
0100
0000
0001
,  // measure 6
0000
0010
0000
0001
0000
0000
1000
0001
,  // measure 7
0100
0000
0010
0000
1000
0001
0000
0010
,  // measure 8
0000
0100
0000
0010
0000
0100
0010
0001
,  // measure 9
1000
0000
1001
0000
1000
0001
0100
0000
,  // measure 10
0101
0000
1010
0000
1000
0100
0001
0100
,  // measure 11
1100
0000
1010
0000
1000
0010
0100
0000
,  // measure 12
0011
0000
1010
0000
1000
0001
0010
0100
,  // measure 13
0010
0000
0001
0000
0000
0000
1000
0000
0001
0000
0000
0100
0000
0000
0001
0000
,  // measure 14
1000
0100
0000
0010
0100
1000
0010
0100
,  // measure 15
0001
0000
1000
0000
0000
0010
0100
0000
0001
0000
1000
0010
0000
0100
0001
0000
,  // measure 16
2000
3200
0320
0032
0023
0230
2300
3000
,  // measure 17
1001
0000
0101
0000
0001
0100
0000
0001
,  // measure 18
0000
0010
0000
0001
0000
0010
0100
1000
,  // measure 19
0001
0000
1000
0000
0010
0100
0000
0001
,  // measure 20
0000
0100
0000
0001
0000
0010
0001
1000
,  // measure 21
0001
0000
1000
0000
0010
1000
0000
0100
,  // measure 22
0000
0010
0000
0100
0000
0010
0001
1000
,  // measure 23
0010
0000
0100
0000
0001
0100
0000
0001
,  // measure 24
0000
1000
0000
0001
0000
1000
0000
0001
,  // measure 25
0010
0200
0000
1300
0020
0000
0000
0030
,  // measure 26
0100
1000
0100
0001
0100
1000
0100
0001
,  // measure 27
0000
0010
0000
0100
2000
0000
0000
3000
,  // measure 28
0001
0010
1000
0010
0001
0010
1000
0010
,  // measure 29
0000
0001
0000
1000
0020
0000
0000
0030
,  // measure 30
1000
0001
0010
0001
1000
0010
1000
0001
,  // measure 31
0000
1000
0000
0001
0000
1000
0000
0001
,  // measure 32
1000
0000
0001
0000
1000
0001
1000
0000
0010
0000
0100
0000
1000
0000
0000
0000
,  // measure 33
0010
0100
0001
1000
,  // measure 34
0001
0100
0001
1000
0100
0010
0001
1000
,  // measure 35
0010
1000
0100
0010
,  // measure 36
0100
0010
0001
0100
0010
0100
0001
1000
,  // measure 37
0100
1000
0010
0100
,  // measure 38
0001
0100
0010
0100
0001
1000
0100
0010
,  // measure 39
0000
0100
0000
0010
0000
0001
0000
1000
,  // measure 40
0010
0000
0100
0000
0001
1000
0001
0000
0010
0000
0100
0000
1000
0000
0000
0000
,  // measure 41
0110
0000
0000
0000
,  // measure 42
0000
0000
0000
0000
,  // measure 43
0000
0000
0000
0000
,  // measure 44
0000
0000
0000
0000
,  // measure 45
1000
0000
0001
0000
0100
0001
0000
0010
,  // measure 46
0000
0000
0001
0000
0000
0000
0010
0000
0000
0100
0000
0000
1000
0000
0000
0000
,  // measure 47
0100
0000
1000
0000
0010
0100
0000
0001
,  // measure 48
0000
1000
0000
0100
0000
1000
0001
0100
,  // measure 49
0010
0000
1000
0000
0000
0000
1000
0000
0001
0000
0000
0010
0000
0000
0001
0000
,  // measure 50
0100
0010
0000
0100
0010
1000
0001
0010
,  // measure 51
0100
0000
0010
0000
0000
0000
0010
0000
0100
0000
0000
1000
0000
0000
0010
0000
,  // measure 52
0100
0001
0000
1000
0001
0010
0001
1000
,  // measure 53
0010
0000
0100
0000
0000
0000
0100
0000
0001
0000
0000
0011
0000
0000
1100
0000
,  // measure 54
1000
0100
0000
0100
0010
0001
0100
0010
,  // measure 55
1000
0000
0001
0000
0000
1000
0010
0000
0100
0000
0001
0010
0000
0100
1000
0000
,  // measure 56
0002
0023
0230
2300
3200
0320
0032
0003
,  // measure 57
1001
0000
1010
0000
1000
0100
0000
1010
,  // measure 58
0000
0101
0000
0011
0000
0100
0010
0001
,  // measure 59
0100
0000
0101
0000
0001
0010
0000
0011
,  // measure 60
0000
1010
0000
0011
0000
0010
1000
0010
,  // measure 61
0001
0000
0101
0000
0100
0010
0000
1010
,  // measure 62
0000
0101
0000
1010
0000
1000
0001
0010
,  // measure 63
0100
0000
0011
0000
0001
0100
0000
0101
,  // measure 64
0000
0011
0000
0110
0000
0100
0010
0001
,  // measure 65
1000
0001
0100
0000
0001
0100
0010
1000
,  // measure 66
0000
1010
0000
0101
0000
0100
0001
0010
,  // measure 67
0100
0010
0001
0000
0010
0001
0100
0010
,  // measure 68
0000
1010
0000
1100
0000
0100
0010
0001
,  // measure 69
1000
0010
1000
0000
0010
0100
0001
0010
,  // measure 70
0000
0110
0000
0011
0000
0010
0001
1000
,  // measure 71
0001
0100
0001
0100
0010
1000
0010
1000
,  // measure 72
0100
1000
0100
1000
0100
0010
0001
1000
,  // measure 73
0010
0000
0000
1000
0000
0000
0100
0000
,  // measure 74
0010
0000
0000
0001
0000
0000
0100
0000
,  // measure 75
0010
0000
0000
1000
0000
0000
0001
0000
,  // measure 76
0010
0000
0000
0001
0000
0000
1000
0000
,  // measure 77
0010
0000
0000
0100
0000
0000
0001
0000
,  // measure 78
0010
0000
0000
0100
0000
0000
0010
0000
,  // measure 79
0001
0200
0000
0320
,  // measure 80
2000
0000
3030
0000
,  // measure 81
1000
0000
0000
0010
0000
0000
0100
0000
,  // measure 82
0001
0000
0000
0010
0000
0000
0100
0000
,  // measure 83
0010
0000
0000
0001
0000
0000
1000
0000
,  // measure 84
0010
0000
0000
0100
0000
0000
0010
0000
,  // measure 85
1000
0100
0010
0001
,  // measure 86
1000
0100
0010
0001
,  // measure 87
1000
0001
1000
0001
,  // measure 88
1000
0000
0001
0000
1000
0001
1000
0001
,  // measure 89
0200
0000
0000
0310
0000
0000
1000
0000
,  // measure 90
0200
0000
0000
0310
0000
0000
0001
0000
,  // measure 91
2000
0000
0000
3001
0000
0000
0100
0000
,  // measure 92
0002
0000
0000
0013
0000
0000
0100
0000
,  // measure 93
2000
0000
0000
3010
0000
0000
0100
0000
,  // measure 94
0002
0000
0000
1003
0000
0000
0100
0000
,  // measure 95
0020
0000
0000
0031
0000
0000
0010
0000
,  // measure 96
0200
0000
0000
1300
0000
0000
0100
0000
,  // measure 97
0020
0000
0000
0032
0000
0103
0010
0000
,  // measure 98
0200
0000
0000
0320
0000
1030
0001
0000
,  // measure 99
0200
0000
0000
0320
0000
1030
0100
0000
,  // measure 100
0020
0000
0000
0230
0000
0310
0001
0000
,  // measure 101
1000
0001
0100
0000
0000
0000
0000
0000
,  // measure 102
0000
0100
0000
0100
,  // measure 103
0010
0000
0100
0000
0010
0100
0010
0100
,  // measure 104
0010
1010
1100
0000
,  // measure 105
1001
0000
0000
0000
;

//---------------dance-single - ----------------
#NOTES:
     dance-single:
     :
     Easy:
     7:
     0.461453,0.577118,0.253678,0.076104,0.000000,382.000000,352.000000,30.000000,9.000000,0.000000,0.000000,0.461453,0.577118,0.253678,0.076104,0.000000,382.000000,352.000000,30.000000,9.000000,0.000000,0.000000:
// measure 0
0000
0000
0000
0000
,  // measure 1
1000
0000
0001
0000
,  // measure 2
0100
0010
0100
0000
,  // measure 3
0001
0000
1000
0000
,  // measure 4
0010
0100
0010
1000
,  // measure 5
0100
0000
0010
0000
,  // measure 6
0001
1000
0001
0000
,  // measure 7
0100
0000
0010
0000
,  // measure 8
0100
0010
0100
0001
,  // measure 9
1001
0000
0001
1000
,  // measure 10
1010
0000
1000
0100
,  // measure 11
0011
0000
0001
0100
,  // measure 12
1010
0000
1000
0100
,  // measure 13
0011
0001
0100
0010
,  // measure 14
1010
1000
0010
0100
,  // measure 15
1001
0001
0100
0010
,  // measure 16
1000
0001
1000
0001
1000
0001
0010
0000
,  // measure 17
0001
1000
0001
0000
0000
0100
0001
0000
,  // measure 18
1000
0000
0001
0010
0000
0010
0001
0000
,  // measure 19
1000
0010
1000
0000
0000
0100
0010
0000
,  // measure 20
0100
0000
1000
0001
0000
0001
1000
0000
,  // measure 21
0001
0100
0001
0000
0000
0100
0010
0000
,  // measure 22
0100
0000
0010
1000
0000
1000
0010
0000
,  // measure 23
0100
0100
0010
0010
,  // measure 24
1000
0001
0010
0001
,  // measure 25
1000
0001
0000
0100
0020
0000
0000
0030
,  // measure 26
0001
0101
0100
0101
,  // measure 27
0000
0001
0000
1000
0200
0000
0000
0300
,  // measure 28
0010
0110
0100
0110
,  // measure 29
0000
0010
0000
0001
2000
0000
0000
3000
,  // measure 30
0010
1010
1000
1010
,  // measure 31
0000
1000
0000
0001
0000
0010
0000
0001
,  // measure 32
1000
0000
0100
0000
0010
0001
0100
0000
,  // measure 33
0001
1000
0000
0010
0200
0000
0000
0300
,  // measure 34
0010
1010
1000
1010
,  // measure 35
0000
1000
0000
0001
0020
0000
0000
0030
,  // measure 36
0100
0110
0010
0110
,  // measure 37
0000
0100
0000
1000
0002
0000
0000
0003
,  // measure 38
0100
0101
0001
0101
,  // measure 39
0000
0001
0000
1000
0000
0100
0000
1000
,  // measure 40
0001
0000
0010
0000
0100
1000
0010
0000
,  // measure 41
1001
0000
0000
0000
,  // measure 42
0000
0000
0000
0000
,  // measure 43
0000
0000
0000
0000
,  // measure 44
0000
0000
0000
0000
,  // measure 45
1000
0001
0010
0001
,  // measure 46
1000
0000
0100
0000
1000
0000
0010
0100
,  // measure 47
0001
0100
0010
1000
,  // measure 48
0100
1000
0010
0100
,  // measure 49
1001
0000
0001
0100
,  // measure 50
1010
0000
1000
0100
,  // measure 51
0011
0000
0001
1000
,  // measure 52
1100
0000
1000
0001
,  // measure 53
0101
0000
0001
1000
,  // measure 54
0110
0000
0100
0010
,  // measure 55
1001
0000
0001
1000
,  // measure 56
0010
0100
0010
0100
0010
0100
0001
0000
,  // measure 57
0100
0010
1000
0010
,  // measure 58
0100
0000
0001
0000
1000
0000
0100
0010
,  // measure 59
0001
0010
0100
1000
,  // measure 60
0100
0000
1000
0000
0010
0000
0100
0010
,  // measure 61
1000
0001
0010
0001
,  // measure 62
1000
0000
0100
0000
1000
0000
0010
0100
,  // measure 63
0001
0100
0010
1000
,  // measure 64
0001
0000
0010
0000
0100
0010
0001
0100
,  // measure 65
0010
0000
1000
0000
0010
1000
0000
0010
,  // measure 66
0000
1000
0000
0010
0000
0000
0100
0010
,  // measure 67
1000
0000
0001
0000
0010
0100
0000
0010
,  // measure 68
0000
0001
0000
0010
0000
0100
0010
0001
,  // measure 69
1000
0000
0001
0000
0100
0010
0000
1000
,  // measure 70
0000
0001
0000
1000
0000
0000
0001
0100
,  // measure 71
0001
0010
0100
1000
,  // measure 72
0001
0010
0100
1000
,  // measure 73
0001
0000
0100
0000
,  // measure 74
0001
0000
1000
0000
,  // measure 75
0100
0000
1000
0000
,  // measure 76
0010
0000
0100
0000
,  // measure 77
0001
0000
1000
0000
,  // measure 78
0010
0000
0100
0000
,  // measure 79
0000
0010
0000
1000
,  // measure 80
0002
0000
0000
0003
,  // measure 81
1000
0000
0010
0000
,  // measure 82
0100
0000
0001
0000
,  // measure 83
0100
0000
0010
0000
,  // measure 84
1000
0000
0001
0000
,  // measure 85
1000
0100
0010
0001
,  // measure 86
1000
0100
0010
0001
,  // measure 87
0010
0000
0010
0000
,  // measure 88
0010
0000
0010
0100
,  // measure 89
0010
0001
0000
0001
,  // measure 90
0000
0001
1000
0001
,  // measure 91
0000
0100
0000
0010
,  // measure 92
0000
0100
0000
0100
,  // measure 93
0000
0002
0000
1003
,  // measure 94
0200
0000
0000
0000
,  // measure 95
1300
0000
1001
0000
,  // measure 96
0010
0000
0110
0000
,  // measure 97
0001
1000
0000
1000
,  // measure 98
0000
1000
0010
1000
,  // measure 99
0001
1000
0010
1000
,  // measure 100
0001
0010
0001
1000
,  // measure 101
0100
0010
0000
0010
,  // measure 102
0000
0010
0000
0010
,  // measure 103
0100
0010
0001
0100
,  // measure 104
1000
0100
0001
0000
,  // measure 105
1001
0000
0000
0000
;

//---------------dance-single - ----------------
#NOTES:
     dance-single:
     :
     Beginner:
     3:
     0.173951,0.355150,0.093015,0.000000,0.000000,144.000000,133.000000,11.000000,0.000000,0.000000,0.000000,0.173951,0.355150,0.093015,0.000000,0.000000,144.000000,133.000000,11.000000,0.000000,0.000000,0.000000:
// measure 0
0000
0000
0000
0000
,  // measure 1
1000
0000
0000
0000
,  // measure 2
0000
0000
0000
0000
,  // measure 3
0001
0000
0000
0000
,  // measure 4
0000
0000
0000
0000
,  // measure 5
0100
0000
0000
0000
,  // measure 6
0000
0000
0000
0000
,  // measure 7
0010
0000
0000
0000
,  // measure 8
0000
0000
0000
0000
,  // measure 9
1000
0000
0000
0000
,  // measure 10
0001
0000
0000
0000
,  // measure 11
1000
0000
0000
0000
,  // measure 12
0001
0000
0000
0000
,  // measure 13
0100
0000
0000
0000
,  // measure 14
0010
0000
0000
0000
,  // measure 15
0100
0000
0000
0000
,  // measure 16
0010
0010
0010
0010
,  // measure 17
1000
0000
0000
0000
,  // measure 18
0001
0000
0000
0000
,  // measure 19
0100
0000
0000
0000
,  // measure 20
0010
0000
0000
0000
,  // measure 21
1000
0000
0000
0000
,  // measure 22
0001
0000
0000
0000
,  // measure 23
0010
0000
0000
0000
,  // measure 24
0001
0000
0000
0000
,  // measure 25
1000
0000
0000
0000
,  // measure 26
0001
0000
1000
0000
,  // measure 27
0010
0000
0000
0000
,  // measure 28
0100
0000
0010
0000
,  // measure 29
1000
0000
0000
0000
,  // measure 30
0001
0000
0010
0000
,  // measure 31
0100
0000
0000
0100
,  // measure 32
0100
0000
0010
0000
,  // measure 33
0001
0000
0000
0000
,  // measure 34
1000
0000
0001
0000
,  // measure 35
0100
0000
0000
0000
,  // measure 36
0010
0000
1000
0000
,  // measure 37
0100
0000
0000
0000
,  // measure 38
0010
0000
0001
0000
,  // measure 39
1000
0000
0000
0001
,  // measure 40
0001
0000
1000
0000
,  // measure 41
0110
0000
0000
0000
,  // measure 42
0000
0000
0000
0000
,  // measure 43
0000
0000
0000
0000
,  // measure 44
0000
0000
0000
0000
,  // measure 45
0010
0000
0000
0000
,  // measure 46
0000
0000
0000
0000
,  // measure 47
0100
0000
0000
0000
,  // measure 48
0000
0000
0000
0000
,  // measure 49
1001
0000
0000
0000
,  // measure 50
0010
0000
0000
0000
,  // measure 51
1001
0000
0000
0000
,  // measure 52
0100
0000
0000
0000
,  // measure 53
1001
0000
0001
0000
,  // measure 54
1001
0000
1000
0000
,  // measure 55
0110
0000
0100
0000
,  // measure 56
0010
0010
0010
0010
,  // measure 57
1000
0000
0000
0000
,  // measure 58
0001
0000
0000
0000
,  // measure 59
0100
0000
0000
0000
,  // measure 60
0010
0000
1000
0000
,  // measure 61
0001
0000
0000
0000
,  // measure 62
1000
0000
0000
0000
,  // measure 63
0100
0000
0000
0000
,  // measure 64
0010
0000
0100
0000
,  // measure 65
1000
1000
1000
0000
,  // measure 66
0001
0000
0100
0000
,  // measure 67
0010
0010
0010
0000
,  // measure 68
0100
0000
0001
0000
,  // measure 69
1000
1000
1000
0000
,  // measure 70
0100
0000
0010
0000
,  // measure 71
0001
0000
0100
0000
,  // measure 72
0010
0000
1000
0000
,  // measure 73
1001
0000
0000
0000
,  // measure 74
0001
0000
0000
0000
,  // measure 75
1000
0000
0000
0000
,  // measure 76
0010
0000
0000
0000
,  // measure 77
1000
0000
0000
0000
,  // measure 78
0001
0000
0000
0000
,  // measure 79
0100
0000
0000
0000
,  // measure 80
0010
0000
0000
0000
,  // measure 81
0100
0000
0000
0000
,  // measure 82
0010
0000
0000
0000
,  // measure 83
1000
0000
0000
0000
,  // measure 84
0001
0000
0000
0000
,  // measure 85
0010
0000
0000
0000
,  // measure 86
0001
0000
0000
0000
,  // measure 87
1000
0000
1000
0000
,  // measure 88
1000
0000
1000
0000
,  // measure 89
0001
0000
0000
0000
,  // measure 90
1000
0000
0000
0000
,  // measure 91
0010
0000
0000
0000
,  // measure 92
1000
0000
0000
0000
,  // measure 93
0100
0000
0000
0000
,  // measure 94
1000
0000
0000
0000
,  // measure 95
0001
0000
0000
0000
,  // measure 96
0100
0000
0000
0000
,  // measure 97
0110
0000
0000
0000
,  // measure 98
0010
0000
0000
0000
,  // measure 99
1001
0000
0000
0000
,  // measure 100
0100
0000
0000
0000
,  // measure 101
1001
0000
0000
0000
,  // measure 102
0000
0001
0000
0000
,  // measure 103
1000
0000
0001
0000
,  // measure 104
0100
0010
0100
0000
,  // measure 105
1001
0000
0000
0000
;
