#VERSION:0.83;
#TITLE:[un]certain happiness;
#SUBTITLE:;
#ARTIST:REDSHiFT;
#TITLETRANSLIT:uncertain happiness;
#SUBTITLETRANSLIT:;
#ARTISTTRANSLIT:;
#GENRE:;
#ORIGIN:;
#CREDIT:;
#BANNER:[un]certain happiness.png;
#BACKGROUND:[un]certain happiness-bg.png;
#PREVIEWVID:;
#JACKET:[un]certain happiness-jacket.png;
#CDIMAGE:;
#DISCIMAGE:maxresdefault.jpg;
#LYRICSPATH:;
#CDTITLE:;
#MUSIC:[un]certain happiness.ogg;
#OFFSET:0.006000;
#SAMPLESTART:33.865353;
#SAMPLELENGTH:10.941177;
#SELECTABLE:YES;
#BPMS:0.000=170.000;
#STOPS:;
#DELAYS:;
#WARPS:;
#TIMESIGNATURES:0.000=4=4;
#TICKCOUNTS:0.000=4;
#COMBOS:0.000=1;
#SPEEDS:0.000=1.000=0.000=0;
#SCROLLS:0.000=1.000;
#FAKES:;
#LABELS:0.000=Song Start;
#BGCHANGES:;
#KEYSOUNDS:;
#ATTACKS:
;

//---------------dance-single - ----------------
#NOTEDATA:;
#CHARTNAME:;
#STEPSTYPE:dance-single;
#DESCRIPTION:;
#CHARTSTYLE:;
#DIFFICULTY:Hard;
#METER:8;
#RADARVALUES:0.411410,0.526605,0.041141,0.575974,0.027427,420.000000,414.000000,6.000000,84.000000,0.000000,0.000000,0.000000,0.000000,0.000000,0.411410,0.526605,0.041141,0.575974,0.027427,420.000000,414.000000,6.000000,84.000000,0.000000,0.000000,0.000000,0.000000,0.000000;
#CREDIT:;
#NOTES:
0000
0000
0000
0000
,
0000
0000
0000
0000
,
0000
0000
0000
0000
,
0000
0000
0000
0000
,
0000
0000
0000
0000
,
0000
0000
0000
0000
,
0000
0000
0000
0000
,
0000
0000
0000
0000
,
0002
0000
0000
0023
0000
0000
0130
0000
,
0010
0000
0000
0002
0000
0000
1003
0000
,
0020
0000
0000
0000
0000
0000
0130
0002
,
0000
0000
0000
0003
,
2000
0000
0000
3010
0000
0000
0200
0000
,
0000
0000
0302
0000
0000
2003
0000
0000
,
3200
0000
0000
0000
0310
0000
0002
2000
,
0000
0000
0000
3003
,
1001
0000
0001
0100
0000
0100
0010
0000
,
0010
1000
0000
1000
0002
0000
0000
0000
,
0013
0000
0000
0100
0000
0000
0100
0000
,
1000
0000
0001
1000
0000
0100
0010
0010
,
0100
0000
0010
0001
0000
1000
0000
0010
,
0000
1000
0000
0010
0100
0100
0001
0000
,
0010
0000
0000
0100
0000
0000
1000
0000
0000
0000
0001
0000
0000
0000
0100
0000
,
0000
0001
0010
0100
2000
0000
0000
0000
,
3010
0000
0200
0001
0000
0301
1000
0200
,
0300
0000
0010
0000
0000
0000
0100
0000
1000
0001
1000
0001
0200
0000
0000
0000
,
0310
0000
0000
2000
0000
3000
0020
0030
,
0100
0000
0001
0020
0030
1000
0010
0100
,
1000
0000
0002
0010
0003
1000
0200
0310
,
0000
0100
0000
0010
0002
1003
0200
0000
,
0310
0000
0000
0001
0000
0000
2000
0000
0000
0000
3001
0000
0000
0000
0100
0000
,
0000
0000
0010
0000
1000
0001
1000
0001
2000
0000
0000
0000
3001
1000
0001
1000
,
0002
0000
0103
0020
0000
1030
0200
0000
,
0000
0000
0320
0000
0031
0200
0000
0310
,
2000
0000
3001
0200
0000
0310
2000
0000
,
3010
0010
1000
0001
0010
0010
0100
1000
,
0002
0000
1003
0020
0000
0130
0001
0000
,
0020
0000
0130
0010
0000
0010
0001
0000
,
2000
0000
0000
0000
0000
0000
3001
0100
,
1000
0100
0010
1000
0001
0010
1000
0010
,
0200
0000
1300
0020
0000
0130
0002
0000
,
1000
0000
1000
0000
1003
1000
0100
0020
,
0001
0000
0001
0000
0031
0000
1000
0001
,
0020
0000
0130
0002
0000
1003
0001
0200
,
0010
0000
0310
0200
0001
0000
0302
0000
,
1003
0000
0100
0010
0200
0000
2300
0000
,
3020
0000
0130
0000
0100
0010
2000
0002
,
0000
0000
0000
3003
,
0101
0000
0001
2000
0000
3100
0020
0000
,
0001
0000
0130
0020
0000
0130
0002
0000
,
2003
0000
3001
0010
0000
0100
1000
0100
,
0020
0000
0031
0200
0000
1300
0200
0000
,
0302
0000
1000
0000
1003
0001
0100
0000
,
0010
0000
1000
0000
0010
0100
0002
0000
,
0023
0000
0000
0001
0000
0000
0230
0000
,
0301
0100
0010
1000
0001
0010
0100
1000
,
0002
0000
0010
0000
0013
0100
1000
0000
,
0100
0000
1000
0000
0001
1000
0020
0000
,
0230
0000
0301
2000
0000
3001
0020
0000
,
0230
0000
1300
0000
0100
0010
0001
1000
,
0020
0000
1000
0000
0130
0001
0010
0002
,
0023
0000
0001
0000
0032
1003
0020
0230
,
0001
0000
0301
1000
0100
0000
0020
0000
,
0031
0000
0100
0020
0000
2030
0000
3000
,
2002
0000
0000
0000
0000
0000
0000
3003
,
0001
0000
1000
0010
0000
0010
0100
0000
,
0001
0000
1000
0000
0100
0010
1000
0000
,
0010
0010
0001
0100
0100
0010
1000
0001
,
0010
0000
0100
0000
1000
0010
0100
0000
,
0001
0000
0010
0100
0000
0010
0001
0000
,
1000
0000
0010
0000
0100
0001
0010
0000
,
0100
0000
1000
0010
0100
0001
1000
0001
,
2000
0100
0100
0100
,
0001
0001
0001
0001
,
3020
0100
0100
0100
,
1000
1000
1000
1000
,
0230
0001
0001
0001
,
0010
0010
0010
0010
,
0301
0100
0010
1000
,
1001
0001
1001
1000
,
0001
1000
0100
0010
0000
0000
0000
0000
,
0001
0010
0100
0010
0000
0100
0000
0000
,
1000
0100
1000
0001
0000
0000
0000
0000
,
1000
0001
0100
0001
0000
1000
0000
0000
,
0001
0010
0100
0010
0000
0000
0000
0000
,
0100
1000
0001
1000
0000
0010
0000
0000
,
0100
0001
0100
0010
0000
0000
0000
0000
,
0100
0001
1000
0100
0000
0010
0000
0000
,
0001
0010
1000
0010
0000
0000
0000
0000
,
0100
0010
0001
1000
0000
0100
0000
0000
,
0010
0001
0010
1000
0000
0000
0000
0000
,
1000
0010
0001
1000
0000
0001
0000
0000
,
0001
0100
1000
0100
0000
0000
0000
0000
,
0100
0001
1000
0010
0000
1000
0000
0000
,
0001
1000
0001
0010
0000
0000
0000
0000
,
0100
1000
0001
1000
0000
0100
0000
0000
,
1001
0000
0000
0000
;

//---------------dance-single - ----------------
#NOTEDATA:;
#CHARTNAME:;
#STEPSTYPE:dance-single;
#DESCRIPTION:;
#CHARTSTYLE:;
#DIFFICULTY:Easy;
#METER:3;
#RADARVALUES:0.149871,0.263302,0.006857,0.089139,0.000000,153.000000,152.000000,1.000000,13.000000,0.000000,0.000000,0.000000,0.000000,0.000000,0.149871,0.263302,0.006857,0.089139,0.000000,153.000000,152.000000,1.000000,13.000000,0.000000,0.000000,0.000000,0.000000,0.000000;
#CREDIT:;
#NOTES:
0000
0000
0000
0000
,
0000
0000
0000
0000
,
0000
0000
0000
0000
,
0000
0000
0000
0000
,
0000
0000
0000
0000
,
0000
0000
0000
0000
,
0000
0000
0000
0000
,
0000
0000
0000
0000
,
1000
0000
0000
0000
,
0010
0000
0000
0000
,
0100
0000
0000
0000
,
0000
0000
0000
0000
,
0001
0000
0000
0000
,
1000
0000
0000
0000
,
0010
0000
0100
0000
,
0001
0000
0000
0000
,
1000
0000
0000
1000
0000
0000
1000
0000
,
0000
1000
0000
0000
0001
0000
0000
0000
,
0100
0000
0000
0100
0000
0000
0001
0000
,
0100
0000
0000
0010
0000
0000
1000
0000
,
0001
0000
0000
1000
0000
0001
0000
1000
,
0000
0010
0000
1000
0000
0000
0000
0000
,
0010
0000
0000
0100
0000
0100
0000
0100
,
0000
0100
0000
0100
0000
0000
0000
0000
,
0010
0000
0000
0100
0000
0000
0001
0000
,
0000
1000
0000
0000
0100
0000
1000
0000
,
0010
0000
0100
0001
,
1000
0001
0000
1000
,
0001
0000
0000
1000
0000
0010
0000
1000
,
0000
0001
0000
0000
0010
0000
0010
0000
,
0100
0000
0000
0010
0000
0001
0000
0010
,
0000
0100
0000
1000
0000
0000
0000
0000
,
0001
0000
0000
1000
0000
0000
0010
0000
,
0000
0000
1000
0000
0000
0100
0000
0000
,
1000
0000
0000
0010
0000
0000
0100
0000
,
0001
0000
0000
1000
0000
0000
0000
0000
,
0001
0000
0000
1000
0000
0000
0000
0000
,
0100
0000
0000
1000
0000
0000
0010
0000
,
0100
0000
0000
0010
,
1000
0000
0000
0000
,
0010
0000
0000
0100
0000
0000
0001
0000
,
0000
0000
0000
1000
,
0001
0000
0000
0000
,
1000
0000
0000
0001
0000
0000
0100
0000
,
0001
0000
0000
0010
0000
0000
0001
0000
,
0000
1000
0100
1000
,
0010
0000
0000
0100
,
0002
0000
0000
0000
,
1003
0000
0000
0100
0000
0000
1000
0000
,
0000
0000
0000
0010
0000
0000
0100
0000
,
0001
0000
0000
0000
,
0010
0000
0000
0001
0000
0000
1000
0000
,
0001
0000
0000
0000
,
0000
0000
0000
1000
,
0020
0000
0000
0130
0000
0000
2000
0000
,
0000
3000
0000
0000
0100
0000
0010
0000
,
2000
0000
0000
0000
,
0000
0000
3000
0001
,
1000
0000
0000
0100
0000
0000
1000
0000
,
0010
0000
0100
0001
,
0010
0000
0000
0100
,
1000
0000
0100
0010
,
0001
0000
0000
0000
,
1000
0000
0001
0000
,
0200
0000
0000
0300
,
0010
0000
1000
0000
,
0002
0000
0000
0003
,
2000
0000
0000
3000
,
0020
0000
0000
0000
,
0000
0000
0000
0030
,
0200
0000
0000
0000
,
0000
0000
0301
0000
,
2000
0000
0000
0000
,
0000
0000
0000
3000
,
0020
0000
0000
0000
,
0000
0000
0000
0030
,
0200
0000
0000
0000
,
0000
0000
0000
0000
,
0300
0000
0000
0000
,
0000
0000
0002
0000
,
1003
0000
0000
0000
,
0010
0000
0000
0000
,
0100
0000
0000
0000
,
0001
0000
0000
0000
,
1000
0000
0000
0000
,
0001
0000
0000
0000
,
0010
0000
0000
0000
,
0001
0000
0000
0000
,
1000
0000
0000
0000
,
0010
0000
0000
0000
,
0100
0000
0000
0000
,
0001
0000
0000
0000
,
1000
0000
0000
0000
,
0010
0000
0000
0000
,
0100
0000
0000
0000
,
0001
0000
0000
0000
,
1001
0000
0000
0000
;

//---------------dance-single - ----------------
#NOTEDATA:;
#CHARTNAME:;
#STEPSTYPE:dance-single;
#DESCRIPTION:;
#CHARTSTYLE:;
#DIFFICULTY:Medium;
#METER:5;
#RADARVALUES:0.224316,0.362041,0.027427,0.507405,0.000000,229.000000,225.000000,4.000000,74.000000,0.000000,0.000000,0.000000,0.000000,0.000000,0.224316,0.362041,0.027427,0.507405,0.000000,229.000000,225.000000,4.000000,74.000000,0.000000,0.000000,0.000000,0.000000,0.000000;
#CREDIT:;
#NOTES:
0000
0000
0000
0000
,
0000
0000
0000
0000
,
0000
0000
0000
0000
,
0000
0000
0000
0000
,
0000
0000
0000
0000
,
0000
0000
0000
0000
,
0000
0000
0000
0000
,
0000
0000
0000
0000
,
1000
0000
0000
0010
0000
0000
0100
0000
,
0001
0000
0000
0010
0000
0000
0001
0000
,
1000
0000
0000
0000
0000
0000
0001
1000
,
0000
0000
0000
0000
,
0100
0000
0000
1000
0000
0000
0010
0000
,
0000
0000
0100
0000
0000
0100
0000
0000
,
0010
0000
0000
0000
1000
0000
0001
0010
,
0000
0000
0000
0000
,
0200
0000
0000
2300
0000
0000
3020
0000
,
0000
0230
0000
0000
0302
0000
0000
0000
,
2003
0000
0000
3002
0000
0000
2003
0000
,
3010
0000
1000
0010
0000
0100
0001
1000
,
0002
0000
0000
1003
0000
0001
0000
0100
,
0000
0001
0000
0010
0100
0010
0100
0000
,
2000
0000
0000
3100
0000
1000
0000
0010
,
0000
0100
0010
0000
2000
0000
0000
3000
,
0001
0000
0000
0200
0000
0000
0301
0000
,
0000
1000
0000
0100
1000
0000
0010
0000
,
0200
0000
0000
0310
0000
0000
1000
0000
,
0001
0000
1000
0100
0000
1000
0010
0000
,
0200
0000
0000
0310
0000
1000
0000
0001
,
0000
0010
0000
0100
0010
0000
0001
0000
,
2000
0000
0000
3001
0000
1000
0000
0010
,
0000
0100
0010
1000
0002
0000
0000
0000
,
2003
0000
0000
3200
0000
0000
2300
0000
,
0000
0000
3020
0000
0000
0230
0000
0000
,
0302
0000
0000
2003
0000
0000
3020
0000
,
0230
0000
0000
0002
0000
0000
0303
0000
,
0002
0000
0000
2000
0000
0000
3003
0000
,
2000
0000
0000
3020
0000
0000
0230
0000
,
0320
0000
0000
0000
0000
0000
0130
0002
,
0000
0000
0000
0003
,
2000
0000
0000
3200
0000
0000
0320
0000
,
0000
0000
0000
0000
0000
0130
0010
0002
,
0000
0000
0000
0000
0000
0000
0003
1000
,
0001
0000
0001
1000
0000
1000
0010
0000
,
0200
0000
0000
0320
0000
0000
2030
0000
,
0000
0000
3010
1000
0010
0000
0100
0000
,
0002
0000
0000
0000
0000
0000
1000
2000
,
0000
0000
0000
3003
,
0102
0000
0000
0203
0000
0000
0302
0000
,
0000
0000
0000
2003
0000
0000
3200
0000
,
2300
0000
0000
3000
,
0200
0000
0000
0320
0000
0000
0032
0000
,
2003
0000
0000
0000
,
0000
0000
0000
3002
,
0023
0000
0000
0230
0000
0000
2300
0000
,
0000
3000
0000
0000
0100
0000
1000
0000
,
0020
0000
0000
0000
,
0000
0000
0000
0230
,
0302
0000
0000
1003
0000
0000
0100
0000
,
1000
0000
0100
1000
,
0020
0000
0000
0000
0000
0000
0130
0002
,
0000
0000
0000
0000
0103
0000
0010
2000
,
0000
0000
3000
0001
,
1000
0000
0010
1000
0000
0001
0000
0000
,
0200
0000
0000
0000
,
0320
0000
2030
0000
,
3200
0000
0000
0000
,
0320
0000
0000
0000
,
0230
0000
0000
0000
,
0000
0000
0000
0000
,
2000
0000
0000
0300
,
0000
0000
3002
0000
,
0203
0000
0000
0000
,
0000
0000
0000
0000
,
0320
0000
0000
0000
,
0000
0000
0000
0030
,
2002
0000
0000
0000
,
0000
0000
0000
0000
,
0000
0000
0000
0000
,
3003
0000
0110
0000
,
0001
1000
0001
1000
0000
0000
0000
0000
,
1000
0000
0000
0100
0000
0100
0000
0000
,
1000
0010
1000
0010
0000
0000
0000
0000
,
1000
0000
0000
0001
0000
0001
0000
0000
,
0100
0001
0100
0001
0000
0000
0000
0000
,
0100
0000
0000
0010
0000
0010
0000
0000
,
0100
0001
0100
0001
0000
0000
0000
0000
,
0100
0000
0000
0010
0000
0010
0000
0000
,
1000
0001
1000
0010
0000
0000
0000
0000
,
1000
0000
0000
0001
0000
0001
0000
0000
,
0100
0010
0100
0001
0000
0000
0000
0000
,
0100
0000
0000
0010
0000
0010
0000
0000
,
1000
0100
1000
0001
0000
0000
0000
0000
,
0100
0000
0000
0001
0000
1000
0000
0000
,
0010
0100
0001
1000
0000
0000
0000
0000
,
0001
0010
0100
0010
0000
0001
0000
0000
,
1001
0000
0000
0000
;

//---------------dance-single - ----------------
#NOTEDATA:;
#CHARTNAME:;
#STEPSTYPE:dance-single;
#DESCRIPTION:;
#CHARTSTYLE:;
#DIFFICULTY:Beginner;
#METER:1;
#RADARVALUES:0.095016,0.164564,0.020570,0.000000,0.000000,97.000000,94.000000,3.000000,0.000000,0.000000,0.000000,0.000000,0.000000,0.000000,0.095016,0.164564,0.020570,0.000000,0.000000,97.000000,94.000000,3.000000,0.000000,0.000000,0.000000,0.000000,0.000000,0.000000;
#CREDIT:;
#NOTES:
// measure 0
0000
0000
0000
0000
,  // measure 1
0000
0000
0000
0000
,  // measure 2
0000
0000
0000
0000
,  // measure 3
0000
0000
0000
0000
,  // measure 4
0000
0000
0000
0000
,  // measure 5
0000
0000
0000
0000
,  // measure 6
0000
0000
0000
0000
,  // measure 7
0000
0000
0000
0000
,  // measure 8
1000
0000
0000
0000
,  // measure 9
0100
0000
0000
0000
,  // measure 10
1000
0000
0000
0000
,  // measure 11
0000
0000
0000
0000
,  // measure 12
0001
0000
0000
0000
,  // measure 13
0100
0000
0000
0000
,  // measure 14
0001
0000
0000
0000
,  // measure 15
0010
0000
0000
0000
,  // measure 16
0100
0000
0000
0000
,  // measure 17
0100
0000
1000
0000
,  // measure 18
1000
0000
0000
0000
,  // measure 19
0001
0000
0000
0000
,  // measure 20
1000
0000
0000
0000
,  // measure 21
0001
0000
0000
0000
,  // measure 22
0100
0000
0000
0000
,  // measure 23
0010
0000
0000
0000
,  // measure 24
0100
0000
0000
0000
,  // measure 25
0010
0000
1000
0000
,  // measure 26
0001
0000
0000
0000
,  // measure 27
0001
0000
0000
0000
,  // measure 28
1000
0000
0000
0000
,  // measure 29
1000
0000
0000
0000
,  // measure 30
0001
0000
0000
0000
,  // measure 31
0100
0000
0000
0000
,  // measure 32
0010
0000
0000
0000
,  // measure 33
1000
0000
0000
0000
,  // measure 34
0010
0000
0000
0000
,  // measure 35
0100
0000
0010
0000
,  // measure 36
0100
0000
0000
0000
,  // measure 37
0001
0000
0000
0000
,  // measure 38
1000
0000
0000
0000
,  // measure 39
0100
0000
0000
0000
,  // measure 40
1000
0000
0000
0000
,  // measure 41
0001
0000
0000
0000
,  // measure 42
0100
0000
0000
0000
,  // measure 43
0001
0000
0001
0000
,  // measure 44
0010
0000
0000
0000
,  // measure 45
0001
0000
0000
0000
,  // measure 46
1000
0000
0000
0000
,  // measure 47
0010
0000
0000
0000
,  // measure 48
0110
0000
0000
0000
,  // measure 49
0100
0000
0000
0000
,  // measure 50
0010
0000
0000
0000
,  // measure 51
1000
0000
1000
0000
,  // measure 52
1000
0000
0000
0000
,  // measure 53
0000
0000
0000
0001
,  // measure 54
0001
0000
0000
0000
,  // measure 55
0100
0000
0000
0000
,  // measure 56
0010
0000
0000
0000
,  // measure 57
0000
0000
0000
0000
,  // measure 58
0100
0000
0000
0000
,  // measure 59
0010
0000
1000
0000
,  // measure 60
0001
0000
0000
0000
,  // measure 61
1000
0000
0000
0000
,  // measure 62
0100
0000
0000
0000
,  // measure 63
1000
0000
0001
0000
,  // measure 64
0100
0000
0000
0000
,  // measure 65
0010
0000
0000
0000
,  // measure 66
0100
0000
0000
0000
,  // measure 67
0001
0000
0000
0000
,  // measure 68
1000
0000
0000
0000
,  // measure 69
0000
0000
0000
0000
,  // measure 70
0010
0000
0000
0000
,  // measure 71
0000
0000
1000
0000
,  // measure 72
0010
0000
0000
0000
,  // measure 73
0000
0000
0000
0000
,  // measure 74
0100
0000
0000
0000
,  // measure 75
0001
0000
1000
0000
,  // measure 76
0010
0000
0000
0000
,  // measure 77
1000
0000
0000
0000
,  // measure 78
0001
0000
0000
0000
,  // measure 79
0100
0000
0010
0000
,  // measure 80
1001
0000
0000
0000
,  // measure 81
1000
0000
0000
0000
,  // measure 82
0100
0000
0000
0000
,  // measure 83
1000
0000
0000
0000
,  // measure 84
0010
0000
0000
0000
,  // measure 85
0100
0000
0000
0000
,  // measure 86
0001
0000
0000
0000
,  // measure 87
1000
0000
0000
0000
,  // measure 88
0010
0000
0000
0000
,  // measure 89
0100
0000
0000
0000
,  // measure 90
0001
0000
0000
0000
,  // measure 91
1000
0000
0000
0000
,  // measure 92
0100
0000
0000
0000
,  // measure 93
1000
0000
0000
0000
,  // measure 94
0010
0000
0000
0000
,  // measure 95
0100
0000
0000
0000
,  // measure 96
1001
0000
0000
0000
;
