#TITLE:uən;
#SUBTITLE:;
#ARTIST:少年ラジオ;
#TITLETRANSLIT:uen;
#SUBTITLETRANSLIT:;
#ARTISTTRANSLIT:Shounen RADIO;
#CREDIT:;
#BANNER:uen.png;
#BACKGROUND:uen-background.png;
#JACKET:uen-jacket.png;
#LYRICSPATH:;
#CDTITLE:;
#MUSIC:uen.ogg;
#OFFSET:-8.259;
#SAMPLESTART:70.360;
#SAMPLELENGTH:12.000;
#SELECTABLE:YES;
#BPMS:0.000=200.000,16.000=100.000,24.000=200.000,40.000=100.000,56.000=200.000,88.000=100.000,104.000=200.000,136.000=100.000,144.000=200.000,288.000=100.000,296.000=200.000;
#STOPS:;
#BGCHANGES:;

//---------------dance-single - ----------------
#NOTES:
     dance-single:
     :
     Hard:
     9:
     0.656,0.810,0.236,0.143,0.252:
0001
0000
1000
0000
0010
1000
0010
0000
1000
0000
0001
0000
0010
0001
0010
0000
,
0001
0000
1000
0000
0001
1000
0001
0000
0011
0000
0000
0000
1100
0000
0000
0000
,
0001
1000
0001
0000
1000
0000
0010
0000
0100
0001
0100
0000
0010
0000
1000
0000
,
0001
1000
0001
0000
0010
0000
0100
0000
0110
0000
0000
0000
1100
0000
0000
0000
,
1001
0001
0000
0000
0000
0000
0000
0000
0100
0100
0000
0000
0000
0000
0000
0000
,
0010
0010
0000
0000
0000
0000
0000
0000
1000
1000
0000
0000
0000
0000
0000
0000
,
1100
0100
0010
0100
,
1000
0010
0001
0010
,
0100
0000
0010
0100
0000
0100
0010
1000
,
0001
1000
0100
0100
,
0010
0100
2000
0000
0002
0000
0000
0000
,
3003
0002
0103
0020
,
0130
0000
0100
0000
,
0001
0010
0100
0010
0002
0000
1000
0000
,
0103
0010
1000
0000
0100
0010
0001
0000
,
0010
0100
1000
0000
0100
0010
0001
0000
,
0010
0001
1000
0000
0010
0100
0001
0000
,
1000
0010
0100
0000
0010
1000
0001
0000
,
0001
0100
0010
0000
0100
0001
1000
0000
,
0100
0010
0001
0000
0010
0001
1000
0000
,
0100
0010
0001
0000
1000
0010
0100
0000
,
0010
1000
0001
0000
1000
0001
0100
0000
,
1001
0001
0001
0001
1000
1000
1000
1000
,
0001
0001
0001
0001
1000
1000
1000
1000
,
0010
0010
0010
0010
0100
0100
0100
0100
,
0110
0000
0000
0000
0010
0000
0000
0000
0110
0000
0000
0000
0100
0000
0000
0000
0010
0000
1000
0000
0001
0000
1000
0000
1000
0100
1000
0000
0001
0100
0001
0000
,
0001
0100
0001
0100
0001
0100
0001
0100
,
0010
0100
0010
0100
0010
0100
0010
0000
,
0100
0001
0100
0001
0100
0001
0100
0001
,
1000
0100
1000
0100
1000
0100
1000
0000
,
1000
0001
0100
0001
1000
0100
1000
0001
,
0100
0001
1000
0100
1000
0001
1000
0000
,
0001
1000
0010
1000
0001
0010
0001
1000
,
0010
1000
0001
0010
0001
1000
0010
1000
,
0100
0100
0000
0000
0000
0000
0000
0000
,
0000
0000
0000
0000
0000
0000
0000
1100
,
0101
0001
0101
0100
0010
0000
0100
0001
,
1000
0100
1000
0010
0100
0000
0010
1000
,
0001
0010
0100
0010
0001
0000
0100
0010
,
0100
2002
0000
0000
0000
3003
0001
0200
,
0010
0000
1000
0000
0310
1000
0100
0020
,
0001
0000
0100
0000
0031
0010
0001
2000
,
0001
0000
0100
0000
3001
0100
0001
2000
,
0100
0010
3001
0100
,
0001
0100
0010
1000
0010
0100
0001
0010
,
0001
1000
0010
1000
0100
0010
0100
1000
,
0010
0100
0001
0010
0100
0010
0001
1000
,
0010
0100
0000
1001
0000
0000
1000
0020
,
0100
0000
0001
0000
0130
0001
0010
0200
,
1000
0000
0010
0000
1300
0100
1000
0002
,
1000
0000
0010
0000
1003
0010
1000
0002
,
0010
0100
1003
0010
,
0100
0100
0010
0110
0000
0110
0000
0000
,
0001
0001
1000
1001
0000
1001
0000
0000
,
0001
0100
0010
0000
0100
0010
1000
0000
,
0100
0010
0001
0010
0200
0000
0000
0300
,
0010
0001
0100
0010
1000
0010
0100
0001
,
0010
0100
0010
0001
0100
0010
1000
0100
,
0010
0001
0010
0100
0010
0001
0100
0010
,
1000
0001
0010
0100
1000
0100
1000
0010
,
1000
0000
0000
0001
0100
0000
0000
0100
0010
0000
0000
0010
1000
0000
0000
1000
,
0001
0000
0000
0001
0100
0000
0000
0100
0010
0000
0000
0010
1000
0000
0000
0010
,
0100
0000
0000
0010
1000
0000
0000
1000
0001
0000
0000
0001
0100
0000
0000
0100
,
0001
0010
0010
0001
0000
1001
0000
0000
,
0001
0000
1000
0100
1000
0100
1000
0000
0001
0000
0100
0010
0100
0010
0100
0000
,
0010
0000
1000
0010
1000
0010
1000
0000
0001
0000
0100
0001
0100
0001
0100
0000
,
0010
0100
0010
0100
0010
0000
0100
0000
0001
1000
0001
1000
0001
0000
1000
0000
,
0100
1000
0100
1000
0100
0000
0010
0000
0001
0010
0001
0010
0001
0000
1000
0000
,
0001
0010
0100
1000
0001
0010
0100
0010
0001
0100
0010
1000
,
0001
1000
0100
0010
0001
0010
0100
0010
0001
0100
0010
1000
,
1001
0101
1001
1100
,
0110
0011
0110
1100
,
1001
0001
1000
1000
0001
0001
0100
0100
,
0010
0010
0100
0100
0001
0001
0100
0200
,
0300
0000
0000
0000
;

//---------------dance-single - ----------------
#NOTES:
     dance-single:
     :
     Medium:
     7:
     0.453,0.561,0.530,0.337,0.000:
0001
1000
0001
1000
0001
1000
0001
1000
,
0001
1000
0001
1000
1001
0000
0110
0000
,
0100
0010
0100
0010
0100
0010
0100
0010
,
0100
0010
0100
0010
0110
0000
1001
0000
,
0101
0000
0100
0000
,
0001
0000
1000
0000
,
0100
1000
0010
0100
,
0001
0010
0100
0010
,
0001
1000
0010
0100
,
0001
0010
0100
1000
,
0001
0100
2000
0000
0200
0000
0000
0000
,
3300
0100
0010
1000
,
0200
0000
0310
0000
,
0100
1000
0010
0100
0010
0000
1000
0000
,
1001
0001
0101
0100
,
0110
0010
1010
0010
,
0110
0100
0101
0001
,
0011
0010
0110
0100
,
1100
0100
0110
0010
,
0011
0001
0011
0010
,
0110
0010
0110
0100
,
1100
0100
0110
0010
,
0011
0000
0100
0000
,
1000
0000
0001
0000
,
0100
0000
0000
0010
0100
0000
0000
0000
,
0100
0000
0000
0001
0100
1000
0100
0010
,
2000
0000
0000
0000
,
0020
0000
0000
3030
,
0202
0000
0000
0300
,
0200
0000
0000
0303
,
2002
0000
0000
0003
,
0002
0000
0000
3003
,
0220
0000
0300
0100
,
0200
0000
0000
0000
0000
0330
0100
0000
,
0001
0010
0000
0000
0000
0000
0000
0000
,
0000
0000
0000
0000
0000
0000
0000
1000
,
0101
0001
0100
1000
,
0100
0010
1000
0001
,
0010
0000
0100
0000
1000
0000
1000
0100
,
0010
0200
0000
0000
0000
0000
0310
0001
,
0020
0000
0000
0000
0000
0031
0100
2000
,
0000
0000
0000
0000
0000
3100
0010
2000
,
0000
0000
0000
0000
0000
3010
0100
0002
,
0000
0000
1000
1003
,
0101
0001
1001
1000
,
1100
0100
0110
0010
,
0110
0000
0000
1100
0000
0000
0110
0000
,
0100
0100
0000
1100
0000
0000
1000
0200
,
0000
0000
0000
0000
0000
1300
0010
0200
,
0000
0000
0000
0000
0000
1300
0100
0002
,
0000
0000
0000
0000
0000
0013
0100
2000
,
0000
0000
0100
3200
,
1300
0100
0010
0001
0000
0011
0000
0000
,
0001
0010
0100
1000
0000
1100
0000
0000
,
1002
0000
0000
1000
2000
0000
3003
0000
,
0210
0000
0000
0010
0020
0000
0330
0000
,
0010
0100
0001
0010
,
0100
1000
0100
1000
,
0010
0100
0010
1000
,
0001
0010
0100
1000
,
1100
0110
0011
0110
,
1100
0110
0011
0110
,
1001
0101
1001
0101
,
0001
0001
1000
0001
0000
1001
0000
0000
,
0001
0100
0001
0100
0001
0100
0001
0100
,
0001
0100
0001
0100
0101
0000
1010
0000
,
0010
1000
0010
1000
0010
1000
0010
1000
,
0010
1000
0010
1000
1010
0000
0101
0000
,
0002
0023
0230
2300
,
3200
0320
0032
2003
,
3001
1010
1100
0011
,
0011
0110
1100
0110
,
1002
0000
0203
0000
,
2300
0000
3200
0000
,
0300
0000
0000
0000
;

//---------------dance-single - ----------------
#NOTES:
     dance-single:
     :
     Easy:
     4:
     0.291,0.405,0.076,0.177,0.000:
0001
0001
1000
1000
,
0001
0001
1001
1001
,
0100
0100
0010
0010
,
0100
0100
0110
1001
,
1000
0000
0100
0000
,
1000
0000
0010
0000
,
0100
0001
1000
0100
,
0010
0100
1000
0010
,
0100
0001
0010
0100
,
0010
0001
1000
0010
,
0100
0001
2000
0000
0200
0000
0000
0000
,
3300
0100
0010
0001
,
1000
0000
0100
0000
,
1000
0100
0010
0001
0010
0000
0001
0000
,
0100
0001
2000
0000
,
3200
0000
0000
0000
,
0300
0000
0010
0000
,
0100
1000
0100
0010
,
0100
0100
0010
0000
,
0001
0000
1000
0000
,
0001
0000
0100
0000
,
0001
0010
0100
0000
,
1100
0000
0100
0000
,
0010
0000
0100
0000
,
1000
0000
0001
0000
,
0100
0000
0001
0000
,
2000
0000
0000
0000
,
0020
0000
0000
3030
,
0020
0000
0000
0000
,
0200
0000
0000
0330
,
0200
0000
0000
0000
,
0002
0000
0000
0303
,
0002
0000
0000
0000
,
2000
0000
0000
0000
0000
3003
0000
0000
,
0001
0100
0000
0000
0000
0000
0000
0000
,
0000
0000
0000
0000
0000
0000
0000
0100
,
0010
1000
0000
0000
,
1000
0000
0000
0000
,
0010
0000
0100
0000
,
1001
0000
0000
0000
0000
0000
0001
0100
,
0000
0000
0000
0000
0000
0100
0010
0100
,
0000
0000
0000
0000
0000
0010
1000
0010
,
0000
0000
0000
0000
0000
1000
0001
1000
,
0000
0000
1000
0100
,
0001
0100
0010
0001
,
0010
1000
0010
0100
,
1000
0100
0001
0100
,
0010
0100
0000
0110
0000
0000
0100
1000
,
0000
0000
0000
0000
0000
1000
0100
0010
,
0000
0000
0000
0000
0000
0010
0100
1000
,
0000
0000
0000
0000
0000
1000
0001
0100
,
0000
0000
0001
0100
,
0010
0100
0010
0100
0000
0110
0000
0000
,
0001
1000
0001
1000
0000
1001
0000
0000
,
0002
0000
0103
0000
,
0200
0000
0310
0000
,
0100
0001
0010
0100
,
0010
0001
1000
0010
,
0100
0001
0010
0100
,
1000
0100
1000
0010
,
0100
0100
0001
0001
,
1000
1000
0100
0100
,
0010
0010
0100
0100
,
1000
0100
0010
0001
0000
0010
0000
0000
,
0001
0100
1000
0100
,
0010
0000
1000
0000
0002
0000
0000
0003
,
0010
0100
1000
0100
,
1000
0010
0100
0001
,
2000
0000
3200
0000
,
0320
0000
0032
0000
,
0013
0100
1000
0100
,
0010
0001
1000
0010
,
0200
0000
0000
0000
,
0020
0000
0000
0000
,
0330
0000
0000
0000
;

//---------------dance-single - ----------------
#NOTES:
     dance-single:
     :
     Beginner:
     2:
     0.145,0.311,0.093,0.025,0.000: // measure 1
0001
0000
0001
0000
,  // measure 2
0001
0000
1000
1000
,  // measure 3
0100
0000
1000
0000
,  // measure 4
0010
0000
0100
0100
,  // measure 5
0010
0000
0100
0000
,  // measure 6
0001
0000
1000
0000
,  // measure 7
0100
0000
0000
0000
,  // measure 8
1000
0000
0000
0000
,  // measure 9
0010
0000
0000
0000
,  // measure 10
0100
0000
0000
0000
,  // measure 11
0001
0000
0000
0000
,  // measure 12
0100
0000
0000
0000
,  // measure 13
0001
0000
0000
0000
,  // measure 14
1000
0000
0100
0000
,  // measure 15
1000
0000
1000
0000
,  // measure 16
1000
0000
0000
0000
,  // measure 17
0000
0000
0001
0000
,  // measure 18
0001
0000
0100
0000
,  // measure 19
0001
0000
0001
0000
,  // measure 20
1000
0000
1000
0000
,  // measure 21
0100
0000
1000
0000
,  // measure 22
0010
0010
0010
0000
,  // measure 23
0100
0000
0000
0000
,  // measure 24
0001
0000
0000
0000
,  // measure 25
1000
0000
0000
0000
,  // measure 26
0100
0000
0010
0000
,  // measure 27
0001
0000
0000
0000
,  // measure 28
0001
0000
0000
0000
,  // measure 29
0100
0000
0000
0000
,  // measure 30
0100
0000
0000
0000
,  // measure 31
0010
0000
0000
0000
,  // measure 32
0010
0000
0000
0000
,  // measure 33
1000
0000
0000
0000
,  // measure 34
1000
0000
0000
0000
,  // measure 35
0001
0000
0000
0000
,  // measure 36
0000
0000
0000
0000
,  // measure 37
0100
0000
0000
0000
,  // measure 38
0010
0000
0000
0000
,  // measure 39
1000
0000
0001
0000
,  // measure 40
1001
0000
0000
0000
,  // measure 41
0010
0000
0000
0000
,  // measure 42
0100
0000
0000
0000
,  // measure 43
0001
0000
0000
0000
,  // measure 44
1000
0000
0000
0000
,  // measure 45
0100
0000
0010
0000
,  // measure 46
0001
0000
1000
0000
,  // measure 47
0001
0000
0100
0000
,  // measure 48
0010
0010
0010
0000
,  // measure 49
0100
0000
0000
0000
,  // measure 50
0001
0000
0000
0000
,  // measure 51
1000
0000
0000
0000
,  // measure 52
0100
0000
0000
0000
,  // measure 53
1001
0000
0000
0000
,  // measure 54
0110
0000
0000
0000
,  // measure 55
0100
0000
0010
0000
,  // measure 56
0100
0000
0100
0000
,  // measure 57
0001
0000
0000
0000
,  // measure 58
1000
0000
0000
0000
,  // measure 59
0100
0000
0000
0000
,  // measure 60
1000
0000
0000
0000
,  // measure 61
0010
0000
0100
0000
,  // measure 62
0001
0000
1000
0000
,  // measure 63
0100
0000
0010
0000
,  // measure 64
0001
0000
1000
0000
,  // measure 65
1001
0000
1001
0000
,  // measure 66
1001
0000
1001
0000
,  // measure 67
0110
0000
0110
0000
,  // measure 68
0110
0000
0110
0000
,  // measure 69
0020
0000
0000
0030
,  // measure 70
0200
0000
0000
0300
,  // measure 71
0001
0000
1000
0000
,  // measure 72
0100
0000
0010
0000
,  // measure 73
0002
0000
0000
0000
,  // measure 74
0000
0000
0000
0000
,  // measure 75
0003
0000
0000
0000
;
